Аут 1, не прикасайся ко мне / Out 1, noli me tangere (Жак Риветт / Jacques Rivette, Сюзанн Шиффман / Suzanne Schiffman) [1971, Франция, драма, детектив, комедия, BDRip 720p] Original Fra + Sub (Rus, Eng)

Страницы:  1

Ответить
Автор
Сообщение

DarLeg

Стаж: 10 лет

Сообщений: 1254


DarLeg · 02-Июл-18 02:16 (3 месяца 19 дней назад, ред. 02-Июл-18 02:24)

Аут 1, не прикасайся ко мне / Out 1, noli me tangere
Год выпуска: 1971
Страна: Франция
Жанр: драма, детектив, комедия
Продолжительность: 12:55:36 (01:29:56 + 01:49:36 + 01:48:20 + 01:46:16 + 01:29:27 + 01:40:49 + 01:38:09 + 01:13:03)
Перевод: Субтитры
Оригинальная аудиодорожка: Французская
Субтитры: Русские, английские
Режиссер: Жак Риветт / Jacques Rivette, Сюзанн Шиффман / Suzanne Schiffman
В ролях: Пьер Байо, Жилет Барбье, Жан-Пьер Бастид, Жюльет Берто, Мишель Берто, Рене Бьяджи, Од Бито, Жан Буиз, Марсель Бозоне, Моник Клеман, Кристиана Кортэй, Сильвен Кортэй, Мишель Делайе, Жак-Дониоль Валькроз, Франсуаз Фабиан, Патрик Э, Андре Жюльен, Луи Жюльен, Эрмин Карагёз, Мишель Хан, Бернадет Лафон, Жан-Пьер Лео, Ален Либо, Мишель Лонсдаль, Жерар Мартэн, Эдвин Моатти, Мишель Моретти, Урбен Диа Мукори, Бюль Ожье, Бернадет Онфрой, Жак Прейер, Карен Пюиг, Жером Ришар, Эрик Ромер, Брижит Руан, Барбе Шрёдер, Жан-Франсуа Стевенен, Стефан Чалгаджиефф, Кристиан де Тильер
Описание:
Формально фильм состоит из: репетиций двух театральных трупп, которые репетируют Эсхила (образ Прометея – одна из тем, которые связывают фильм); детективного сюжета о некоем тайном обществе Тринадцати; разговоров на частно- и общекультурные темы; декламирования отрывков из различных произведений; кто-то, прикидываясь дурочкой, выманивает деньги, кто-то вымогает деньги, играя на губной гармонике; а также из видов гόрода, театральных сцен, гремящих машин, парижских кафе, моря, солнца… Это перечисление совершенно излишне, так как бесцеремонно тревожит тот зыбкий флёр фильма, в котором всё это растёт и живёт. Out 1 – это кино, которое противопоказано пересказывать.
Фильм отличается сложной структурой, порой кажущейся произвольной; причиной этому – свобода в режиссёрском мизансценировании и большой доли импровизации в актёрской игре. Политональность фильма заложена при съёмке Риветтом и вновь рождается зрителем при просмотре – из сравнений, найденных или придуманных связей, постижения метафор и аллюзий. Темы фильма сплетаются, расплетаются, обрываются, продолжаются вечно. Заглавие каждой серии словно бы задаёт вектор движения – от одного персонажа к другому, причём движение не заканчивается с окончанием серии – оно длится. Персонажи переходят в другие темы, добавляя новые интонации в их раскрытие; иногда они на несколько секунд возникают в ткани серии и исчезают, чтобы в следующем максимально развить действие, связанное с ними. Фильм даже заканчивается, начинаясь – после всех событий, кратким кадром мелькает прекрасное женское лицо, и этот кадр, как зародыш дальнейшего действия, возможно, намекает, что фильм бесконечен и продолжается даже после того, как закончился на экране.
Набившее оскомину определение этого фильма, как «самого длинного фильма» (740 минут), ничего не даёт, возможно, наоборот, отнимает чёткость вúдения, исподволь настраивая зрителя на марафон. Out 1 категорически противопоказано смотреть запоем – зрителю никто не будет засчитывать нормативы по непрерывному сеансу, тем более, что Риветт задумывал фильм многосерийным, и уж точно, никого не хотел испытывать на прочность непрерывным просмотром. Для тех, кто проделает такой трюк, особый смак этой вещи будет смыт усталостью, избыточностью, несварением мыслей. Out 1 нужно смотреть завороженно и медленно, размышляя над каждой серией (возможно, делая заметки), растягивая удовольствие, так как каждый его зритель должен знать, что больше такой фильм никто не снимет.
| | Сэмплы
Генеральный перевод на слух и окончательная проверка реплик – Lisok
Первоначальный перевод выполнен addicted-tolove, alex-kin и vslushivanie; дополнение реплик – quelconcetipe.
Проверка субтитров – alex-kin и addicted-tolove, дополнительный тайминг – alex-kin.

Качество: BDRip 720p (ZQ)
Контейнер: MKV
Видео: x264, 986x720 (1.37:1), 23,976 fps, ~10000–13000 kbps
Аудио 1: Французский AAC 1.0, 48 kHz, ~150 kbps
Аудио 2: Французский FLAC 1.0, 48 kHz, ~250 kbps, 16-bit
Формат субтитров: softsub (SRT)
Скриншоты
MI
nfo
x264 logs:
x264 [info]: frame I:547 Avg QP:21.97 size:121877
x264 [info]: frame P:21513 Avg QP:23.61 size: 85620
x264 [info]: frame B:107330 Avg QP:24.46 size: 62518
encoded 129390 frames, 2.10 fps, 12776.31 kb/s (43.28% of source bitrate)
x264 [info]: frame I:697 Avg QP:21.95 size:123400
x264 [info]: frame P:23036 Avg QP:23.59 size: 85946
x264 [info]: frame B:133942 Avg QP:24.49 size: 62794
encoded 157675 frames, 2.15 fps, 12744.63 kb/s (43.18% of source bitrate)
x264 [info]: frame I:694 Avg QP:21.46 size:113283
x264 [info]: frame P:22346 Avg QP:22.96 size: 66947
x264 [info]: frame B:132824 Avg QP:23.89 size: 49180
encoded 155864 frames, 2.42 fps, 9976.39 kb/s (36.94% of source bitrate)
x264 [info]: frame I:672 Avg QP:22.06 size:126802
x264 [info]: frame P:21733 Avg QP:23.51 size: 82820
x264 [info]: frame B:130484 Avg QP:24.48 size: 62183
encoded 152889 frames, 2.14 fps, 12544.37 kb/s (46.44% of source bitrate)
x264 [info]: frame I:575 Avg QP:21.89 size:124126
x264 [info]: frame P:18614 Avg QP:23.46 size: 80885
x264 [info]: frame B:109508 Avg QP:24.33 size: 57680
encoded 128697 frames, 2.20 fps, 11764.23 kb/s (39.85% of source bitrate)
x264 [info]: frame I:626 Avg QP:21.86 size:120348
x264 [info]: frame P:21925 Avg QP:23.49 size: 77808
x264 [info]: frame B:122498 Avg QP:24.33 size: 54941
encoded 145049 frames, 2.28 fps, 11255.27 kb/s (38.13% of source bitrate)
x264 [info]: frame I:632 Avg QP:22.05 size:129396
x264 [info]: frame P:21474 Avg QP:23.53 size: 88352
x264 [info]: frame B:119098 Avg QP:24.42 size: 64405
encoded 141204 frames, 2.09 fps, 13107.79 kb/s (44.40% of source bitrate)
x264 [info]: frame I:460 Avg QP:21.16 size:112633
x264 [info]: frame P:13043 Avg QP:23.01 size: 71606
x264 [info]: frame B:91595 Avg QP:23.89 size: 53575
encoded 105098 frames, 2.17 fps, 10754.98 kb/s (36.43% of source bitrate)
Episode 1
General
Unique ID : 31945058837695170329764593569798232687 (0x18086500833F3386C9DD6E4412231A6F)
Complete name : Out.1.1971.720p.BluRay.AAC.FLAC.x264-ZQ\Out.1.E01.1971.720p.BluRay.AAC-FLAC.x264-ZQ.mkv
Format : Matroska
Format version : Version 2
File size : 8.26 GiB
Duration : 1 h 29 min
Overall bit rate mode : Variable
Overall bit rate : 13.1 Mb/s
Movie name : Out 1, noli me tangere AKA Out 1 - E01: From Lili to Thomas [1971] 720p BluRay - ZQ
Encoded date : UTC 2018-07-01 22:03:38
Writing application : mkvmerge v23.0.0 ('The Bride Said No') 64-bit
Writing library : libebml v1.3.6 + libmatroska v1.4.9
Cover : Yes
Attachments : cover.jpeg
Video
ID : 1
Format : AVC
Format/Info : Advanced Video Codec
Format profile : [email protected]
Format settings : CABAC / 11 Ref Frames
Format settings, CABAC : Yes
Format settings, RefFrames : 11 frames
Codec ID : V_MPEG4/ISO/AVC
Duration : 1 h 29 min
Bit rate : 12.8 Mb/s
Width : 986 pixels
Height : 720 pixels
Display aspect ratio : 4:3
Frame rate mode : Constant
Frame rate : 23.976 (24000/1001) FPS
Color space : YUV
Chroma subsampling : 4:2:0
Bit depth : 8 bits
Scan type : Progressive
Bits/(Pixel*Frame) : 0.751
Stream size : 8.03 GiB (97%)
Title : Out.1.E01.1971.720p.BluRay.AAC.x264-ZQ
Writing library : x264 core 142 r2431+42 c69a006 tMod [[email protected]:2:0 X86_64]
Encoding settings : cabac=1 / ref=11 / deblock=1:-3:-3 / analyse=0x3:0x133 / me=tesa / subme=11 / psy=1 / fade_compensate=0.00 / psy_rd=1.10:0.03 / mixed_ref=1 / me_range=32 / chroma_me=1 / trellis=2 / 8x8dct=1 / cqm=0 / deadzone=21,11 / fast_pskip=0 / chroma_qp_offset=-2 / threads=12 / lookahead_threads=3 / sliced_threads=0 / nr=0 / decimate=0 / interlaced=0 / bluray_compat=0 / constrained_intra=0 / fgo=3 / bframes=16 / b_pyramid=2 / b_adapt=2 / b_bias=0 / direct=3 / weightb=1 / open_gop=0 / weightp=2 / keyint=250 / keyint_min=23 / scenecut=40 / intra_refresh=0 / rc_lookahead=250 / rc=crf / mbtree=0 / crf=20.6000 / qcomp=0.65 / qpmin=0:0:0 / qpmax=69:69:69 / qpstep=4 / vbv_maxrate=62500 / vbv_bufsize=78125 / crf_max=0.0 / nal_hrd=none / filler=0 / ip_ratio=1.25 / pb_ratio=1.13 / aq=3:0.43 / aq-sensitivity=12.50 / aq-factor=1.00:1.00:1.00 / aq2=1:0.41 / aq2-sensitivity=14.40 / aq2-factor=1.00:1.00:1.00 / aq3=1:[0.00:0.54]:[0.00:0.58]:[0.00:0.74]:[0.00:0.00] / aq3-sensitivity=13.50 / aq3-factor=[1.00:1.00]:[1.00:1.00]:[1.00:1.00] / aq3-boundary=70:30:16
Language : French
Default : Yes
Forced : No
Color range : Limited
Color primaries : BT.709
Transfer characteristics : BT.709
Matrix coefficients : BT.709
Audio #1
ID : 2
Format : AAC
Format/Info : Advanced Audio Codec
Format profile : LC
Codec ID : A_AAC-2
Duration : 1 h 29 min
Bit rate : 138 kb/s
Channel(s) : 1 channel
Channel positions : Front: C
Sampling rate : 48.0 kHz
Frame rate : 46.875 FPS (1024 SPF)
Compression mode : Lossy
Stream size : 88.7 MiB (1%)
Language : French
Default : Yes
Forced : No
Audio #2
ID : 3
Format : FLAC
Format/Info : Free Lossless Audio Codec
Codec ID : A_FLAC
Duration : 1 h 29 min
Bit rate mode : Variable
Bit rate : 226 kb/s
Channel(s) : 1 channel
Channel positions : Front: C
Sampling rate : 48.0 kHz
Frame rate : 11.719 FPS (4096 SPF)
Bit depth : 16 bits
Stream size : 145 MiB (2%)
Writing library : libFLAC 1.3.2 (UTC 2017-01-01)
Language : French
Default : No
Forced : No
Text #1
ID : 4
Format : UTF-8
Codec ID : S_TEXT/UTF8
Codec ID/Info : UTF-8 Plain Text
Duration : 1 h 26 min
Bit rate : 53 b/s
Count of elements : 543
Stream size : 33.8 KiB (0%)
Title : Lisok, addicted-tolove, alex-kin, vslushivanie, quelconcetipe
Language : Russian
Default : Yes
Forced : No
Text #2
ID : 5
Format : UTF-8
Codec ID : S_TEXT/UTF8
Codec ID/Info : UTF-8 Plain Text
Duration : 1 h 25 min
Bit rate : 25 b/s
Count of elements : 474
Stream size : 16.1 KiB (0%)
Title : Arrow
Language : English
Default : No
Forced : No
Menu
00:00:00.000 : en:Chapter 1
00:00:47.547 : en:Chapter 2
00:13:01.030 : en:Chapter 3
00:14:17.607 : en:Chapter 4
00:31:43.693 : en:Chapter 5
00:41:42.166 : en:Chapter 6
00:51:47.980 : en:Chapter 7
00:53:26.620 : en:Chapter 8
01:08:56.257 : en:Chapter 9
01:13:52.428 : en:Chapter 10
01:19:18.379 : en:Chapter 11
01:22:22.062 : en:Chapter 12
01:27:30.162 : en:Chapter 13
01:28:36.061 : en:Chapter 14
Episode 2
General
Unique ID : 54364252956975396304527010086076757590 (0x28E62C9CC9F2A7864D5AA6F642E73656)
Complete name : Out.1.1971.720p.BluRay.AAC.FLAC.x264-ZQ\Out.1.E02.1971.720p.BluRay.AAC-FLAC.x264-ZQ.mkv
Format : Matroska
Format version : Version 2
File size : 10.1 GiB
Duration : 1 h 49 min
Overall bit rate mode : Variable
Overall bit rate : 13.1 Mb/s
Movie name : Out 1, noli me tangere AKA Out 1 - E02: From Thomas to Frédérique [1971] 720p BluRay - ZQ
Encoded date : UTC 2018-07-01 22:10:45
Writing application : mkvmerge v23.0.0 ('The Bride Said No') 64-bit
Writing library : libebml v1.3.6 + libmatroska v1.4.9
Cover : Yes
Attachments : cover.jpeg
Video
ID : 1
Format : AVC
Format/Info : Advanced Video Codec
Format profile : [email protected]
Format settings : CABAC / 11 Ref Frames
Format settings, CABAC : Yes
Format settings, RefFrames : 11 frames
Codec ID : V_MPEG4/ISO/AVC
Duration : 1 h 49 min
Bit rate : 12.7 Mb/s
Width : 986 pixels
Height : 720 pixels
Display aspect ratio : 4:3
Frame rate mode : Constant
Frame rate : 23.976 (24000/1001) FPS
Color space : YUV
Chroma subsampling : 4:2:0
Bit depth : 8 bits
Scan type : Progressive
Bits/(Pixel*Frame) : 0.749
Stream size : 9.76 GiB (97%)
Title : Out.1.E02.1971.720p.BluRay.AAC.x264-ZQ
Writing library : x264 core 142 r2431+42 c69a006 tMod [[email protected]:2:0 X86_64]
Encoding settings : cabac=1 / ref=11 / deblock=1:-3:-3 / analyse=0x3:0x133 / me=tesa / subme=11 / psy=1 / fade_compensate=0.00 / psy_rd=1.10:0.03 / mixed_ref=1 / me_range=32 / chroma_me=1 / trellis=2 / 8x8dct=1 / cqm=0 / deadzone=21,11 / fast_pskip=0 / chroma_qp_offset=-2 / threads=12 / lookahead_threads=3 / sliced_threads=0 / nr=0 / decimate=0 / interlaced=0 / bluray_compat=0 / constrained_intra=0 / fgo=3 / bframes=16 / b_pyramid=2 / b_adapt=2 / b_bias=0 / direct=3 / weightb=1 / open_gop=0 / weightp=2 / keyint=250 / keyint_min=23 / scenecut=40 / intra_refresh=0 / rc_lookahead=250 / rc=crf / mbtree=0 / crf=20.6000 / qcomp=0.65 / qpmin=0:0:0 / qpmax=69:69:69 / qpstep=4 / vbv_maxrate=62500 / vbv_bufsize=78125 / crf_max=0.0 / nal_hrd=none / filler=0 / ip_ratio=1.25 / pb_ratio=1.13 / aq=3:0.43 / aq-sensitivity=12.50 / aq-factor=1.00:1.00:1.00 / aq2=1:0.41 / aq2-sensitivity=14.40 / aq2-factor=1.00:1.00:1.00 / aq3=1:[0.00:0.54]:[0.00:0.58]:[0.00:0.74]:[0.00:0.00] / aq3-sensitivity=13.50 / aq3-factor=[1.00:1.00]:[1.00:1.00]:[1.00:1.00] / aq3-boundary=70:30:16
Language : French
Default : Yes
Forced : No
Color range : Limited
Color primaries : BT.709
Transfer characteristics : BT.709
Matrix coefficients : BT.709
Audio #1
ID : 2
Format : AAC
Format/Info : Advanced Audio Codec
Format profile : LC
Codec ID : A_AAC-2
Duration : 1 h 49 min
Bit rate : 140 kb/s
Channel(s) : 1 channel
Channel positions : Front: C
Sampling rate : 48.0 kHz
Frame rate : 46.875 FPS (1024 SPF)
Compression mode : Lossy
Stream size : 110 MiB (1%)
Language : French
Default : Yes
Forced : No
Audio #2
ID : 3
Format : FLAC
Format/Info : Free Lossless Audio Codec
Codec ID : A_FLAC
Duration : 1 h 49 min
Bit rate mode : Variable
Bit rate : 239 kb/s
Channel(s) : 1 channel
Channel positions : Front: C
Sampling rate : 48.0 kHz
Frame rate : 11.719 FPS (4096 SPF)
Bit depth : 16 bits
Stream size : 187 MiB (2%)
Writing library : libFLAC 1.3.2 (UTC 2017-01-01)
Language : French
Default : No
Forced : No
Text #1
ID : 4
Format : UTF-8
Codec ID : S_TEXT/UTF8
Codec ID/Info : UTF-8 Plain Text
Duration : 1 h 47 min
Bit rate : 98 b/s
Count of elements : 1199
Stream size : 77.7 KiB (0%)
Title : Lisok, addicted-tolove, alex-kin, vslushivanie, quelconcetipe
Language : Russian
Default : Yes
Forced : No
Text #2
ID : 5
Format : UTF-8
Codec ID : S_TEXT/UTF8
Codec ID/Info : UTF-8 Plain Text
Duration : 1 h 47 min
Bit rate : 48 b/s
Count of elements : 1085
Stream size : 38.4 KiB (0%)
Title : Arrow
Language : English
Default : No
Forced : No
Menu
00:00:00.000 : en:Chapter 1
00:02:52.047 : en:Chapter 2
00:14:05.261 : en:Chapter 3
00:15:30.680 : en:Chapter 4
00:22:02.655 : en:Chapter 5
00:28:07.269 : en:Chapter 6
00:33:53.615 : en:Chapter 7
00:35:10.275 : en:Chapter 8
00:37:38.923 : en:Chapter 9
00:42:05.606 : en:Chapter 10
00:44:27.832 : en:Chapter 11
00:57:52.386 : en:Chapter 12
00:59:49.127 : en:Chapter 13
01:07:44.686 : en:Chapter 14
01:09:44.972 : en:Chapter 15
01:12:59.542 : en:Chapter 16
01:25:56.818 : en:Chapter 17
01:38:34.992 : en:Chapter 18
01:48:00.849 : en:Chapter 19
Episode 3
General
Unique ID : 230697810114512605143123638892113020747 (0xAD8EC8351C6C99AF32AA800E45CDC74B)
Complete name : Out.1.1971.720p.BluRay.AAC.FLAC.x264-ZQ\Out.1.E03.1971.720p.BluRay.AAC.FLAC.x264-ZQ.mkv
Format : Matroska
Format version : Version 2
File size : 7.88 GiB
Duration : 1 h 48 min
Overall bit rate mode : Variable
Overall bit rate : 10.4 Mb/s
Movie name : Out 1, noli me tangere AKA Out 1 - E03: From Frédérique to Sarah [1971] 720p BluRay - ZQ
Encoded date : UTC 2018-07-01 22:15:42
Writing application : mkvmerge v23.0.0 ('The Bride Said No') 64-bit
Writing library : libebml v1.3.6 + libmatroska v1.4.9
Cover : Yes
Attachments : cover.jpeg
Video
ID : 1
Format : AVC
Format/Info : Advanced Video Codec
Format profile : [email protected]
Format settings : CABAC / 11 Ref Frames
Format settings, CABAC : Yes
Format settings, RefFrames : 11 frames
Codec ID : V_MPEG4/ISO/AVC
Duration : 1 h 48 min
Bit rate : 9 976 kb/s
Width : 986 pixels
Height : 720 pixels
Display aspect ratio : 4:3
Frame rate mode : Constant
Frame rate : 23.976 (24000/1001) FPS
Color space : YUV
Chroma subsampling : 4:2:0
Bit depth : 8 bits
Scan type : Progressive
Bits/(Pixel*Frame) : 0.586
Stream size : 7.55 GiB (96%)
Title : Out.1.E03.1971.720p.BluRay.AAC.x264-ZQ
Writing library : x264 core 142 r2431+42 c69a006 tMod [[email protected]:2:0 X86_64]
Encoding settings : cabac=1 / ref=11 / deblock=1:-3:-3 / analyse=0x3:0x133 / me=tesa / subme=11 / psy=1 / fade_compensate=0.00 / psy_rd=1.10:0.03 / mixed_ref=1 / me_range=32 / chroma_me=1 / trellis=2 / 8x8dct=1 / cqm=0 / deadzone=21,11 / fast_pskip=0 / chroma_qp_offset=-2 / threads=12 / lookahead_threads=3 / sliced_threads=0 / nr=0 / decimate=0 / interlaced=0 / bluray_compat=0 / constrained_intra=0 / fgo=3 / bframes=16 / b_pyramid=2 / b_adapt=2 / b_bias=0 / direct=3 / weightb=1 / open_gop=0 / weightp=2 / keyint=250 / keyint_min=23 / scenecut=40 / intra_refresh=0 / rc_lookahead=250 / rc=crf / mbtree=0 / crf=20.5000 / qcomp=0.66 / qpmin=0:0:0 / qpmax=69:69:69 / qpstep=4 / vbv_maxrate=62500 / vbv_bufsize=78125 / crf_max=0.0 / nal_hrd=none / filler=0 / ip_ratio=1.25 / pb_ratio=1.13 / aq=3:0.43 / aq-sensitivity=12.50 / aq-factor=1.00:1.00:1.00 / aq2=1:0.41 / aq2-sensitivity=14.40 / aq2-factor=1.00:1.00:1.00 / aq3=1:[0.00:0.54]:[0.00:0.58]:[0.00:0.74]:[0.00:0.00] / aq3-sensitivity=13.50 / aq3-factor=[1.00:1.00]:[1.00:1.00]:[1.00:1.00] / aq3-boundary=70:30:16
Language : French
Default : Yes
Forced : No
Color range : Limited
Color primaries : BT.709
Transfer characteristics : BT.709
Matrix coefficients : BT.709
Audio #1
ID : 2
Format : AAC
Format/Info : Advanced Audio Codec
Format profile : LC
Codec ID : A_AAC-2
Duration : 1 h 48 min
Bit rate : 167 kb/s
Channel(s) : 1 channel
Channel positions : Front: C
Sampling rate : 48.0 kHz
Frame rate : 46.875 FPS (1024 SPF)
Compression mode : Lossy
Stream size : 129 MiB (2%)
Language : French
Default : Yes
Forced : No
Audio #2
ID : 3
Format : FLAC
Format/Info : Free Lossless Audio Codec
Codec ID : A_FLAC
Duration : 1 h 48 min
Bit rate mode : Variable
Bit rate : 261 kb/s
Channel(s) : 1 channel
Channel positions : Front: C
Sampling rate : 48.0 kHz
Frame rate : 11.719 FPS (4096 SPF)
Bit depth : 16 bits
Stream size : 202 MiB (3%)
Writing library : libFLAC 1.3.2 (UTC 2017-01-01)
Language : French
Default : No
Forced : No
Text #1
ID : 4
Format : UTF-8
Codec ID : S_TEXT/UTF8
Codec ID/Info : UTF-8 Plain Text
Duration : 1 h 46 min
Bit rate : 99 b/s
Count of elements : 1150
Stream size : 77.5 KiB (0%)
Title : Lisok, addicted-tolove, alex-kin, vslushivanie, quelconcetipe
Language : Russian
Default : Yes
Forced : No
Text #2
ID : 5
Format : UTF-8
Codec ID : S_TEXT/UTF8
Codec ID/Info : UTF-8 Plain Text
Duration : 1 h 46 min
Bit rate : 49 b/s
Count of elements : 1114
Stream size : 38.7 KiB (0%)
Title : Arrow
Language : English
Default : No
Forced : No
Menu
00:00:00.000 : en:Chapter 1
00:02:33.737 : en:Chapter 2
00:08:46.651 : en:Chapter 3
00:15:06.405 : en:Chapter 4
00:23:08.095 : en:Chapter 5
00:27:07.000 : en:Chapter 6
00:43:07.293 : en:Chapter 7
00:48:29.281 : en:Chapter 8
00:53:57.818 : en:Chapter 9
01:11:50.223 : en:Chapter 10
01:16:41.430 : en:Chapter 11
01:22:01.959 : en:Chapter 12
01:24:44.830 : en:Chapter 13
01:26:29.059 : en:Chapter 14
01:34:57.609 : en:Chapter 15
01:38:28.152 : en:Chapter 16
01:47:05.836 : en:Chapter 17
Episode 4
General
Unique ID : 180091311277666720180906055203750458895 (0x877C532D641A56B3305C46B9BCC0B60F)
Complete name : Out.1.1971.720p.BluRay.AAC.FLAC.x264-ZQ\Out.1.E04.1971.720p.BluRay.AAC.FLAC.x264-ZQ.mkv
Format : Matroska
Format version : Version 2
File size : 9.62 GiB
Duration : 1 h 46 min
Overall bit rate mode : Variable
Overall bit rate : 13.0 Mb/s
Movie name : Out 1, noli me tangere AKA Out 1 - E04: From Sarah to Colin [1971] 720p BluRay - ZQ
Encoded date : UTC 2018-07-01 22:27:20
Writing application : mkvmerge v23.0.0 ('The Bride Said No') 64-bit
Writing library : libebml v1.3.6 + libmatroska v1.4.9
Cover : Yes
Attachments : cover.jpeg
Video
ID : 1
Format : AVC
Format/Info : Advanced Video Codec
Format profile : [email protected]
Format settings : CABAC / 11 Ref Frames
Format settings, CABAC : Yes
Format settings, RefFrames : 11 frames
Codec ID : V_MPEG4/ISO/AVC
Duration : 1 h 46 min
Bit rate : 12.5 Mb/s
Width : 986 pixels
Height : 720 pixels
Display aspect ratio : 4:3
Frame rate mode : Constant
Frame rate : 23.976 (24000/1001) FPS
Color space : YUV
Chroma subsampling : 4:2:0
Bit depth : 8 bits
Scan type : Progressive
Bits/(Pixel*Frame) : 0.737
Stream size : 9.31 GiB (97%)
Title : Out.1.E04.1971.720p.BluRay.AAC.x264-ZQ
Writing library : x264 core 142 r2431+42 c69a006 tMod [[email protected]:2:0 X86_64]
Encoding settings : cabac=1 / ref=11 / deblock=1:-3:-3 / analyse=0x3:0x133 / me=tesa / subme=11 / psy=1 / fade_compensate=0.00 / psy_rd=1.10:0.03 / mixed_ref=1 / me_range=32 / chroma_me=1 / trellis=2 / 8x8dct=1 / cqm=0 / deadzone=21,11 / fast_pskip=0 / chroma_qp_offset=-2 / threads=12 / lookahead_threads=3 / sliced_threads=0 / nr=0 / decimate=0 / interlaced=0 / bluray_compat=0 / constrained_intra=0 / fgo=3 / bframes=16 / b_pyramid=2 / b_adapt=2 / b_bias=0 / direct=3 / weightb=1 / open_gop=0 / weightp=2 / keyint=250 / keyint_min=23 / scenecut=40 / intra_refresh=0 / rc_lookahead=250 / rc=crf / mbtree=0 / crf=20.6000 / qcomp=0.65 / qpmin=0:0:0 / qpmax=69:69:69 / qpstep=4 / vbv_maxrate=62500 / vbv_bufsize=78125 / crf_max=0.0 / nal_hrd=none / filler=0 / ip_ratio=1.25 / pb_ratio=1.13 / aq=3:0.43 / aq-sensitivity=12.50 / aq-factor=1.00:1.00:1.00 / aq2=1:0.41 / aq2-sensitivity=14.40 / aq2-factor=1.00:1.00:1.00 / aq3=1:[0.00:0.54]:[0.00:0.58]:[0.00:0.74]:[0.00:0.00] / aq3-sensitivity=13.50 / aq3-factor=[1.00:1.00]:[1.00:1.00]:[1.00:1.00] / aq3-boundary=70:30:16
Language : French
Default : Yes
Forced : No
Color range : Limited
Color primaries : BT.709
Transfer characteristics : BT.709
Matrix coefficients : BT.709
Audio #1
ID : 2
Format : AAC
Format/Info : Advanced Audio Codec
Format profile : LC
Codec ID : A_AAC-2
Duration : 1 h 46 min
Bit rate : 160 kb/s
Channel(s) : 1 channel
Channel positions : Front: C
Sampling rate : 48.0 kHz
Frame rate : 46.875 FPS (1024 SPF)
Compression mode : Lossy
Stream size : 122 MiB (1%)
Language : French
Default : Yes
Forced : No
Audio #2
ID : 3
Format : FLAC
Format/Info : Free Lossless Audio Codec
Codec ID : A_FLAC
Duration : 1 h 46 min
Bit rate mode : Variable
Bit rate : 256 kb/s
Channel(s) : 1 channel
Channel positions : Front: C
Sampling rate : 48.0 kHz
Frame rate : 11.719 FPS (4096 SPF)
Bit depth : 16 bits
Stream size : 195 MiB (2%)
Writing library : libFLAC 1.3.2 (UTC 2017-01-01)
Language : French
Default : No
Forced : No
Text #1
ID : 4
Format : UTF-8
Codec ID : S_TEXT/UTF8
Codec ID/Info : UTF-8 Plain Text
Duration : 1 h 44 min
Bit rate : 96 b/s
Count of elements : 1225
Stream size : 73.7 KiB (0%)
Title : Lisok, addicted-tolove, alex-kin, vslushivanie, quelconcetipe
Language : Russian
Default : Yes
Forced : No
Text #2
ID : 5
Format : UTF-8
Codec ID : S_TEXT/UTF8
Codec ID/Info : UTF-8 Plain Text
Duration : 1 h 44 min
Bit rate : 50 b/s
Count of elements : 1194
Stream size : 38.6 KiB (0%)
Title : Arrow
Language : English
Default : No
Forced : No
Menu
00:00:00.000 : en:Chapter 1
00:03:29.709 : en:Chapter 2
00:07:16.353 : en:Chapter 3
00:15:04.487 : en:Chapter 4
00:22:22.675 : en:Chapter 5
00:22:49.034 : en:Chapter 6
00:29:55.669 : en:Chapter 7
00:32:48.008 : en:Chapter 8
00:34:30.902 : en:Chapter 9
00:40:44.150 : en:Chapter 10
00:44:06.936 : en:Chapter 11
00:59:24.311 : en:Chapter 12
01:03:30.974 : en:Chapter 13
01:13:27.903 : en:Chapter 14
01:26:35.440 : en:Chapter 15
01:33:29.145 : en:Chapter 16
01:43:32.289 : en:Chapter 17
01:45:01.921 : en:Chapter 18
Episode 5
General
Unique ID : 310291860698596173958332315509565464284 (0xE97009E1D08384581AF1DA2E3B589EDC)
Complete name : Out.1.1971.720p.BluRay.AAC.FLAC.x264-ZQ\Out.1.E05.1971.720p.BluRay.AAC.FLAC.x264-ZQ.mkv
Format : Matroska
Format version : Version 2
File size : 7.59 GiB
Duration : 1 h 29 min
Overall bit rate mode : Variable
Overall bit rate : 12.1 Mb/s
Movie name : Out 1, noli me tangere AKA Out 1 - E05: From Colin to Pauline [1971] 720p BluRay - ZQ
Encoded date : UTC 2018-07-01 22:23:47
Writing application : mkvmerge v23.0.0 ('The Bride Said No') 64-bit
Writing library : libebml v1.3.6 + libmatroska v1.4.9
Cover : Yes
Attachments : cover.jpeg
Video
ID : 1
Format : AVC
Format/Info : Advanced Video Codec
Format profile : [email protected]
Format settings : CABAC / 11 Ref Frames
Format settings, CABAC : Yes
Format settings, RefFrames : 11 frames
Codec ID : V_MPEG4/ISO/AVC
Duration : 1 h 29 min
Bit rate : 11.8 Mb/s
Width : 986 pixels
Height : 720 pixels
Display aspect ratio : 4:3
Frame rate mode : Constant
Frame rate : 23.976 (24000/1001) FPS
Color space : YUV
Chroma subsampling : 4:2:0
Bit depth : 8 bits
Scan type : Progressive
Bits/(Pixel*Frame) : 0.691
Stream size : 7.35 GiB (97%)
Title : Out.1.E05.1971.720p.BluRay.AAC.x264-ZQ
Writing library : x264 core 142 r2431+42 c69a006 tMod [[email protected]:2:0 X86_64]
Encoding settings : cabac=1 / ref=11 / deblock=1:-3:-3 / analyse=0x3:0x133 / me=tesa / subme=11 / psy=1 / fade_compensate=0.00 / psy_rd=1.10:0.03 / mixed_ref=1 / me_range=32 / chroma_me=1 / trellis=2 / 8x8dct=1 / cqm=0 / deadzone=21,11 / fast_pskip=0 / chroma_qp_offset=-2 / threads=12 / lookahead_threads=3 / sliced_threads=0 / nr=0 / decimate=0 / interlaced=0 / bluray_compat=0 / constrained_intra=0 / fgo=3 / bframes=16 / b_pyramid=2 / b_adapt=2 / b_bias=0 / direct=3 / weightb=1 / open_gop=0 / weightp=2 / keyint=250 / keyint_min=23 / scenecut=40 / intra_refresh=0 / rc_lookahead=250 / rc=crf / mbtree=0 / crf=20.6000 / qcomp=0.65 / qpmin=0:0:0 / qpmax=69:69:69 / qpstep=4 / vbv_maxrate=62500 / vbv_bufsize=78125 / crf_max=0.0 / nal_hrd=none / filler=0 / ip_ratio=1.25 / pb_ratio=1.13 / aq=3:0.43 / aq-sensitivity=12.50 / aq-factor=1.00:1.00:1.00 / aq2=1:0.41 / aq2-sensitivity=14.40 / aq2-factor=1.00:1.00:1.00 / aq3=1:[0.00:0.54]:[0.00:0.58]:[0.00:0.74]:[0.00:0.00] / aq3-sensitivity=13.50 / aq3-factor=[1.00:1.00]:[1.00:1.00]:[1.00:1.00] / aq3-boundary=70:30:16
Language : French
Default : Yes
Forced : No
Color range : Limited
Color primaries : BT.709
Transfer characteristics : BT.709
Matrix coefficients : BT.709
Audio #1
ID : 2
Format : AAC
Format/Info : Advanced Audio Codec
Format profile : LC
Codec ID : A_AAC-2
Duration : 1 h 29 min
Bit rate : 144 kb/s
Channel(s) : 1 channel
Channel positions : Front: C
Sampling rate : 48.0 kHz
Frame rate : 46.875 FPS (1024 SPF)
Compression mode : Lossy
Stream size : 92.3 MiB (1%)
Language : French
Default : Yes
Forced : No
Audio #2
ID : 3
Format : FLAC
Format/Info : Free Lossless Audio Codec
Codec ID : A_FLAC
Duration : 1 h 29 min
Bit rate mode : Variable
Bit rate : 239 kb/s
Channel(s) : 1 channel
Channel positions : Front: C
Sampling rate : 48.0 kHz
Frame rate : 11.719 FPS (4096 SPF)
Bit depth : 16 bits
Stream size : 153 MiB (2%)
Writing library : libFLAC 1.3.2 (UTC 2017-01-01)
Language : French
Default : No
Forced : No
Text #1
ID : 4
Format : UTF-8
Codec ID : S_TEXT/UTF8
Codec ID/Info : UTF-8 Plain Text
Duration : 1 h 26 min
Bit rate : 83 b/s
Count of elements : 843
Stream size : 52.7 KiB (0%)
Title : Lisok, addicted-tolove, alex-kin, vslushivanie, quelconcetipe
Language : Russian
Default : Yes
Forced : No
Text #2
ID : 5
Format : UTF-8
Codec ID : S_TEXT/UTF8
Codec ID/Info : UTF-8 Plain Text
Duration : 1 h 26 min
Bit rate : 43 b/s
Count of elements : 851
Stream size : 27.8 KiB (0%)
Title : Arrow
Language : English
Default : No
Forced : No
Menu
00:00:00.000 : en:Chapter 1
00:02:21.933 : en:Chapter 2
00:06:31.182 : en:Chapter 3
00:10:26.876 : en:Chapter 4
00:14:49.847 : en:Chapter 5
00:22:07.993 : en:Chapter 6
00:27:26.353 : en:Chapter 7
00:33:02.063 : en:Chapter 8
00:41:07.548 : en:Chapter 9
00:48:03.631 : en:Chapter 10
00:54:45.324 : en:Chapter 11
01:01:15.088 : en:Chapter 12
01:05:51.739 : en:Chapter 13
01:09:38.591 : en:Chapter 14
01:13:31.324 : en:Chapter 15
01:19:49.118 : en:Chapter 16
01:25:15.027 : en:Chapter 17
01:28:02.819 : en:Chapter 18
Episode 6
General
Unique ID : 51106290097190784570666280836119449815 (0x2672B6A44C030164E34CAA025234D0D7)
Complete name : Out.1.1971.720p.BluRay.AAC.FLAC.x264-ZQ\Out.1.E06.1971.720p.BluRay.AAC.FLAC.x264-ZQ.mkv
Format : Matroska
Format version : Version 2
File size : 8.43 GiB
Duration : 1 h 40 min
Overall bit rate mode : Variable
Overall bit rate : 12.0 Mb/s
Movie name : Out 1, noli me tangere AKA Out 1 - E06: From Pauline to Émilie [1971] 720p BluRay - ZQ
Encoded date : UTC 2018-07-01 22:31:46
Writing application : mkvmerge v23.0.0 ('The Bride Said No') 64-bit
Writing library : libebml v1.3.6 + libmatroska v1.4.9
Cover : Yes
Attachments : cover.jpeg
Video
ID : 1
Format : AVC
Format/Info : Advanced Video Codec
Format profile : [email protected]
Format settings : CABAC / 11 Ref Frames
Format settings, CABAC : Yes
Format settings, RefFrames : 11 frames
Codec ID : V_MPEG4/ISO/AVC
Duration : 1 h 40 min
Bit rate : 11.3 Mb/s
Width : 986 pixels
Height : 720 pixels
Display aspect ratio : 4:3
Frame rate mode : Constant
Frame rate : 23.976 (24000/1001) FPS
Color space : YUV
Chroma subsampling : 4:2:0
Bit depth : 8 bits
Scan type : Progressive
Bits/(Pixel*Frame) : 0.661
Stream size : 7.93 GiB (94%)
Title : Out.1.E06.1971.720p.BluRay.AAC.x264-ZQ
Writing library : x264 core 142 r2431+42 c69a006 tMod [8-bi[email protected]:2:0 X86_64]
Encoding settings : cabac=1 / ref=11 / deblock=1:-3:-3 / analyse=0x3:0x133 / me=tesa / subme=11 / psy=1 / fade_compensate=0.00 / psy_rd=1.10:0.03 / mixed_ref=1 / me_range=32 / chroma_me=1 / trellis=2 / 8x8dct=1 / cqm=0 / deadzone=21,11 / fast_pskip=0 / chroma_qp_offset=-2 / threads=12 / lookahead_threads=3 / sliced_threads=0 / nr=0 / decimate=0 / interlaced=0 / bluray_compat=0 / constrained_intra=0 / fgo=3 / bframes=16 / b_pyramid=2 / b_adapt=2 / b_bias=0 / direct=3 / weightb=1 / open_gop=0 / weightp=2 / keyint=250 / keyint_min=23 / scenecut=40 / intra_refresh=0 / rc_lookahead=250 / rc=crf / mbtree=0 / crf=20.6000 / qcomp=0.65 / qpmin=0:0:0 / qpmax=69:69:69 / qpstep=4 / vbv_maxrate=62500 / vbv_bufsize=78125 / crf_max=0.0 / nal_hrd=none / filler=0 / ip_ratio=1.25 / pb_ratio=1.13 / aq=3:0.43 / aq-sensitivity=12.50 / aq-factor=1.00:1.00:1.00 / aq2=1:0.41 / aq2-sensitivity=14.40 / aq2-factor=1.00:1.00:1.00 / aq3=1:[0.00:0.54]:[0.00:0.58]:[0.00:0.74]:[0.00:0.00] / aq3-sensitivity=13.50 / aq3-factor=[1.00:1.00]:[1.00:1.00]:[1.00:1.00] / aq3-boundary=70:30:16
Language : French
Default : Yes
Forced : No
Color range : Limited
Color primaries : BT.709
Transfer characteristics : BT.709
Matrix coefficients : BT.709
Audio #1
ID : 2
Format : AAC
Format/Info : Advanced Audio Codec
Format profile : LC
Codec ID : A_AAC-2
Duration : 1 h 40 min
Bit rate : 132 kb/s
Channel(s) : 1 channel
Channel positions : Front: C
Sampling rate : 48.0 kHz
Frame rate : 46.875 FPS (1024 SPF)
Compression mode : Lossy
Stream size : 94.1 MiB (1%)
Language : French
Default : Yes
Forced : No
Audio #2
ID : 3
Format : FLAC
Format/Info : Free Lossless Audio Codec
Codec ID : A_FLAC
Duration : 1 h 40 min
Bit rate mode : Variable
Bit rate : 587 kb/s
Channel(s) : 1 channel
Channel positions : Front: C
Sampling rate : 48.0 kHz
Frame rate : 11.719 FPS (4096 SPF)
Bit depth : 24 bits
Stream size : 424 MiB (5%)
Writing library : libFLAC 1.3.2 (UTC 2017-01-01)
Language : French
Default : No
Forced : No
Text #1
ID : 4
Format : UTF-8
Codec ID : S_TEXT/UTF8
Codec ID/Info : UTF-8 Plain Text
Duration : 1 h 39 min
Bit rate : 71 b/s
Count of elements : 858
Stream size : 52.1 KiB (0%)
Title : Lisok, addicted-tolove, alex-kin, vslushivanie, quelconcetipe
Language : Russian
Default : Yes
Forced : No
Text #2
ID : 5
Format : UTF-8
Codec ID : S_TEXT/UTF8
Codec ID/Info : UTF-8 Plain Text
Duration : 1 h 38 min
Bit rate : 38 b/s
Count of elements : 906
Stream size : 28.0 KiB (0%)
Title : Arrow
Language : English
Default : No
Forced : No
Menu
00:00:00.000 : en:Chapter 1
00:02:42.245 : en:Chapter 2
00:06:20.547 : en:Chapter 3
00:13:25.763 : en:Chapter 4
00:18:22.852 : en:Chapter 5
00:24:33.972 : en:Chapter 6
00:33:32.552 : en:Chapter 7
00:35:52.192 : en:Chapter 8
00:38:51.079 : en:Chapter 9
00:42:44.228 : en:Chapter 10
00:47:03.529 : en:Chapter 11
00:58:22.416 : en:Chapter 12
01:05:27.132 : en:Chapter 13
01:09:13.358 : en:Chapter 14
01:11:49.972 : en:Chapter 15
01:14:25.169 : en:Chapter 16
01:18:29.538 : en:Chapter 17
01:28:06.406 : en:Chapter 18
01:31:46.292 : en:Chapter 19
01:37:17.498 : en:Chapter 20
01:39:25.001 : en:Chapter 21
Episode 7
General
Unique ID : 40041805050869839251743572025480647012 (0x1E1FC569440B6E5D31CC97B11E1D1164)
Complete name : Out.1.1971.720p.BluRay.AAC.FLAC.x264-ZQ\Out.1.E07.1971.720p.BluRay.AAC.FLAC.x264-ZQ.mkv
Format : Matroska
Format version : Version 2
File size : 9.28 GiB
Duration : 1 h 38 min
Overall bit rate mode : Variable
Overall bit rate : 13.5 Mb/s
Movie name : Out 1, noli me tangere AKA Out 1 - E07: From Émilie to Lucie [1971] 720p BluRay - ZQ
Encoded date : UTC 2018-07-01 22:35:34
Writing application : mkvmerge v23.0.0 ('The Bride Said No') 64-bit
Writing library : libebml v1.3.6 + libmatroska v1.4.9
Cover : Yes
Attachments : cover.jpeg
Video
ID : 1
Format : AVC
Format/Info : Advanced Video Codec
Format profile : [email protected]
Format settings : CABAC / 11 Ref Frames
Format settings, CABAC : Yes
Format settings, RefFrames : 11 frames
Codec ID : V_MPEG4/ISO/AVC
Duration : 1 h 38 min
Bit rate : 13.1 Mb/s
Width : 986 pixels
Height : 720 pixels
Display aspect ratio : 4:3
Frame rate mode : Constant
Frame rate : 23.976 (24000/1001) FPS
Color space : YUV
Chroma subsampling : 4:2:0
Bit depth : 8 bits
Scan type : Progressive
Bits/(Pixel*Frame) : 0.770
Stream size : 8.99 GiB (97%)
Title : Out.1.E07.1971.720p.BluRay.AAC.x264-ZQ
Writing library : x264 core 142 r2431+42 c69a006 tMod [[email protected]:2:0 X86_64]
Encoding settings : cabac=1 / ref=11 / deblock=1:-3:-3 / analyse=0x3:0x133 / me=tesa / subme=11 / psy=1 / fade_compensate=0.00 / psy_rd=1.10:0.03 / mixed_ref=1 / me_range=32 / chroma_me=1 / trellis=2 / 8x8dct=1 / cqm=0 / deadzone=21,11 / fast_pskip=0 / chroma_qp_offset=-2 / threads=12 / lookahead_threads=3 / sliced_threads=0 / nr=0 / decimate=0 / interlaced=0 / bluray_compat=0 / constrained_intra=0 / fgo=3 / bframes=16 / b_pyramid=2 / b_adapt=2 / b_bias=0 / direct=3 / weightb=1 / open_gop=0 / weightp=2 / keyint=250 / keyint_min=23 / scenecut=40 / intra_refresh=0 / rc_lookahead=250 / rc=crf / mbtree=0 / crf=20.6000 / qcomp=0.65 / qpmin=0:0:0 / qpmax=69:69:69 / qpstep=4 / vbv_maxrate=62500 / vbv_bufsize=78125 / crf_max=0.0 / nal_hrd=none / filler=0 / ip_ratio=1.25 / pb_ratio=1.13 / aq=3:0.43 / aq-sensitivity=12.50 / aq-factor=1.00:1.00:1.00 / aq2=1:0.41 / aq2-sensitivity=14.40 / aq2-factor=1.00:1.00:1.00 / aq3=1:[0.00:0.54]:[0.00:0.58]:[0.00:0.74]:[0.00:0.00] / aq3-sensitivity=13.50 / aq3-factor=[1.00:1.00]:[1.00:1.00]:[1.00:1.00] / aq3-boundary=70:30:16
Language : French
Default : Yes
Forced : No
Color range : Limited
Color primaries : BT.709
Transfer characteristics : BT.709
Matrix coefficients : BT.709
Audio #1
ID : 2
Format : AAC
Format/Info : Advanced Audio Codec
Format profile : LC
Codec ID : A_AAC-2
Duration : 1 h 38 min
Bit rate : 172 kb/s
Channel(s) : 1 channel
Channel positions : Front: C
Sampling rate : 48.0 kHz
Frame rate : 46.875 FPS (1024 SPF)
Compression mode : Lossy
Stream size : 121 MiB (1%)
Language : French
Default : Yes
Forced : No
Audio #2
ID : 3
Format : FLAC
Format/Info : Free Lossless Audio Codec
Codec ID : A_FLAC
Duration : 1 h 38 min
Bit rate mode : Variable
Bit rate : 257 kb/s
Channel(s) : 1 channel
Channel positions : Front: C
Sampling rate : 48.0 kHz
Frame rate : 11.719 FPS (4096 SPF)
Bit depth : 16 bits
Stream size : 180 MiB (2%)
Writing library : libFLAC 1.3.2 (UTC 2017-01-01)
Language : French
Default : No
Forced : No
Text #1
ID : 4
Format : UTF-8
Codec ID : S_TEXT/UTF8
Codec ID/Info : UTF-8 Plain Text
Duration : 1 h 36 min
Bit rate : 87 b/s
Count of elements : 1028
Stream size : 62.1 KiB (0%)
Title : Lisok, addicted-tolove, alex-kin, vslushivanie, quelconcetipe
Language : Russian
Default : Yes
Forced : No
Text #2
ID : 5
Format : UTF-8
Codec ID : S_TEXT/UTF8
Codec ID/Info : UTF-8 Plain Text
Duration : 1 h 36 min
Bit rate : 49 b/s
Count of elements : 999
Stream size : 34.6 KiB (0%)
Title : Arrow
Language : English
Default : No
Forced : No
Menu
00:00:00.000 : en:Chapter 1
00:02:20.640 : en:Chapter 2
00:03:40.512 : en:Chapter 3
00:10:16.699 : en:Chapter 4
00:15:53.077 : en:Chapter 5
00:25:59.349 : en:Chapter 6
00:28:57.152 : en:Chapter 7
00:38:34.479 : en:Chapter 8
00:41:44.335 : en:Chapter 9
00:45:23.429 : en:Chapter 10
00:49:26.505 : en:Chapter 11
00:53:18.946 : en:Chapter 12
01:01:46.494 : en:Chapter 13
01:11:01.549 : en:Chapter 14
01:19:13.874 : en:Chapter 15
01:25:47.851 : en:Chapter 16
01:36:50.054 : en:Chapter 17
Episode 8
General
Unique ID : 211136041220726577174650805419492276946 (0x9ED75289A275E9411DC2E96D79547AD2)
Complete name : Out.1.1971.720p.BluRay.AAC.FLAC.x264-ZQ\Out.1.E08.1971.720p.BluRay.AAC.FLAC.x264-ZQ.mkv
Format : Matroska
Format version : Version 2
File size : 5.69 GiB
Duration : 1 h 13 min
Overall bit rate mode : Variable
Overall bit rate : 11.2 Mb/s
Movie name : Out 1, noli me tangere AKA Out 1 - E08: From Lucie to Marie [1971] 720p BluRay - ZQ
Encoded date : UTC 2018-07-01 22:39:47
Writing application : mkvmerge v23.0.0 ('The Bride Said No') 64-bit
Writing library : libebml v1.3.6 + libmatroska v1.4.9
Cover : Yes
Attachments : cover.jpeg
Video
ID : 1
Format : AVC
Format/Info : Advanced Video Codec
Format profile : [email protected]
Format settings : CABAC / 11 Ref Frames
Format settings, CABAC : Yes
Format settings, RefFrames : 11 frames
Codec ID : V_MPEG4/ISO/AVC
Duration : 1 h 13 min
Bit rate : 10.8 Mb/s
Width : 986 pixels
Height : 720 pixels
Display aspect ratio : 4:3
Frame rate mode : Constant
Frame rate : 23.976 (24000/1001) FPS
Color space : YUV
Chroma subsampling : 4:2:0
Bit depth : 8 bits
Scan type : Progressive
Bits/(Pixel*Frame) : 0.632
Stream size : 5.49 GiB (96%)
Title : Out.1.E08.1971.720p.BluRay.AAC.x264-ZQ
Writing library : x264 core 142 r2431+42 c69a006 tMod [[email protected]:2:0 X86_64]
Encoding settings : cabac=1 / ref=11 / deblock=1:-3:-3 / analyse=0x3:0x133 / me=tesa / subme=11 / psy=1 / fade_compensate=0.00 / psy_rd=1.10:0.03 / mixed_ref=1 / me_range=32 / chroma_me=1 / trellis=2 / 8x8dct=1 / cqm=0 / deadzone=21,11 / fast_pskip=0 / chroma_qp_offset=-2 / threads=12 / lookahead_threads=3 / sliced_threads=0 / nr=0 / decimate=0 / interlaced=0 / bluray_compat=0 / constrained_intra=0 / fgo=3 / bframes=16 / b_pyramid=2 / b_adapt=2 / b_bias=0 / direct=3 / weightb=1 / open_gop=0 / weightp=2 / keyint=250 / keyint_min=23 / scenecut=40 / intra_refresh=0 / rc_lookahead=250 / rc=crf / mbtree=0 / crf=20.6000 / qcomp=0.65 / qpmin=0:0:0 / qpmax=69:69:69 / qpstep=4 / vbv_maxrate=62500 / vbv_bufsize=78125 / crf_max=0.0 / nal_hrd=none / filler=0 / ip_ratio=1.25 / pb_ratio=1.13 / aq=3:0.43 / aq-sensitivity=12.50 / aq-factor=1.00:1.00:1.00 / aq2=1:0.41 / aq2-sensitivity=14.40 / aq2-factor=1.00:1.00:1.00 / aq3=1:[0.00:0.54]:[0.00:0.58]:[0.00:0.74]:[0.00:0.00] / aq3-sensitivity=13.50 / aq3-factor=[1.00:1.00]:[1.00:1.00]:[1.00:1.00] / aq3-boundary=70:30:16
Language : French
Default : Yes
Forced : No
Color range : Limited
Color primaries : BT.709
Transfer characteristics : BT.709
Matrix coefficients : BT.709
Audio #1
ID : 2
Format : AAC
Format/Info : Advanced Audio Codec
Format profile : LC
Codec ID : A_AAC-2
Duration : 1 h 13 min
Bit rate : 147 kb/s
Channel(s) : 1 channel
Channel positions : Front: C
Sampling rate : 48.0 kHz
Frame rate : 46.875 FPS (1024 SPF)
Compression mode : Lossy
Stream size : 76.9 MiB (1%)
Language : French
Default : Yes
Forced : No
Audio #2
ID : 3
Format : FLAC
Format/Info : Free Lossless Audio Codec
Codec ID : A_FLAC
Duration : 1 h 13 min
Bit rate mode : Variable
Bit rate : 248 kb/s
Channel(s) : 1 channel
Channel positions : Front: C
Sampling rate : 48.0 kHz
Frame rate : 11.719 FPS (4096 SPF)
Bit depth : 16 bits
Stream size : 130 MiB (2%)
Writing library : libFLAC 1.3.2 (UTC 2017-01-01)
Language : French
Default : No
Forced : No
Text #1
ID : 4
Format : UTF-8
Codec ID : S_TEXT/UTF8
Codec ID/Info : UTF-8 Plain Text
Duration : 1 h 7 min
Bit rate : 77 b/s
Count of elements : 667
Stream size : 38.4 KiB (0%)
Title : Lisok, addicted-tolove, alex-kin, vslushivanie, quelconcetipe
Language : Russian
Default : Yes
Forced : No
Text #2
ID : 5
Format : UTF-8
Codec ID : S_TEXT/UTF8
Codec ID/Info : UTF-8 Plain Text
Duration : 1 h 7 min
Bit rate : 40 b/s
Count of elements : 629
Stream size : 19.9 KiB (0%)
Title : Arrow
Language : English
Default : No
Forced : No
Menu
00:00:00.000 : en:Chapter 1
00:02:34.154 : en:Chapter 2
00:07:47.092 : en:Chapter 3
00:10:30.713 : en:Chapter 4
00:26:19.620 : en:Chapter 5
00:28:41.094 : en:Chapter 6
00:30:26.533 : en:Chapter 7
00:38:32.143 : en:Chapter 8
00:51:58.198 : en:Chapter 9
00:54:46.783 : en:Chapter 10
00:56:28.218 : en:Chapter 11
01:00:29.960 : en:Chapter 12
01:02:46.596 : en:Chapter 13
01:03:31.474 : en:Chapter 14
01:11:48.679 : en:Chapter 15
Персонажи фильма
Труппа Лили, занимающаяся постановкой пьесы «Семеро против Фив» Эсхила:
Лили – Мишель Моретти;
Мари – Эрмин Карагёз;
Арсеналь (известный также как «Папа», Николя и Тэо) – Марсель Бозоне;
Кантэн – Пьер Байо;
Элен – Карен Пюиг.
Труппа Томá, занимающаяся постановкой пьесы «Прикованный Прометей» Эсхила:
Томá – Мишель Лонсдаль;
Ашиль – Сильвен Кортэй;
Беатрис – Эдвин Моатти;
Бергамот – Бернадет Онфрой;
Фон – Моник Клеман;
Роз – Кристиана Кортэй.
Фредерика – Жюльет Берто.
Колен – Жан-Пьер Лео.
Некоторые из «Тринадцати»:
Полин/Эмили – Бюль Ожье;
Люси – Франсуаз Фабиан;
Сара – Бернадет Лафон;
Этьен – Жак-Дониоль Валькроз;
Варок – Жан Буиз;
Жорж – на экране не появляется;
Игор – на экране не появляется;
Пьер – на экране не появляется.
Некоторые другие персонажи:
Ханимун (Хани Мун/Honey Moon) – Мишель Берто;
Специалист по Бальзаку – Эрик Ромер;
Этнолог (человек на террасе) – Мишель Делайе;
Рено – Ален Либо;
Марлон – Жан-Франсуа Стевенен;
Жан-Рето – Барбе Шрёдер;
Ирис – Од Бито;
Макс, сын Кантэна – Луи Жюльен.
Осторожно, спойлер!
Более подробно о персонажах и перипетиях фильма можно почитать на странице фильма http://en.wikipedia.org/wiki/Out_1
Переводы литературных произведений, упоминавшихся в фильме
Фрагменты пьесы Эсхила «Семеро против Фив» приведены в переводе С. Апта.
Фрагменты пьесы Эсхила «Прикованный Прометей» приведены в переводе А. И. Пиотровского.
Фрагмент из «вещи Беккета», которую цитирует Томá (Мишель Лонсдаль) во второй серии, составлен из двух фрагментов «Комедии» (Comédie, 1962-63) Сэмюэля Беккета, которые приведены в переводе М. Хазина. В 1966 году Марин Кармитц снял по одноактной пьесе Беккета фильм «Комедия», главные роли в котором сыграли Мишель Лонсдаль, Элеонор Хирт и Дельфин Сейриг.
Фрагменты Фридриха Вильгельма Ницше «Рождение трагедии, или Эллинство и пессимизм» приведены в переводе Г. А. Рачинского.
Фрагменты драматического отрывка Иоганна Вольфганга Гёте «Прометей» (Johann Wolfgang von Goethe «Prometheus», 1772-1774) приведены в переводе А. Дейча.
Фрагмент из поэмы Перси Биши Шелли «Освобожденный Прометей» (Percy Bysshe Shelley «Prometheus Unbound», 1818-1820) приведен в переводе К. Бальмонта.
Фрагмент из рассказа Оноре де Бальзака «Феррагус, предводитель деворантов» приведен в переводе М. И. Казас; фрагмент из рассказа «Герцогиня де Ланже» – в переводе М. В. Вахтерова (вместе с рассказом «Златоокая девушка» входят в цикл «История тринадцати» (Honoré de Balzac «Histoire des Treize», 1833-1839).
Фрагмент поэмы Льюиса Кэрролла «Охота на Снарка» (Lewis Carroll «The Hunting of the Snark», 1876) приведен в переводе Михаила Пухова.
Фрагмент песни «Лили Марлен» (Lili Marleen) приведен в переводе Натальи Краубнер.
Переводчики о фильме
addicted-tolove (серии 1, 3, 4 и 6):
«OUT 1» – это фильм-ребус, фильм-загадка, и, как полагается истинному пазлу, складывается в самом конце. Так как 8 частей фильма переводили несколько человек, нередко по электронной почте туда-сюда курсировали следующие диалоги:
– А ты уже знаешь, что герой Жан-Пьера Лео не…
– Знаю, знаю.
– А у тебя цитаты из Гёте встречаются?
– Нет, пока только из Бальзака.
Много аллюзий, много литературных произведений и очень много театра. Смотреть стоит хотя бы потому, что это, и в прямом и в переносном смысле, один из самых весомых фильмов в истории мирового кинематографа.
alex-kin (серии 2, 5 и 7):
Энергии для перевода придавало то, что мир «OUT 1» – это мир людей, которые живут искусством (как, впрочем, и мир тех, кто живёт всем чем угодно, но только не искусством). Не творят искусство, не пафосно рождают его в муках творчества, не изучают, не превращают в музей – они живут им, пусть оно тоже имеет свойство жить и, соответственно, умирать. Жизнь, равная творчеству. Мне было очень интересно следить за развитием двух театральных трупп, занятых постановкой Эсхила. Риветт совершенно последователен в эволюции действия – так, например, труппа Томá движется от некоего мистериального театра, который даже не имеет вербальных средств, к театру рефлексии – театру, который задействует всю палитру чувств – от печали до иронии – через слово, а затем – обратно. Труппа Лили более авангардна по форме – но Риветт чётко показывает, как авангардность быстро выдыхается, как из актёров уходит энергия, как теряется смысл.
Ну и конечно, сильно держит внимание «плутовская часть»: Жан-Пьер Лео, ищущий правильное направление движения с помощью цитат из Бальзака и Кэролла; плýтни Жюльет Берто; загадочные Тринадцать.
Ну и любовь, конечно.
vslushivanie (серия 8)
Из всех знакомых мне кинематографических пространств, пространство кинематографа Жака Риветта, возможно, самое литературное. Поэтому приведение следующих слов из литературного пространства видится достаточно уместным:
«Кажется, мы видим все, но все не более чем видимо.
…мёртвое время, не поддающееся обратному присвоению. К этой пустоте мы прямо приблизиться не можем.
…не пробегаемое взглядом, отсутствующий в лоне зримости фрагмент – […] и следует искать как место смысл фабулы.
Сцена, при которой нам не дано присутствовать, есть не что иное, как центральный образ, постепенно выстраивающийся путем тонкого наложения деталей, фигур, воспоминаний, благодаря изменению и незаметному сгибанию рисунка или схемы, вокруг которой организуется и оживает все то, что видит путешественник.
Само повествование, подобно предметам, событиям и одушевленным существам, в соответствии с гомогенным порядком строится в виде линейных серий, геометрических фигур, строится с контролируемой изощренностью, которую было бы упрощением сближать с кубизмом.
В сердцевине любого нарратива лежит сознание субъекта, свободный и неожиданный взгляд, порождающий события с помощью считывающего их зрения.
…мы знаем несколько меньше, но именно от этого "меньше", от этой дыры в повествовании и берет начало свойственная ему прозрачность, странность одинакового, блуждающего света, который […] кажется идущим […] от размышления или грезы, потому что от грезы у него есть точность, ненавязчивость и жесткая непреклонность.»
Из статьи Мориса Бланшо «Роман о прозрачности». /Перевод М. Рыклина/
quelconcetipe (дополнительные реплики, серии 1-8)
Жаль, что OUT 1 не двадцатичетырёхчасовой и то, что Риветт не снял OUT 2 и OUT 3.
Lisok (генеральный перевод на слух).
Мои ощущения – более приземлённые, чем у остальных, поскольку, когда переводишь, не столько воспринимаешь общую композицию, сколько вслушиваешься в каждое конкретное слово каждого персонажа. Судя по всему, у Риветта не было ни определённого сценария, ни отрепетированных сцен – сплошь импровизация. Иногда просто так и видишь: вот стоят две девушки на берегу Сены, у которых одно единственное режиссёрское задание – сыграть разговор минут на 10 на тему: «Ты не знаешь, где Лили? – Я не знаю, где Лили. А ты?». Особенно этим грешит 7-я серия – там сплошь такие сцены. И там, где актёры импровизируют на заданную тему, они периодически срываются на нормальную тематику и нормальные, не заумные разговоры.
Не знаю, почему, но меня страшно бесил Мишель Лонсдаль. Эдакий барин, играющийся в крепостной театр, и плейбой, необоснованно (на мой непросвещенный взгляд), считающий себя любимцем всех женщин.
Download
Для скачивания .torrent файлов необходима регистрация
Сайт не распространяет и не хранит электронные версии произведений, а лишь предоставляет доступ к создаваемому пользователями каталогу ссылок на торрент-файлы, которые содержат только списки хеш-сумм
[Профиль]  [ЛС] 
 
Ответить
Loading...
Error