Матрица / The Matrix (Энди Вачовски, Ларри Вачовски / Andy Wachowski, Larry Wachowski) [1999, США, Фантастика, боевик, приключения, HDTVRip-AVC] [Open Matte] DUB + AVO (Визгунов) + Sub Eng Rus + Original Eng

Страницы:  1

Ответить
Автор
Сообщение

Меран

Стаж: 9 лет

Сообщений: 728

Меран · 23-Апр-18 03:45 (28 дней назад, ред. 05-Май-18 22:30)

Матрица / The Matrix / Open Matte

BDRemux-1080p | BDRip-1080p | HDTVRip-AVC
Страна: США
Жанр: фантастика, боевик, приключения
Год выпуска: 1999
Продолжительность: 02:16:42
Перевод: Профессиональный (дублированный)
Перевод 2: Авторский (одноголосый закадровый) С.Визгунов
Субтитры: русские, английские
Оригинальная аудиодорожка: английский
Режиссер: Энди Вачовски, Ларри Вачовски / Andy Wachowski, Larry Wachowski
В ролях: Киану Ривз, Лоренс Фишбёрн, Кэрри-Энн Мосс, Хьюго Уивинг, Джо Пантольяно, Глория Фостер, Маркус Чонг, Джулиан Араханга, Мэтт Доран, Белинда МакКлори, Энтони Рэй Паркер
Описание: Жизнь Томаса Андерсона разделена на две части: днём он самый обычный офисный работник, получающий нагоняи от начальства, а ночью превращается в хакера по имени Нео, и нет места в сети, куда он не смог бы дотянуться. Но однажды всё меняется — герой, сам того не желая, узнаёт страшную правду: всё, что его окружает — не более, чем иллюзия, Матрица, а люди — всего лишь источник питания для искусственного интеллекта, поработившего человечество. И только Нео под силу изменить расстановку сил в этом ставшем вдруг чужим и страшным мире.
Доп. информация: Доремастеринговая версия фильма. После выхода и переиздании всей трилогии - первая часть "подверглась зелёной фильтрации". Кроме того различия есть и по наполнению кадра
Фильмы в Fullscreen (4:3) и Open Matte (16:9) форматах
Сэмпл: http://multi-up.com/1196875
Качество видео: HDTVRip-AVC Исходник
Формат видео: MKV
Видео: MPEG-4 AVC/H.264 / 2120 kbps / 1056х594 / 23.976 fps
Аудио: DUB (Rus) / AC3 / 6 ch / 384 kbps / 48 kHz
Аудио 2: AVO Визгунов (Rus) / AC3 / 2 ch / 192 kbps / 48 kHz
Аудио 3: Original (Eng) / AC3 / 6 ch / 384 kbps / 48 kHz
Формат субтитров: softsub (SRT)
Доп. информация о субтитрах: Русские (2x full), Английские (2x full)
#Сохранены оригинальные чаптеры как на Blu-ray
MediaInfo
General
Unique ID : 213907005727587293145386736735843959160 (0xA0ECFDA2BDF9A80CB106F2650156C178)
Complete name : J:\Torrents\Готовые релизы\Матрица (1999) HDTVRip-AVC [Open Matte]\Матрица (1999) HDTVRip-AVC [Open Matte].mkv
Format : Matroska
Format version : Version 2
File size : 2.94 GiB
Duration : 2 h 16 min
Overall bit rate : 3 083 kb/s
Movie name : Матрица / The Matrix (1999) [Open Matte]
Encoded date : UTC 2018-02-21 10:46:46
Writing application : mkvmerge v5.5.0 ('Healer') built on Apr 24 2012 23:47:03
Writing library : libebml v1.2.3 + libmatroska v1.3.0
Cover : Yes
Attachments : cover.png
Video
ID : 1
Format : AVC
Format/Info : Advanced Video Codec
Format profile : [email protected]
Format settings : CABAC / 8 Ref Frames
Format settings, CABAC : Yes
Format settings, ReFrames : 8 frames
Codec ID : V_MPEG4/ISO/AVC
Duration : 2 h 16 min
Bit rate : 2 120 kb/s
Width : 1 056 pixels
Height : 594 pixels
Display aspect ratio : 16:9
Frame rate mode : Constant
Frame rate : 23.976 (24000/1001) FPS
Color space : YUV
Chroma subsampling : 4:2:0
Bit depth : 8 bits
Scan type : Progressive
Bits/(Pixel*Frame) : 0.141
Stream size : 1.96 GiB (67%)
Title : HDTVRip (AVC) / MPEG-4 AVC/H.264 / 2120 kbps / 1056x594 / 23.976 fps
Writing library : x264 core 146 r2538 121396c
Encoding settings : cabac=1 / ref=8 / deblock=1:0:0 / analyse=0x3:0x113 / me=umh / subme=10 / psy=1 / psy_rd=1.00:0.00 / mixed_ref=1 / me_range=32 / chroma_me=1 / trellis=2 / 8x8dct=1 / cqm=0 / deadzone=21,11 / fast_pskip=0 / chroma_qp_offset=-2 / threads=6 / lookahead_threads=1 / sliced_threads=0 / nr=0 / decimate=1 / interlaced=0 / bluray_compat=0 / constrained_intra=0 / bframes=9 / b_pyramid=2 / b_adapt=2 / b_bias=0 / direct=3 / weightb=1 / open_gop=0 / weightp=2 / keyint=250 / keyint_min=23 / scenecut=40 / intra_refresh=0 / rc_lookahead=50 / rc=2pass / mbtree=1 / bitrate=2120 / ratetol=1.0 / qcomp=0.60 / qpmin=0 / qpmax=69 / qpstep=4 / cplxblur=20.0 / qblur=0.5 / vbv_maxrate=14000 / vbv_bufsize=14000 / nal_hrd=none / filler=0 / ip_ratio=1.40 / aq=1:1.00
Language : English
Default : Yes
Forced : Yes
Audio #1
ID : 2
Format : AC-3
Format/Info : Audio Coding 3
Codec ID : A_AC3
Duration : 2 h 16 min
Bit rate mode : Constant
Bit rate : 384 kb/s
Channel(s) : 6 channels
Channel positions : Front: L C R, Side: L R, LFE
Sampling rate : 48.0 kHz
Frame rate : 31.250 FPS (1536 SPF)
Bit depth : 16 bits
Compression mode : Lossy
Stream size : 374 MiB (12%)
Title : DUB (Rus) / AC3 / 6 ch / 384 kbps / 48 kHz
Language : Russian
Service kind : Complete Main
Default : Yes
Forced : Yes
Audio #2
ID : 3
Format : AC-3
Format/Info : Audio Coding 3
Codec ID : A_AC3
Duration : 2 h 16 min
Bit rate mode : Constant
Bit rate : 192 kb/s
Channel(s) : 2 channels
Channel positions : Front: L R
Sampling rate : 48.0 kHz
Frame rate : 31.250 FPS (1536 SPF)
Bit depth : 16 bits
Compression mode : Lossy
Stream size : 187 MiB (6%)
Title : AVO Визгунов (Rus) / AC3 / 2 ch / 192 kbps / 48 kHz
Language : Russian
Service kind : Complete Main
Default : No
Forced : No
Audio #3
ID : 4
Format : AC-3
Format/Info : Audio Coding 3
Codec ID : A_AC3
Duration : 2 h 16 min
Bit rate mode : Constant
Bit rate : 384 kb/s
Channel(s) : 6 channels
Channel positions : Front: L C R, Side: L R, LFE
Sampling rate : 48.0 kHz
Frame rate : 31.250 FPS (1536 SPF)
Bit depth : 16 bits
Compression mode : Lossy
Stream size : 374 MiB (12%)
Title : Original (Eng) / AC3 / 6 ch / 384 kbps / 48 kHz
Language : English
Service kind : Complete Main
Default : No
Forced : No
Text #1
ID : 5
Format : UTF-8
Codec ID : S_TEXT/UTF8
Codec ID/Info : UTF-8 Plain Text
Title : Full (Rus) / S_TEXT/UTF8
Language : Russian
Default : No
Forced : No
Text #2
ID : 6
Format : UTF-8
Codec ID : S_TEXT/UTF8
Codec ID/Info : UTF-8 Plain Text
Title : Full [Пучков] (Rus) / S_TEXT/UTF8
Language : Russian
Default : No
Forced : No
Text #3
ID : 7
Format : UTF-8
Codec ID : S_TEXT/UTF8
Codec ID/Info : UTF-8 Plain Text
Title : Full (Rus) / S_TEXT/UTF8
Language : English
Default : No
Forced : No
Text #4
ID : 8
Format : UTF-8
Codec ID : S_TEXT/UTF8
Codec ID/Info : UTF-8 Plain Text
Title : Full [SDH] (Rus) / S_TEXT/UTF8
Language : English
Default : No
Forced : No
Menu
00:00:00.000 : en:Trinity in a Jam
00:03:25.788 : en:Impossible Pursuit
00:06:35.645 : en:Follow Instructions
00:09:42.665 : en:The Question
00:11:58.300 : en:"They're Coming for You"
00:16:47.423 : en:Unable to Speak
00:21:33.542 : en:Getting the Bug Out
00:25:08.590 : en:Morpheus' Proposal
00:28:51.146 : en:Down the Rabbit Hole
00:32:25.193 : en:Slimy Rebirth
00:35:21.869 : en:Nebuchadnezzar's Crew
00:38:40.901 : en:The Real World
00:44:22.576 : en:The Search Is Over
00:46:33.540 : en:Training Begins
00:48:57.851 : en:Morpheus/Neo Matchup
00:53:31.291 : en:First Jump
00:56:32.138 : en:The Gatekeepers
00:59:01.287 : en:Running Silent and Deep
01:01:08.581 : en:Dealing for Bliss
01:05:16.495 : en:Off to See the Oracle
01:07:46.812 : en:There Is No Spoon
01:12:33.432 : en:Choices...and a Cookie
01:17:49.581 : en:Glitch in the Matrix
01:21:03.108 : en:One Left Behide
01:25:05.350 : en:Heroes Unplugged
01:29:45.129 : en:Cypher's Burnout
01:31:27.565 : en:Matters of Belief
01:37:25.256 : en:Virus to Be Cured
01:41:04.975 : en:Lobby Shooting Spree
01:44:20.337 : en:Dodge This
01:47:00.497 : en:Gotcha
01:50:18.528 : en:Rooftop Rescue
01:52:56.686 : en:Subway Showdown
01:56:36.906 : en:"My Name Is Neo"
01:58:49.372 : en:Sentinels Attack
02:02:27.423 : en:"He Is the One"
02:05:41.784 : en:Final Connections
02:08:46.802 : en:End Credits ("Wake Up Rock Is Dead")
Сравнения изданий
Scope (2.35:1) >>>>>>>>>>>>>>>>>>>>>>>>>>>>>>> Open Matte (16:9) >>>>>>>>>>>>>>>>>>>>>>>>>>>>>>> FullScreen (4:3)



Cравнения с другими раздачами на трекере
Скриншот c названием фильма
Скриншоты

Обновление 2 мая 2018
Удалены все переводы, выложенные отдельными файлами: MVO, DVO (Гланц и Королёва), AVO Живов
Основной файл изменениям не подвергался
Download
Для скачивания .torrent файлов необходима регистрация
Сайт не распространяет и не хранит электронные версии произведений, а лишь предоставляет доступ к создаваемому пользователями каталогу ссылок на торрент-файлы, которые содержат только списки хеш-сумм
[Профиль]  [ЛС] 

Меран

Стаж: 9 лет

Сообщений: 728

Меран · 02-Май-18 16:11 (спустя 9 дней)

[Цитировать] 

2018.05.02 - Торрент обновлён. Удалены все лишние переводы. Остался только сам файл с фильмом
[Профиль]  [ЛС] 

EgoistI4

Стаж: 11 лет 8 месяцев

Сообщений: 171

EgoistI4 · 12-Май-18 13:30 (спустя 9 дней)

[Цитировать] 

Спасибо за некашетированный рип. Было приятно взглянуть на фильм без черных полос на экране. Даже не знал про иную цветокоррекцию картинки.
[Профиль]  [ЛС] 

madars1

Top Seed 01* 40r

Стаж: 8 лет 2 месяца

Сообщений: 665

madars1 · 20-Май-18 09:49 (спустя 7 дней)

[Цитировать] 

спасибо сестрам вачовски за фильм-шедевр, который уже тогда стал классикой, пусть продюсер не дал им завершить историю по их сценарию, и вместо пессимистичного финала нас ждал конфеетно-пряничный happy-end - все равно спасибо!
Актеры даже второго плана сыграли как на Оскар! Ну а всяческие отсылки и пасхалки в фильме заслуживают отдельной темы обсуждения! Этот фильм как бриллиантовая рука разобран на цитаты, только в мировом масштабе, извиняюсь что я сравнил несравнимое, но настолько фильм эпохальный! И спасибо релизеру за полный кадр! Нео ты останешься в наших сердцах! Куда там ридикам и прочим суперменам с железными человеками!
[Профиль]  [ЛС] 
 
Ответить
Loading...
Error