(Latin Pop) [CD] Pandora - Ilegal - 1992, FLAC (image+.cue), lossless

Страницы:  1

Ответить
Автор
Сообщение

undone

Стаж: 11 лет 1 месяц

Сообщений: 8


undone · 18-Апр-18 19:43 (1 месяц 2 дня назад, ред. 25-Апр-18 11:15)

Pandora / Ilegal
Жанр: Latin Pop
Страна-производитель диска (релиза): USA
Год издания: 1992
Издатель (лейбл): Capitol/EMI Latin
Номер по каталогу: H2 542686
Страна исполнителя (группы): Мексика
Аудиокодек: FLAC (*.flac)
Тип рипа: image+.cue
Битрейт аудио: lossless
Продолжительность: 00:33:06
Источник (релизер): Рип оригинального диска из личной коллекции
Наличие сканов в содержимом раздачи: нет
Треклист:
1. Si Fuera Tu (A Dream Come True) (3:23)
2. Rezo Una Oracion Por Ti (I Say A Little Prayer) (3:22)
3. Puede Ser Genial (Could It Be Magic) (3:06)
4. Desde El Dia Que Te Fuiste (Without You) (3:22)
5. Con Una Pequena Ayuda (With A Little Help From My Friends) (5:17)
6. Matandome Suavemente (Killing Me Softly With This Song) (3:48)
7. Como Tu Sabes (To Love Somebody) (3:31)
8. Por Que (Hurt) (3:37)
9. Pierdo El Control (Love Will Keep Us Together) (3:40)
Лог создания рипа
Exact Audio Copy V1.3 from 2. September 2016
Отчёт EAC об извлечении, выполненном 18. апреля 2018, 19:14
Pandora / Ilegal
Дисковод: HL-DT-STDVD-RAM GSA-H60L Adapter: 1 ID: 1
Режим чтения : Достоверность
Использование точного потока : Да
Отключение кэша аудио : Нет
Использование указателей C2 : Да
Коррекция смещения при чтении : 667
Способность читать области Lead-in и Lead-out : Нет
Заполнение пропущенных сэмплов тишиной : Да
Удаление блоков с тишиной в начале и конце : Нет
При вычислениях CRC использовались нулевые сэмплы : Да
Интерфейс : Встроенный Win32-интерфейс для Win NT/2000
Выходной формат : Пользовательский кодировщик
Выбранный битрейт : 768 kBit/s
Качество : Высокий
Добавление ID3-тега : Нет
Утилита сжатия : C:\Program Files (x86)\Exact Audio Copy\FLAC\FLAC.EXE
Дополнительные параметры : -6 -V -T "ARTIST=%artist%" -T "TITLE=%title%" -T "ALBUM=%albumtitle%" -T "DATE=%year%" -T "TRACKNUMBER=%tracknr%" -T "GENRE=%genre%" -T "COMMENT=%comment%" -T "BAND=%albuminterpret%" -T "ALBUMARTIST=%albuminterpret%" -T "COMPOSER=%composer%" %haslyrics%--tag-from-file=LYRICS="%lyricsfile%"%haslyrics% -T "DISCNUMBER=%cdnumber%" -T "TOTALDISCS=%totalcds%" -T "TOTALTRACKS=%numtracks%" %hascover%--picture="%coverfile%"%hascover% %source% -o %dest%
TOC извлечённого CD
Трек | Старт | Длительность | Начальный сектор | Конечный сектор
---------------------------------------------------------------------
1 | 0:00.00 | 3:22.67 | 0 | 15216
2 | 3:22.67 | 3:21.55 | 15217 | 30346
3 | 6:44.47 | 3:06.00 | 30347 | 44296
4 | 9:50.47 | 3:21.45 | 44297 | 59416
5 | 13:12.17 | 5:16.40 | 59417 | 83156
6 | 18:28.57 | 3:47.65 | 83157 | 100246
7 | 22:16.47 | 3:31.33 | 100247 | 116104
8 | 25:48.05 | 3:37.37 | 116105 | 132416
9 | 29:25.42 | 3:40.23 | 132417 | 148939
Характеристики диапазона извлечения и сообщения об ошибках
Выбранный диапазон
Имя файла C:\Users\aleks\Downloads\Ilegal\Pandora - Ilegal.wav
Пиковый уровень 99.2 %
Скорость извлечения 19.1 X
Качество диапазона 100.0 %
CRC теста 1F7122DD
CRC копии 1F7122DD
Копирование... OK
Ошибок не произошло
AccurateRip: сводка
Трек 1 : извлечено точно (доверие 2) [3E00C631] (AR v2)
Трек 2 : извлечено точно (доверие 2) [1313ED06] (AR v2)
Трек 3 : извлечено точно (доверие 2) [52F66E86] (AR v2)
Трек 4 : извлечено точно (доверие 2) [E091629C] (AR v2)
Трек 5 : извлечено точно (доверие 2) [DFF5EC8D] (AR v2)
Трек 6 : извлечено точно (доверие 2) [A6892F6A] (AR v2)
Трек 7 : извлечено точно (доверие 2) [B1BBB31D] (AR v2)
Трек 8 : извлечено точно (доверие 2) [CF25DF9C] (AR v2)
Трек 9 : извлечено точно (доверие 2) [D8578084] (AR v2)
Все треки извлечены точно
Конец отчёта
---- CUETools DB Plugin V2.1.6
[CTDB TOCID: .O5aa9YE0IJSrfrMExQkCz0iHqA-] found
Submit result: .O5aa9YE0IJSrfrMExQkCz0iHqA- has been confirmed
Track | CTDB Status
1 | (4/4) Accurately ripped
2 | (4/4) Accurately ripped
3 | (4/4) Accurately ripped
4 | (4/4) Accurately ripped
5 | (3/4) Accurately ripped
6 | (4/4) Accurately ripped
7 | (4/4) Accurately ripped
8 | (4/4) Accurately ripped
9 | (4/4) Accurately ripped
Лог проверки качества
foobar2000 1.3.15 / Dynamic Range Meter 1.1.1
log date: 2018-04-18 19:14:44
--------------------------------------------------------------------------------
Analyzed: Pandora / Ilegal
--------------------------------------------------------------------------------
DR Peak RMS Duration Track
--------------------------------------------------------------------------------
DR10 -0.06 dB -12.45 dB 3:23 01-Si Fuera Tu
DR11 -0.06 dB -13.18 dB 3:22 02-Rezo Una Oracion Por Ti
DR10 -0.06 dB -15.01 dB 3:06 03-Puede Ser Genial
DR11 -0.06 dB -14.68 dB 3:22 04-Desde El Dia Que Te Fuiste
DR12 -0.06 dB -14.33 dB 5:17 05-Con Una Pequena Ayuda
DR11 -0.06 dB -14.86 dB 3:48 06-Matandome Suavemente
DR11 -0.06 dB -15.07 dB 3:31 07-Como Tu Sabes
DR12 -0.08 dB -17.01 dB 3:37 08-Por Que
DR11 -0.06 dB -13.45 dB 3:40 09-Pierdo El Control
--------------------------------------------------------------------------------
Number of tracks: 9
Official DR value: DR11
Samplerate: 44100 Hz
Channels: 2
Bits per sample: 16
Bitrate: 873 kbps
Codec: FLAC
Download
Для скачивания .torrent файлов необходима регистрация
Сайт не распространяет и не хранит электронные версии произведений, а лишь предоставляет доступ к создаваемому пользователями каталогу ссылок на торрент-файлы, которые содержат только списки хеш-сумм
[Профиль]  [ЛС] 

Славо4ек

Помощник модератора

Стаж: 8 лет 3 месяца

Сообщений: 1665

Славо4ек · 25-Апр-18 10:30 (спустя 6 дней, ред. 25-Апр-18 10:30)

[Цитировать] 

undone писал(а):
75202004Продолжительность: 33:06
Желательно указать продолжительность в формате: N ~ ЧЧ:ММ:СС (Количество Дисков ~ 00:00:00), или общая, в таком же формате ЧЧ:ММ:СС (00:00:00).
Для многодисковых раздач, следует указывать общую продолжительность, и по желанию на спойлерах, продолжительность каждого диска.
Для одиночных релизов строго обязательно к заполнению, для дискографий и сборных раздач настоятельно рекомендуется.
чч:мм:сс - так указано в шаблоне оформления

Исправьте, пожалуйста
Правила публикации и оформления раздач в lossless разделах категорий Музыка, Популярная музыка, Джазовая и Блюзовая музыка, Рок-музыка, Электронная музыка

[Профиль]  [ЛС] 
 
Ответить
Loading...
Error