(Orchestral) Sir Thomas Beecham - English Music: Delius · German · Bantock · Bax · Lord Berners - 2011, FLAC (image+.cue) lossless

Страницы:  1

Ответить
Автор
Сообщение

el coronel

VIP (Заслуженный)

Стаж: 8 лет 7 месяцев

Сообщений: 4610

el coronel · 11-Фев-18 15:03 (6 месяцев назад, ред. 11-Мар-18 16:44)

Sir Thomas Beecham
ENGLISH MUSIC: Delius · German · Bantock · Bax · Lord Berners



Жанр: Orchestral
Страна-производитель диска: EU
Год издания диска: 2011
Издатель (лейбл): EMI
Дата записи: 1946-63
Аудиокодек: FLAC
Тип рипа: image+.cue
Битрейт аудио: lossless
Продолжительность: 7:05'09''
Источник: собственный рип
Наличие сканов в содержимом раздачи: да
Треклист:
CD1
Frederick Delius
[01] Over the Hills and Far Away
[02] Sleigh Ride (Winternacht)
[03] Brigg Fair (An English Rhapsody): Introduction (Slow, Pastoral)
[04] I. Theme (With easy movement)
[05] Variation 1
[06] Variation 2
[07] Variation 3
[08] Variation 4
[09] Variation 5
[10] Variation 6
[11] II. Interlude (Slow and very quietly)
[12] III. Variation 7 (Rather quicker but not hurried)
[13] Variation 8
[14] Variation 9 (With easy movement)
[15] Variation 10
[16] Variation 11 (Slow, With solemnity)
[17] Variation 12 (Maestoso)
[18] Transition
[19] IV. Variation 13 (Gaily)
[20] Variation 14
[21] Variation 15
[22] Variation 16
[23] Transition (Rather quicker)
[24] Variation 17 (Rather slower, Very broadly)
[25] Coda (Very quietly)
[26] Florida Suite: I. Daybreak - Dance
[27] II. By the River
[28] III. Sunset - Near the Plantation
[29] IV. At Night
[30] Marche Caprice
Royal Philharmonic Orchestra
Лог создания рипа
Exact Audio Copy V1.3 from 2. September 2016
EAC extraction logfile from 3. February 2018, 20:43
Royal Philharmonic Orchestra / Sir Thomas Beecham - English Music (CD1)
Used drive : TEAC CD-W540E Adapter: 1 ID: 2
Read mode : Secure
Utilize accurate stream : Yes
Defeat audio cache : Yes
Make use of C2 pointers : No
Read offset correction : 686
Overread into Lead-In and Lead-Out : No
Fill up missing offset samples with silence : Yes
Delete leading and trailing silent blocks : No
Null samples used in CRC calculations : Yes
Used interface : Native Win32 interface for Win NT & 2000
Used output format : User Defined Encoder
Selected bitrate : 32 kBit/s
Quality : High
Add ID3 tag : No
Command line compressor : C:\Program Files (x86)\Exact Audio Copy\Flac\flac.exe
Additional command line options : -T "COMMENT=CD-rip by el coronel" -8 -V %source%
TOC of the extracted CD
Track | Start | Length | Start sector | End sector
---------------------------------------------------------
1 | 0:00.00 | 13:04.03 | 0 | 58802
2 | 13:04.03 | 5:34.54 | 58803 | 83906
3 | 18:38.57 | 1:52.14 | 83907 | 92320
4 | 20:30.71 | 0:28.53 | 92321 | 94473
5 | 20:59.49 | 0:20.26 | 94474 | 95999
6 | 21:20.00 | 0:18.40 | 96000 | 97389
7 | 21:38.40 | 0:20.65 | 97390 | 98954
8 | 21:59.30 | 0:21.16 | 98955 | 100545
9 | 22:20.46 | 0:17.31 | 100546 | 101851
10 | 22:38.02 | 0:36.10 | 101852 | 104561
11 | 23:14.12 | 3:06.63 | 104562 | 118574
12 | 26:21.00 | 0:21.53 | 118575 | 120202
13 | 26:42.53 | 0:28.05 | 120203 | 122307
14 | 27:10.58 | 0:23.33 | 122308 | 124065
15 | 27:34.16 | 0:52.11 | 124066 | 127976
16 | 28:26.27 | 0:44.45 | 127977 | 131321
17 | 29:10.72 | 0:31.62 | 131322 | 133708
18 | 29:42.59 | 1:04.12 | 133709 | 138520
19 | 30:46.71 | 0:18.14 | 138521 | 139884
20 | 31:05.10 | 0:16.38 | 139885 | 141122
21 | 31:21.48 | 0:22.47 | 141123 | 142819
22 | 31:44.20 | 0:19.73 | 142820 | 144317
23 | 32:04.18 | 0:14.23 | 144318 | 145390
24 | 32:18.41 | 1:01.54 | 145391 | 150019
25 | 33:20.20 | 1:15.25 | 150020 | 155669
26 | 34:35.45 | 10:29.64 | 155670 | 202908
27 | 45:05.34 | 7:16.70 | 202909 | 235678
28 | 52:22.29 | 9:49.50 | 235679 | 279903
29 | 62:12.04 | 7:40.74 | 279904 | 314477
30 | 69:53.03 | 4:00.27 | 314478 | 332504
Range status and errors
Selected range
Filename Q:\Music\Sir Thomas Beecham - English Music\CD1.wav
Peak level 99.8 %
Extraction speed 8.3 X
Range quality 100.0 %
Test CRC D3525B6B
Copy CRC D3525B6B
Copy OK
No errors occurred
AccurateRip summary
Track 1 accurately ripped (confidence 11) [2263DEF4] (AR v2)
Track 2 accurately ripped (confidence 11) [BA2B0245] (AR v2)
Track 3 accurately ripped (confidence 11) [3CB08C98] (AR v2)
Track 4 accurately ripped (confidence 11) [835F00C4] (AR v2)
Track 5 accurately ripped (confidence 11) [27F8C332] (AR v2)
Track 6 accurately ripped (confidence 11) [C7F4044C] (AR v2)
Track 7 accurately ripped (confidence 11) [79D65936] (AR v2)
Track 8 accurately ripped (confidence 11) [A51E479D] (AR v2)
Track 9 accurately ripped (confidence 11) [1345349F] (AR v2)
Track 10 accurately ripped (confidence 11) [31BE0CD0] (AR v2)
Track 11 accurately ripped (confidence 11) [E2175995] (AR v2)
Track 12 accurately ripped (confidence 11) [6F89DC35] (AR v2)
Track 13 accurately ripped (confidence 11) [0385820F] (AR v2)
Track 14 accurately ripped (confidence 11) [CD36E5BB] (AR v2)
Track 15 accurately ripped (confidence 11) [7430269C] (AR v2)
Track 16 accurately ripped (confidence 11) [A8394DB8] (AR v2)
Track 17 accurately ripped (confidence 11) [FE6B4383] (AR v2)
Track 18 accurately ripped (confidence 11) [DCBF10FC] (AR v2)
Track 19 accurately ripped (confidence 11) [F2584B8E] (AR v2)
Track 20 accurately ripped (confidence 11) [BC57CA44] (AR v2)
Track 21 accurately ripped (confidence 11) [537849A4] (AR v2)
Track 22 accurately ripped (confidence 11) [ABDC8627] (AR v2)
Track 23 accurately ripped (confidence 11) [461932A9] (AR v2)
Track 24 accurately ripped (confidence 11) [4D65F53C] (AR v2)
Track 25 accurately ripped (confidence 11) [E7AE7903] (AR v2)
Track 26 accurately ripped (confidence 11) [566348DD] (AR v2)
Track 27 accurately ripped (confidence 11) [90B5CD0C] (AR v2)
Track 28 accurately ripped (confidence 11) [BE425EA7] (AR v2)
Track 29 accurately ripped (confidence 11) [3CE5F995] (AR v2)
Track 30 accurately ripped (confidence 11) [483A9161] (AR v2)
All tracks accurately ripped
End of status report
---- CUETools DB Plugin V2.1.6
[CTDB TOCID: gum6mYjtIlayzz3u0A5J3TtSa10-] found
Submit result: gum6mYjtIlayzz3u0A5J3TtSa10- has been confirmed
Track | CTDB Status
1 | (28/28) Accurately ripped
2 | (28/28) Accurately ripped
3 | (28/28) Accurately ripped
4 | (28/28) Accurately ripped
5 | (28/28) Accurately ripped
6 | (28/28) Accurately ripped
7 | (28/28) Accurately ripped
8 | (28/28) Accurately ripped
9 | (28/28) Accurately ripped
10 | (28/28) Accurately ripped
11 | (28/28) Accurately ripped
12 | (28/28) Accurately ripped
13 | (28/28) Accurately ripped
14 | (28/28) Accurately ripped
15 | (28/28) Accurately ripped
16 | (28/28) Accurately ripped
17 | (28/28) Accurately ripped
18 | (28/28) Accurately ripped
19 | (28/28) Accurately ripped
20 | (28/28) Accurately ripped
21 | (28/28) Accurately ripped
22 | (28/28) Accurately ripped
23 | (28/28) Accurately ripped
24 | (28/28) Accurately ripped
25 | (28/28) Accurately ripped
26 | (28/28) Accurately ripped
27 | (28/28) Accurately ripped
28 | (28/28) Accurately ripped
29 | (28/28) Accurately ripped
30 | (28/28) Accurately ripped
==== Log checksum A4C3CB1D6185221B941EBE8A943C42D4460EC8BE9918C4621C10251A48BE2E3F ====
Содержание индексной карты (.CUE)
REM GENRE Classical
REM DATE 2011
REM DISCID 9D11511E
REM COMMENT "ExactAudioCopy v1.3"
CATALOG 5099990991622
PERFORMER "Royal Philharmonic Orchestra"
TITLE "Sir Thomas Beecham - English Music (CD1)"
REM COMPOSER "Frederick Delius"
FILE "CD1.Flac" WAVE
TRACK 01 AUDIO
TITLE "Over the Hills and Far Away"
PERFORMER "Royal Philharmonic Orchestra"
REM COMPOSER "Frederick Delius"
ISRC GBAYC8501447
INDEX 01 00:00:00
TRACK 02 AUDIO
TITLE "Sleigh Ride (Winternacht)"
PERFORMER "Royal Philharmonic Orchestra"
REM COMPOSER "Frederick Delius"
ISRC GBAYC0100238
INDEX 00 12:57:26
INDEX 01 13:04:03
TRACK 03 AUDIO
TITLE "Brigg Fair (An English Rhapsody): Introduction (Slow, Pastoral)"
PERFORMER "Royal Philharmonic Orchestra"
REM COMPOSER "Frederick Delius"
ISRC GBAYC1001628
INDEX 00 18:33:70
INDEX 01 18:38:57
TRACK 04 AUDIO
TITLE "I. Theme (With easy movement)"
PERFORMER "Royal Philharmonic Orchestra"
REM COMPOSER "Frederick Delius"
ISRC GBAYC1001629
INDEX 01 20:30:71
TRACK 05 AUDIO
TITLE "Variation 1"
PERFORMER "Royal Philharmonic Orchestra"
REM COMPOSER "Frederick Delius"
ISRC GBAYC1001630
INDEX 01 20:59:49
TRACK 06 AUDIO
TITLE "Variation 2"
PERFORMER "Royal Philharmonic Orchestra"
REM COMPOSER "Frederick Delius"
ISRC GBAYC1001631
INDEX 01 21:20:00
TRACK 07 AUDIO
TITLE "Variation 3"
PERFORMER "Royal Philharmonic Orchestra"
REM COMPOSER "Frederick Delius"
ISRC GBAYC1001632
INDEX 01 21:38:40
TRACK 08 AUDIO
TITLE "Variation 4"
PERFORMER "Royal Philharmonic Orchestra"
REM COMPOSER "Frederick Delius"
ISRC GBAYC1001633
INDEX 01 21:59:30
TRACK 09 AUDIO
TITLE "Variation 5"
PERFORMER "Royal Philharmonic Orchestra"
REM COMPOSER "Frederick Delius"
ISRC GBAYC1001634
INDEX 01 22:20:46
TRACK 10 AUDIO
TITLE "Variation 6"
PERFORMER "Royal Philharmonic Orchestra"
REM COMPOSER "Frederick Delius"
ISRC GBAYC1001635
INDEX 01 22:38:02
TRACK 11 AUDIO
TITLE "II. Interlude (Slow and very quietly)"
PERFORMER "Royal Philharmonic Orchestra"
REM COMPOSER "Frederick Delius"
ISRC GBAYC1001636
INDEX 01 23:14:12
TRACK 12 AUDIO
TITLE "III. Variation 7 (Rather quicker but not hurried)"
PERFORMER "Royal Philharmonic Orchestra"
REM COMPOSER "Frederick Delius"
ISRC GBAYC1001637
INDEX 01 26:21:00
TRACK 13 AUDIO
TITLE "Variation 8"
PERFORMER "Royal Philharmonic Orchestra"
REM COMPOSER "Frederick Delius"
ISRC GBAYC1001638
INDEX 01 26:42:53
TRACK 14 AUDIO
TITLE "Variation 9 (With easy movement)"
PERFORMER "Royal Philharmonic Orchestra"
REM COMPOSER "Frederick Delius"
ISRC GBAYC1001639
INDEX 01 27:10:58
TRACK 15 AUDIO
TITLE "Variation 10"
PERFORMER "Royal Philharmonic Orchestra"
REM COMPOSER "Frederick Delius"
ISRC GBAYC1001640
INDEX 01 27:34:16
TRACK 16 AUDIO
TITLE "Variation 11 (Slow, With solemnity)"
PERFORMER "Royal Philharmonic Orchestra"
REM COMPOSER "Frederick Delius"
ISRC GBAYC1001641
INDEX 01 28:26:27
TRACK 17 AUDIO
TITLE "Variation 12 (Maestoso)"
PERFORMER "Royal Philharmonic Orchestra"
REM COMPOSER "Frederick Delius"
ISRC GBAYC1001642
INDEX 01 29:10:72
TRACK 18 AUDIO
TITLE "Transition"
PERFORMER "Royal Philharmonic Orchestra"
REM COMPOSER "Frederick Delius"
ISRC GBAYC1001643
INDEX 01 29:42:59
TRACK 19 AUDIO
TITLE "IV. Variation 13 (Gaily)"
PERFORMER "Royal Philharmonic Orchestra"
REM COMPOSER "Frederick Delius"
ISRC GBAYC1001644
INDEX 01 30:46:71
TRACK 20 AUDIO
TITLE "Variation 14"
PERFORMER "Royal Philharmonic Orchestra"
REM COMPOSER "Frederick Delius"
ISRC GBAYC1001645
INDEX 01 31:05:10
TRACK 21 AUDIO
TITLE "Variation 15"
PERFORMER "Royal Philharmonic Orchestra"
REM COMPOSER "Frederick Delius"
ISRC GBAYC1001646
INDEX 01 31:21:48
TRACK 22 AUDIO
TITLE "Variation 16"
PERFORMER "Royal Philharmonic Orchestra"
REM COMPOSER "Frederick Delius"
ISRC GBAYC1001647
INDEX 01 31:44:20
TRACK 23 AUDIO
TITLE "Transition (Rather quicker)"
PERFORMER "Royal Philharmonic Orchestra"
REM COMPOSER "Frederick Delius"
ISRC GBAYC1001648
INDEX 01 32:04:18
TRACK 24 AUDIO
TITLE "Variation 17 (Rather slower, Very broadly)"
PERFORMER "Royal Philharmonic Orchestra"
REM COMPOSER "Frederick Delius"
ISRC GBAYC1001649
INDEX 01 32:18:41
TRACK 25 AUDIO
TITLE "Coda (Very quietly)"
PERFORMER "Royal Philharmonic Orchestra"
REM COMPOSER "Frederick Delius"
ISRC GBAYC1001650
INDEX 01 33:20:20
TRACK 26 AUDIO
TITLE "Florida Suite: I. Daybreak - Dance"
PERFORMER "Royal Philharmonic Orchestra"
REM COMPOSER "Frederick Delius"
ISRC GBAYC0100241
INDEX 00 34:29:64
INDEX 01 34:35:45
TRACK 27 AUDIO
TITLE "II. By the River"
PERFORMER "Royal Philharmonic Orchestra"
REM COMPOSER "Frederick Delius"
ISRC GBAYC8501450
INDEX 01 45:05:34
TRACK 28 AUDIO
TITLE "III. Sunset - Near the Plantation"
PERFORMER "Royal Philharmonic Orchestra"
REM COMPOSER "Frederick Delius"
ISRC GBAYC8501451
INDEX 01 52:22:29
TRACK 29 AUDIO
TITLE "IV. At Night"
PERFORMER "Royal Philharmonic Orchestra"
REM COMPOSER "Frederick Delius"
ISRC GBAYC8501452
INDEX 01 62:12:04
TRACK 30 AUDIO
TITLE "Marche Caprice"
PERFORMER "Royal Philharmonic Orchestra"
REM COMPOSER "Frederick Delius"
ISRC GBAYC8702711
INDEX 00 69:50:36
INDEX 01 69:53:03
CD2
Frederick Delius
[01] Dance Rhapsody No.2
[02] Summer Evening
[03] Two Pieces for small orchestra: No.1 On Hearing the First Cuckoo in Spring
[04] No.2 Summer Night on the River
[05] A Song before Sunrise
[06] Fennimore and Gerda - Intermezzo
[07] Irmelin Prelude
[08] Songs of Sunset (Ernest Dowson): A song of the setting sun!
[09] Cease smiling, Dear! a little while be sad
[10] Pale amber sunlight falls across the reddening October trees
[11] Exceeding sorrow consumeth my sad heart!
[12] By the waters of separation
[13] See how the trees and the osiers lithe are green bedecked
[14] I was not sorrowful, I could not weep
[15] Tey are not long, The weeping and the laughter
John Cameron baritone · Maureen Forrester contralto [8-15]
Royal Philharmonic Orchestra
Лог создания рипа
Exact Audio Copy V1.3 from 2. September 2016
EAC extraction logfile from 3. February 2018, 21:12
Royal Philharmonic Orchestra / Sir Thomas Beecham - English Music (CD2)
Used drive : TEAC CD-W540E Adapter: 1 ID: 2
Read mode : Secure
Utilize accurate stream : Yes
Defeat audio cache : Yes
Make use of C2 pointers : No
Read offset correction : 686
Overread into Lead-In and Lead-Out : No
Fill up missing offset samples with silence : Yes
Delete leading and trailing silent blocks : No
Null samples used in CRC calculations : Yes
Used interface : Native Win32 interface for Win NT & 2000
Used output format : User Defined Encoder
Selected bitrate : 32 kBit/s
Quality : High
Add ID3 tag : No
Command line compressor : C:\Program Files (x86)\Exact Audio Copy\Flac\flac.exe
Additional command line options : -T "COMMENT=CD-rip by el coronel" -8 -V %source%
TOC of the extracted CD
Track | Start | Length | Start sector | End sector
---------------------------------------------------------
1 | 0:00.00 | 7:47.52 | 0 | 35076
2 | 7:47.52 | 6:28.56 | 35077 | 64232
3 | 14:16.33 | 7:04.00 | 64233 | 96032
4 | 21:20.33 | 6:42.48 | 96033 | 126230
5 | 28:03.06 | 6:12.74 | 126231 | 154204
6 | 34:16.05 | 5:17.23 | 154205 | 178002
7 | 39:33.28 | 5:07.58 | 178003 | 201085
8 | 44:41.11 | 2:59.31 | 201086 | 214541
9 | 47:40.42 | 4:37.50 | 214542 | 235366
10 | 52:18.17 | 4:33.29 | 235367 | 255870
11 | 56:51.46 | 3:23.51 | 255871 | 271146
12 | 60:15.22 | 3:55.47 | 271147 | 288818
13 | 64:10.69 | 3:23.64 | 288819 | 304107
14 | 67:34.58 | 4:06.62 | 304108 | 322619
15 | 71:41.45 | 2:35.41 | 322620 | 334285
Range status and errors
Selected range
Filename Q:\Music\Sir Thomas Beecham - English Music\CD2.wav
Peak level 99.9 %
Extraction speed 8.1 X
Range quality 100.0 %
Test CRC 8E8C1365
Copy CRC 8E8C1365
Copy OK
No errors occurred
AccurateRip summary
Track 1 accurately ripped (confidence 12) [AEBCD1C0] (AR v2)
Track 2 accurately ripped (confidence 12) [FA0104FE] (AR v2)
Track 3 accurately ripped (confidence 12) [8745C2A7] (AR v2)
Track 4 accurately ripped (confidence 12) [7AAEE351] (AR v2)
Track 5 accurately ripped (confidence 12) [9A70FA6F] (AR v2)
Track 6 accurately ripped (confidence 12) [3F7CE7B4] (AR v2)
Track 7 accurately ripped (confidence 12) [FC071E9B] (AR v2)
Track 8 accurately ripped (confidence 12) [C833B55E] (AR v2)
Track 9 accurately ripped (confidence 12) [E093B657] (AR v2)
Track 10 accurately ripped (confidence 12) [1BE2702F] (AR v2)
Track 11 accurately ripped (confidence 12) [4CF4B406] (AR v2)
Track 12 accurately ripped (confidence 12) [1D3389C0] (AR v2)
Track 13 accurately ripped (confidence 12) [4258DF4D] (AR v2)
Track 14 accurately ripped (confidence 12) [2E18A825] (AR v2)
Track 15 accurately ripped (confidence 12) [74AB8701] (AR v2)
All tracks accurately ripped
End of status report
---- CUETools DB Plugin V2.1.6
[CTDB TOCID: IOeiOLTgqs9H.KA_v1ICQYIdN6o-] found
Submit result: IOeiOLTgqs9H.KA_v1ICQYIdN6o- has been confirmed
Track | CTDB Status
1 | (27/27) Accurately ripped
2 | (27/27) Accurately ripped
3 | (27/27) Accurately ripped
4 | (27/27) Accurately ripped
5 | (27/27) Accurately ripped
6 | (27/27) Accurately ripped
7 | (27/27) Accurately ripped
8 | (27/27) Accurately ripped
9 | (27/27) Accurately ripped
10 | (27/27) Accurately ripped
11 | (27/27) Accurately ripped
12 | (27/27) Accurately ripped
13 | (27/27) Accurately ripped
14 | (27/27) Accurately ripped
15 | (27/27) Accurately ripped
==== Log checksum 1F9C618CBD957AAEB5341484215D06E94306C78925DFEED5B351B4DD01EAEC6B ====
Содержание индексной карты (.CUE)
REM GENRE Classical
REM DATE 2011
REM DISCID DF11690F
REM COMMENT "ExactAudioCopy v1.3"
CATALOG 5099990991820
PERFORMER "Royal Philharmonic Orchestra"
TITLE "Sir Thomas Beecham - English Music (CD2)"
REM COMPOSER "Frederick Delius"
FILE "CD2.Flac" WAVE
TRACK 01 AUDIO
TITLE "Dance Rhapsody No.2"
PERFORMER "Royal Philharmonic Orchestra"
REM COMPOSER "Frederick Delius"
ISRC GBAYC0100232
INDEX 01 00:00:00
TRACK 02 AUDIO
TITLE "Summer Evening"
PERFORMER "Royal Philharmonic Orchestra"
REM COMPOSER "Frederick Delius"
ISRC GBAYC0100239
INDEX 00 07:41:04
INDEX 01 07:47:52
TRACK 03 AUDIO
TITLE "Two Pieces for small orchestra: No.1 On Hearing the First Cuckoo in Spring"
PERFORMER "Royal Philharmonic Orchestra"
REM COMPOSER "Frederick Delius"
ISRC GBAYC0100233
INDEX 00 14:10:19
INDEX 01 14:16:33
TRACK 04 AUDIO
TITLE "No.2 Summer Night on the River"
PERFORMER "Royal Philharmonic Orchestra"
REM COMPOSER "Frederick Delius"
ISRC GBAYC0100234
INDEX 01 21:20:33
TRACK 05 AUDIO
TITLE "A Song before Sunrise"
PERFORMER "Royal Philharmonic Orchestra"
REM COMPOSER "Frederick Delius"
ISRC GBAYC0100235
INDEX 00 27:57:39
INDEX 01 28:03:06
TRACK 06 AUDIO
TITLE "Fennimore and Gerda - Intermezzo"
PERFORMER "Royal Philharmonic Orchestra"
REM COMPOSER "Frederick Delius"
ISRC GBAYC0100236
INDEX 00 34:10:43
INDEX 01 34:16:05
TRACK 07 AUDIO
TITLE "Irmelin Prelude"
PERFORMER "Royal Philharmonic Orchestra"
REM COMPOSER "Frederick Delius"
ISRC GBAYC0100237
INDEX 00 39:27:24
INDEX 01 39:33:28
TRACK 08 AUDIO
TITLE "Songs of Sunset (Ernest Dowson): A song of the setting sun !"
PERFORMER "J.Cameron, M.Forrester; Royal Philharmonic Orchestra"
REM COMPOSER "Frederick Delius"
ISRC GBAYC1001652
INDEX 00 44:36:20
INDEX 01 44:41:11
TRACK 09 AUDIO
TITLE "Cease smiling, Dear! a little while be sad"
PERFORMER "J.Cameron, M.Forrester; Royal Philharmonic Orchestra"
REM COMPOSER "Frederick Delius"
ISRC GBAYC1001653
INDEX 01 47:40:42
TRACK 10 AUDIO
TITLE "Pale amber sunlight falls across the reddening October trees"
PERFORMER "J.Cameron, M.Forrester; Royal Philharmonic Orchestra"
REM COMPOSER "Frederick Delius"
ISRC GBAYC1001654
INDEX 01 52:18:17
TRACK 11 AUDIO
TITLE "Exceeding sorrow consumeth my sad heart!"
PERFORMER "J.Cameron, M.Forrester; Royal Philharmonic Orchestra"
REM COMPOSER "Frederick Delius"
ISRC GBAYC1001655
INDEX 01 56:51:46
TRACK 12 AUDIO
TITLE "By the waters of separation"
PERFORMER "J.Cameron, M.Forrester; Royal Philharmonic Orchestra"
REM COMPOSER "Frederick Delius"
ISRC GBAYC1001656
INDEX 01 60:15:22
TRACK 13 AUDIO
TITLE "See how the trees and the osiers lithe are green bedecked"
PERFORMER "J.Cameron, M.Forrester; Royal Philharmonic Orchestra"
REM COMPOSER "Frederick Delius"
ISRC GBAYC1001657
INDEX 01 64:10:69
TRACK 14 AUDIO
TITLE "I was not sorrowful, I could not weep"
PERFORMER "J.Cameron, M.Forrester; Royal Philharmonic Orchestra"
REM COMPOSER "Frederick Delius"
ISRC GBAYC1001658
INDEX 01 67:34:58
TRACK 15 AUDIO
TITLE "Tey are not long, The weeping and the laughter"
PERFORMER "J.Cameron, M.Forrester; Royal Philharmonic Orchestra"
REM COMPOSER "Frederick Delius"
ISRC GBAYC1001659
INDEX 01 71:41:45
CD3
Frederick Delius
[01] Dance Rhapsody No.1: I. Lento
[02] II. Comodo
[03] III. Vivo
[04] IV. Piu lento tranquillo
[05] V. Molto adagio
[06] Violin Concerto: I. With moderate tempo
[07] II. Slower
[08] III. Tempo I - Allegretto - Piu moderato
[09] The Song of the High Hills: I. With quiet easy movement - Tranquillo
[10] II. Very slow ('The wide, far distance' - 'The great solitude')
[11] III. In tempo
[12] IV.Very quietly - Tempo I
[13] On the Mountains (Paa vidderne)
Jean Pougnet violin [6-8]
Freda Hart soprano · Leslie Jones tenor [9-12]
Royal Philharmonic Orchestra
Лог создания рипа
Exact Audio Copy V1.3 from 2. September 2016
EAC extraction logfile from 4. February 2018, 12:11
Royal Philharmonic Orchestra / Sir Thomas Beecham - English Music (CD3)
Used drive : TEAC CD-W540E Adapter: 1 ID: 2
Read mode : Secure
Utilize accurate stream : Yes
Defeat audio cache : Yes
Make use of C2 pointers : No
Read offset correction : 686
Overread into Lead-In and Lead-Out : No
Fill up missing offset samples with silence : Yes
Delete leading and trailing silent blocks : No
Null samples used in CRC calculations : Yes
Used interface : Native Win32 interface for Win NT & 2000
Used output format : User Defined Encoder
Selected bitrate : 32 kBit/s
Quality : High
Add ID3 tag : No
Command line compressor : C:\Program Files (x86)\Exact Audio Copy\Flac\flac.exe
Additional command line options : -T "COMMENT=CD-rip by el coronel" -8 -V %source%
TOC of the extracted CD
Track | Start | Length | Start sector | End sector
---------------------------------------------------------
1 | 0:00.00 | 1:39.62 | 0 | 7486
2 | 1:39.62 | 1:54.40 | 7487 | 16076
3 | 3:34.27 | 2:09.55 | 16077 | 25806
4 | 5:44.07 | 3:13.15 | 25807 | 40296
5 | 8:57.22 | 3:12.50 | 40297 | 54746
6 | 12:09.72 | 5:21.15 | 54747 | 78836
7 | 17:31.12 | 8:51.45 | 78837 | 118706
8 | 26:22.57 | 9:20.38 | 118707 | 160744
9 | 35:43.20 | 8:32.62 | 160745 | 199206
10 | 44:16.07 | 3:51.30 | 199207 | 216561
11 | 48:07.37 | 2:44.30 | 216562 | 228891
12 | 50:51.67 | 9:30.58 | 228892 | 271699
13 | 60:22.50 | 12:19.35 | 271700 | 327159
Range status and errors
Selected range
Filename Q:\Music\Sir Thomas Beecham - English Music\CD3.wav
Peak level 96.7 %
Extraction speed 8.3 X
Range quality 100.0 %
Test CRC 837CE29A
Copy CRC 837CE29A
Copy OK
No errors occurred
AccurateRip summary
Track 1 accurately ripped (confidence 9) [CC1C9F1D] (AR v2)
Track 2 accurately ripped (confidence 9) [72DDDC3F] (AR v2)
Track 3 accurately ripped (confidence 9) [675C0155] (AR v2)
Track 4 accurately ripped (confidence 9) [17A5735C] (AR v2)
Track 5 accurately ripped (confidence 9) [EA4BFD35] (AR v2)
Track 6 accurately ripped (confidence 9) [6886D695] (AR v2)
Track 7 accurately ripped (confidence 9) [F79883CF] (AR v2)
Track 8 accurately ripped (confidence 9) [E7146D78] (AR v2)
Track 9 accurately ripped (confidence 9) [EE44E54F] (AR v2)
Track 10 accurately ripped (confidence 9) [D06AACCE] (AR v2)
Track 11 accurately ripped (confidence 9) [74FE6583] (AR v2)
Track 12 accurately ripped (confidence 9) [60CDC788] (AR v2)
Track 13 accurately ripped (confidence 9) [026D2B86] (AR v2)
All tracks accurately ripped
End of status report
---- CUETools DB Plugin V2.1.6
[CTDB TOCID: qBSHMY5q_PMmzAEJO.IUMki6XhY-] found
Submit result: qBSHMY5q_PMmzAEJO.IUMki6XhY- has been confirmed
Track | CTDB Status
1 | (7/7) Accurately ripped
2 | (7/7) Accurately ripped
3 | (7/7) Accurately ripped
4 | (7/7) Accurately ripped
5 | (7/7) Accurately ripped
6 | (7/7) Accurately ripped
7 | (7/7) Accurately ripped
8 | (7/7) Accurately ripped
9 | (7/7) Accurately ripped
10 | (7/7) Accurately ripped
11 | (7/7) Accurately ripped
12 | (7/7) Accurately ripped
13 | (7/7) Accurately ripped
==== Log checksum 53B8AC620ACDDA55305715D61AD32A3241B12206D519E80B55465C61EFD8974E ====
Содержание индексной карты (.CUE)
REM GENRE Classical
REM DATE 2011
REM DISCID A7110A0D
REM COMMENT "ExactAudioCopy v1.3"
CATALOG 5099990992025
PERFORMER "Royal Philharmonic Orchestra"
TITLE "Sir Thomas Beecham - English Music (CD3)"
REM COMPOSER "Frederick Delius"
FILE "CD3.Flac" WAVE
TRACK 01 AUDIO
TITLE "Dance Rhapsody No.1: I. Lento"
PERFORMER "Royal Philharmonic Orchestra"
REM COMPOSER "Frederick Delius"
ISRC GBAYC9201762
INDEX 01 00:00:00
TRACK 02 AUDIO
TITLE "II. Comodo"
PERFORMER "Royal Philharmonic Orchestra"
REM COMPOSER "Frederick Delius"
ISRC GBAYC9201763
INDEX 01 01:39:62
TRACK 03 AUDIO
TITLE "III. Vivo"
PERFORMER "Royal Philharmonic Orchestra"
REM COMPOSER "Frederick Delius"
ISRC GBAYC9201764
INDEX 01 03:34:27
TRACK 04 AUDIO
TITLE "IV. Piu lento tranquillo"
PERFORMER "Royal Philharmonic Orchestra"
REM COMPOSER "Frederick Delius"
ISRC GBAYC9201765
INDEX 01 05:44:07
TRACK 05 AUDIO
TITLE "V. Molto adagio"
PERFORMER "Royal Philharmonic Orchestra"
REM COMPOSER "Frederick Delius"
ISRC GBAYC9201766
INDEX 01 08:57:22
TRACK 06 AUDIO
TITLE "Violin Concerto: I. With moderate tempo"
PERFORMER "J.Pougnet; Royal Philharmonic Orchestra"
REM COMPOSER "Frederick Delius"
INDEX 00 12:03:36
INDEX 01 12:09:72
TRACK 07 AUDIO
TITLE "II. Slower"
PERFORMER "J.Pougnet; Royal Philharmonic Orchestra"
REM COMPOSER "Frederick Delius"
ISRC GBAYC9201770
INDEX 01 17:31:12
TRACK 08 AUDIO
TITLE "III. Tempo I - Allegretto - Piu moderato"
PERFORMER "J.Pougnet; Royal Philharmonic Orchestra"
REM COMPOSER "Frederick Delius"
ISRC GBAYC9201771
INDEX 01 26:22:57
TRACK 09 AUDIO
TITLE "The Song of the High Hills: I. With quiet easy movement - Tranquillo"
PERFORMER "F.Hart, L.Jones; Royal Philharmonic Orchestra"
REM COMPOSER "Frederick Delius"
ISRC GBAYC9201773
INDEX 00 35:34:52
INDEX 01 35:43:20
TRACK 10 AUDIO
TITLE "II. Very slow ('The wide, far distance' - 'The great solitude')"
PERFORMER "F.Hart, L.Jones; Royal Philharmonic Orchestra"
REM COMPOSER "Frederick Delius"
ISRC GBAYC9201774
INDEX 01 44:16:07
TRACK 11 AUDIO
TITLE "III. In tempo"
PERFORMER "F.Hart, L.Jones; Royal Philharmonic Orchestra"
REM COMPOSER "Frederick Delius"
ISRC GBAYC9201775
INDEX 01 48:07:37
TRACK 12 AUDIO
TITLE "IV.Very quietly - Tempo I"
PERFORMER "F.Hart, L.Jones; Royal Philharmonic Orchestra"
REM COMPOSER "Frederick Delius"
ISRC GBAYC9201776
INDEX 01 50:51:67
TRACK 13 AUDIO
TITLE "On the Mountains (Paa vidderne)"
PERFORMER "Royal Philharmonic Orchestra"
REM COMPOSER "Frederick Delius"
ISRC GBAYC9201767
INDEX 00 60:15:57
INDEX 01 60:22:50
CD4
Frederick Delius
[01] A Village Romeo and Juliet - Scene 1: September. A piece of land on a hill
[02] Scene 2: Six years later. Outside Marti's house
[03] Scene 3: The Wildland
[04] Scene 4: Interior of Marti's house (Part 1)
[05] The Dearm of Sali and Vreli (Part 2)
Лог создания рипа
444Exact Audio Copy V1.3 from 2. September 2016
EAC extraction logfile from 4. February 2018, 12:41
Royal Philharmonic Orchestra / Sir Thomas Beecham - English Music (CD4)
Used drive : TEAC CD-W540E Adapter: 1 ID: 2
Read mode : Secure
Utilize accurate stream : Yes
Defeat audio cache : Yes
Make use of C2 pointers : No
Read offset correction : 686
Overread into Lead-In and Lead-Out : No
Fill up missing offset samples with silence : Yes
Delete leading and trailing silent blocks : No
Null samples used in CRC calculations : Yes
Used interface : Native Win32 interface for Win NT & 2000
Used output format : User Defined Encoder
Selected bitrate : 32 kBit/s
Quality : High
Add ID3 tag : No
Command line compressor : C:\Program Files (x86)\Exact Audio Copy\Flac\flac.exe
Additional command line options : -T "COMMENT=CD-rip by el coronel" -8 -V %source%
TOC of the extracted CD
Track | Start | Length | Start sector | End sector
---------------------------------------------------------
1 | 0:00.00 | 16:24.37 | 0 | 73836
2 | 16:24.37 | 9:40.50 | 73837 | 117386
3 | 26:05.12 | 12:35.38 | 117387 | 174049
4 | 38:40.50 | 13:25.37 | 174050 | 234461
5 | 52:06.12 | 11:19.35 | 234462 | 285421
Range status and errors
Selected range
Filename Q:\Music\Sir Thomas Beecham - English Music\CD4.wav
Peak level 99.2 %
Extraction speed 5.0 X
Range quality 100.0 %
Test CRC 025D8EF8
Copy CRC 025D8EF8
Copy OK
No errors occurred
AccurateRip summary
Track 1 accurately ripped (confidence 12) [65760236] (AR v2)
Track 2 accurately ripped (confidence 12) [39D42570] (AR v2)
Track 3 accurately ripped (confidence 12) [8F4EDBEA] (AR v2)
Track 4 accurately ripped (confidence 12) [7CEE711C] (AR v2)
Track 5 accurately ripped (confidence 12) [4AFEC4B6] (AR v2)
All tracks accurately ripped
End of status report
---- CUETools DB Plugin V2.1.6
[CTDB TOCID: 9WPg.oOZ3PmHgebCEAQealnHAwA-] found
Submit result: 9WPg.oOZ3PmHgebCEAQealnHAwA- has been confirmed
Track | CTDB Status
1 | (22/22) Accurately ripped
2 | (22/22) Accurately ripped
3 | (21/22) Accurately ripped
4 | (22/22) Accurately ripped
5 | (22/22) Accurately ripped
==== Log checksum 6CDB87418DCCBC8396032FFA22A6E64F7D1C6AF59AE47DF25D70BEA5EBC8CAB1 ====
Содержание индексной карты (.CUE)
REM GENRE Classical
REM DATE 2011
REM DISCID 430EDD05
REM COMMENT "ExactAudioCopy v1.3"
CATALOG 5099990992223
PERFORMER "Royal Philharmonic Orchestra"
TITLE "Sir Thomas Beecham - English Music (CD4)"
REM COMPOSER "Frederick Delius"
FILE "CD4.Flac" WAVE
TRACK 01 AUDIO
TITLE "A Village Romeo and Juliet - Scene 1: September. A piece of land on a hill"
PERFORMER "Royal Philharmonic Orchestra"
REM COMPOSER "Frederick Delius"
ISRC GBAYC9201787
INDEX 01 00:00:00
TRACK 02 AUDIO
TITLE "Scene 2: Six years later. Outside Marti's house"
PERFORMER "Royal Philharmonic Orchestra"
REM COMPOSER "Frederick Delius"
ISRC GBAYC9201788
INDEX 00 16:15:70
INDEX 01 16:24:37
TRACK 03 AUDIO
TITLE "Scene 3: The Wildland"
PERFORMER "Royal Philharmonic Orchestra"
REM COMPOSER "Frederick Delius"
ISRC GBAYC9201789
INDEX 01 26:05:12
TRACK 04 AUDIO
TITLE "Scene 4: Interior of Marti's house (Part 1)"
PERFORMER "Royal Philharmonic Orchestra"
REM COMPOSER "Frederick Delius"
ISRC GBAYC9201790
INDEX 00 38:31:65
INDEX 01 38:40:50
TRACK 05 AUDIO
TITLE "The Dearm of Sali and Vreli (Part 2)"
PERFORMER "Royal Philharmonic Orchestra"
REM COMPOSER "Frederick Delius"
ISRC GBAYC9201791
INDEX 01 52:06:12
CD5
Frederick Delius
[01] A Village Romeo and Juliet - Scene 5: The Fair
[02] The Walk to the Paradise Garden
[03] Scene 6: The Paradise Garden
[04] Sea Drift: Once Paumanok
[05] Shine! Shine! Shine!
[06] Till of a Sudden
[07] Blow! Blow! Blow!
[08] Yes my Brother, I Know
[09] O Rising stars!
[10] O reckless despairing carols
[11] O past! O happy life!
Dennis Dowling baritone · Frederick Sharp baritone · Margaret Ritchie soprano · Rene Soames tenor et al. [CD4, CD5: 1-3]
Gordon Clinton baritone [4-11]
Royal Philharmonic Orchestra
Лог создания рипа
Exact Audio Copy V1.3 from 2. September 2016
EAC extraction logfile from 4. February 2018, 13:03
Royal Philharmonic Orchestra / Sir Thomas Beecham - English Music (CD5)
Used drive : TEAC CD-W540E Adapter: 1 ID: 2
Read mode : Secure
Utilize accurate stream : Yes
Defeat audio cache : Yes
Make use of C2 pointers : No
Read offset correction : 686
Overread into Lead-In and Lead-Out : No
Fill up missing offset samples with silence : Yes
Delete leading and trailing silent blocks : No
Null samples used in CRC calculations : Yes
Used interface : Native Win32 interface for Win NT & 2000
Used output format : User Defined Encoder
Selected bitrate : 32 kBit/s
Quality : High
Add ID3 tag : No
Command line compressor : C:\Program Files (x86)\Exact Audio Copy\Flac\flac.exe
Additional command line options : -T "COMMENT=CD-rip by el coronel" -8 -V %source%
TOC of the extracted CD
Track | Start | Length | Start sector | End sector
---------------------------------------------------------
1 | 0:00.00 | 8:10.27 | 0 | 36776
2 | 8:10.27 | 8:38.38 | 36777 | 75664
3 | 16:48.65 | 21:16.22 | 75665 | 171386
4 | 38:05.12 | 3:15.70 | 171387 | 186081
5 | 41:21.07 | 1:19.30 | 186082 | 192036
6 | 42:40.37 | 2:20.45 | 192037 | 202581
7 | 45:01.07 | 2:03.38 | 202582 | 211844
8 | 47:04.45 | 3:18.25 | 211845 | 226719
9 | 50:22.70 | 1:40.00 | 226720 | 234219
10 | 52:02.70 | 5:57.17 | 234220 | 261011
11 | 58:00.12 | 2:53.58 | 261012 | 274044
Range status and errors
Selected range
Filename Q:\Music\Sir Thomas Beecham - English Music\CD5.wav
Peak level 99.8 %
Extraction speed 8.3 X
Range quality 100.0 %
Test CRC 63A06FCB
Copy CRC 63A06FCB
Copy OK
No errors occurred
AccurateRip summary
Track 1 accurately ripped (confidence 9) [C067C256] (AR v2)
Track 2 accurately ripped (confidence 9) [D06AE0AC] (AR v2)
Track 3 accurately ripped (confidence 9) [E6D204AB] (AR v2)
Track 4 accurately ripped (confidence 9) [CC6C894D] (AR v2)
Track 5 accurately ripped (confidence 9) [0566AD4D] (AR v2)
Track 6 accurately ripped (confidence 9) [19A7549C] (AR v2)
Track 7 accurately ripped (confidence 9) [1694661E] (AR v2)
Track 8 accurately ripped (confidence 9) [EC885A77] (AR v2)
Track 9 accurately ripped (confidence 9) [BCB7391D] (AR v2)
Track 10 accurately ripped (confidence 9) [2C760BBD] (AR v2)
Track 11 accurately ripped (confidence 9) [74829D1C] (AR v2)
All tracks accurately ripped
End of status report
---- CUETools DB Plugin V2.1.6
[CTDB TOCID: DV4_1O1rG8HO2doMbevrhDayEG4-] found
Submit result: DV4_1O1rG8HO2doMbevrhDayEG4- has been confirmed
Track | CTDB Status
1 | (7/7) Accurately ripped
2 | (7/7) Accurately ripped
3 | (7/7) Accurately ripped
4 | (7/7) Accurately ripped
5 | (7/7) Accurately ripped
6 | (7/7) Accurately ripped
7 | (7/7) Accurately ripped
8 | (7/7) Accurately ripped
9 | (7/7) Accurately ripped
10 | (7/7) Accurately ripped
11 | (7/7) Accurately ripped
==== Log checksum 47E16A86FD00F882D898A9A8EA44E5619892A4FC2AB6661D507A8153CE25EE6E ====
Содержание индексной карты (.CUE)
REM GENRE Classical
REM DATE 2011
REM DISCID 880E450B
REM COMMENT "ExactAudioCopy v1.3"
CATALOG 5099990992421
PERFORMER "Royal Philharmonic Orchestra"
TITLE "Sir Thomas Beecham - English Music (CD5)"
REM COMPOSER "Frederick Delius"
FILE "CD5.Flac" WAVE
TRACK 01 AUDIO
TITLE "Scene 5: The Fair"
PERFORMER "Royal Philharmonic Orchestra"
REM COMPOSER "Frederick Delius"
ISRC GBAYC9201792
INDEX 01 00:00:00
TRACK 02 AUDIO
TITLE "The Walk to the Paradise Garden"
PERFORMER "Royal Philharmonic Orchestra"
REM COMPOSER "Frederick Delius"
ISRC GBAYC9201793
INDEX 01 08:10:27
TRACK 03 AUDIO
TITLE "Scene 6: The Paradise Garden"
PERFORMER "Royal Philharmonic Orchestra"
REM COMPOSER "Frederick Delius"
ISRC GBAYC9201794
INDEX 01 16:48:65
TRACK 04 AUDIO
TITLE "Sea Drift: Once Paumanok"
PERFORMER "Royal Philharmonic Orchestra"
REM COMPOSER "Frederick Delius"
ISRC GBAYC9201778
INDEX 00 37:54:30
INDEX 01 38:05:12
TRACK 05 AUDIO
TITLE "Shine! Shine! Shine!"
PERFORMER "Royal Philharmonic Orchestra"
REM COMPOSER "Frederick Delius"
ISRC GBAYC9201779
INDEX 01 41:21:07
TRACK 06 AUDIO
TITLE "Till of a Sudden"
PERFORMER "Royal Philharmonic Orchestra"
REM COMPOSER "Frederick Delius"
ISRC GBAYC9201780
INDEX 01 42:40:37
TRACK 07 AUDIO
TITLE "Blow! Blow! Blow!"
PERFORMER "Royal Philharmonic Orchestra"
REM COMPOSER "Frederick Delius"
ISRC GBAYC9201781
INDEX 01 45:01:07
TRACK 08 AUDIO
TITLE "Yes my Brother, I Know"
PERFORMER "Royal Philharmonic Orchestra"
REM COMPOSER "Frederick Delius"
ISRC GBAYC9201782
INDEX 01 47:04:45
TRACK 09 AUDIO
TITLE "O Rising stars!"
PERFORMER "Royal Philharmonic Orchestra"
REM COMPOSER "Frederick Delius"
ISRC GBAYC9201783
INDEX 01 50:22:70
TRACK 10 AUDIO
TITLE "O reckless despairing carols"
PERFORMER "Royal Philharmonic Orchestra"
REM COMPOSER "Frederick Delius"
ISRC GBAYC9201784
INDEX 01 52:02:70
TRACK 11 AUDIO
TITLE "O past! O happy life!"
PERFORMER "Royal Philharmonic Orchestra"
REM COMPOSER "Frederick Delius"
ISRC GBAYC9201785
INDEX 01 58:00:12
CD6
Edward German
[01] Gypsy Suite: Valse melancolique (Lonely Life)
[02] Allegro di molto (The Dance)
[03] Menuetto (Love Duet)
[04] Tarantella (The Revel)
Granville Bantock
[05] Fifine at the Fair: Part 1
[06] Part 2
Arnold Bax
[07] The Garden of Fand
Lord Berners
[08] The Triumph of Nepptune: Schottische
[09] Hornpipe
[10] Polka
[11] Harlequinade
[12] Dance of the Fairy Princess
[13] Intermezzo (Sunday Morning)
[14] Apotheosis of Neptune
London Philharmonic Orchestra
Royal Philharmonic Orchestra [5-7]
Лог создания рипа
Exact Audio Copy V1.3 from 2. September 2016
EAC extraction logfile from 4. February 2018, 13:29
Royal Philharmonic Orchestra / Sir Thomas Beecham - English Music (CD6)
Used drive : TEAC CD-W540E Adapter: 1 ID: 2
Read mode : Secure
Utilize accurate stream : Yes
Defeat audio cache : Yes
Make use of C2 pointers : No
Read offset correction : 686
Overread into Lead-In and Lead-Out : No
Fill up missing offset samples with silence : Yes
Delete leading and trailing silent blocks : No
Null samples used in CRC calculations : Yes
Used interface : Native Win32 interface for Win NT & 2000
Used output format : User Defined Encoder
Selected bitrate : 32 kBit/s
Quality : High
Add ID3 tag : No
Command line compressor : C:\Program Files (x86)\Exact Audio Copy\Flac\flac.exe
Additional command line options : -T "COMMENT=CD-rip by el coronel" -8 -V %source%
TOC of the extracted CD
Track | Start | Length | Start sector | End sector
---------------------------------------------------------
1 | 0:00.00 | 4:35.60 | 0 | 20684
2 | 4:35.60 | 2:35.58 | 20685 | 32367
3 | 7:11.43 | 4:25.40 | 32368 | 52282
4 | 11:37.08 | 4:21.73 | 52283 | 71930
5 | 15:59.06 | 17:08.16 | 71931 | 149046
6 | 33:07.22 | 15:51.59 | 149047 | 220430
7 | 48:59.06 | 16:46.32 | 220431 | 295912
8 | 65:45.38 | 2:09.45 | 295913 | 305632
9 | 67:55.08 | 1:32.20 | 305633 | 312552
10 | 69:27.28 | 2:40.65 | 312553 | 324617
11 | 72:08.18 | 1:14.57 | 324618 | 330224
12 | 73:23.00 | 2:04.56 | 330225 | 339580
13 | 75:27.56 | 1:53.63 | 339581 | 348118
14 | 77:21.44 | 2:35.10 | 348119 | 359753
Range status and errors
Selected range
Filename Q:\Music\Sir Thomas Beecham - English Music\CD6.wav
Peak level 100.0 %
Extraction speed 8.0 X
Range quality 99.9 %
Test CRC 6CE039EC
Copy CRC 6CE039EC
Copy OK
No errors occurred
AccurateRip summary
Track 1 accurately ripped (confidence 7) [A280CD2F] (AR v2)
Track 2 accurately ripped (confidence 7) [0BBB9D6F] (AR v2)
Track 3 accurately ripped (confidence 7) [F67BCE09] (AR v2)
Track 4 accurately ripped (confidence 7) [3D86B793] (AR v2)
Track 5 accurately ripped (confidence 7) [1F28C5E1] (AR v2)
Track 6 accurately ripped (confidence 7) [ABA23AC2] (AR v2)
Track 7 accurately ripped (confidence 7) [21069193] (AR v2)
Track 8 accurately ripped (confidence 7) [189F7FCF] (AR v2)
Track 9 accurately ripped (confidence 7) [9F734F3C] (AR v2)
Track 10 accurately ripped (confidence 7) [40E85D8B] (AR v2)
Track 11 accurately ripped (confidence 7) [FD328894] (AR v2)
Track 12 accurately ripped (confidence 7) [689106AD] (AR v2)
Track 13 accurately ripped (confidence 7) [6C1D65F9] (AR v2)
Track 14 accurately ripped (confidence 7) [2BB8F075] (AR v2)
All tracks accurately ripped
End of status report
---- CUETools DB Plugin V2.1.6
[CTDB TOCID: vr4uo3PaoDb8eAqncGCX6OYoHRY-] found
Submit result: vr4uo3PaoDb8eAqncGCX6OYoHRY- has been confirmed
Track | CTDB Status
1 | (7/7) Accurately ripped
2 | (7/7) Accurately ripped
3 | (7/7) Accurately ripped
4 | (7/7) Accurately ripped
5 | (7/7) Accurately ripped
6 | (7/7) Accurately ripped
7 | (7/7) Accurately ripped
8 | (7/7) Accurately ripped
9 | (7/7) Accurately ripped
10 | (7/7) Accurately ripped
11 | (7/7) Accurately ripped
12 | (7/7) Accurately ripped
13 | (7/7) Accurately ripped
14 | (7/7) Accurately ripped
==== Log checksum 6311F6CF023A896254A9C351B0335D9CF8184148CB653DD88258BC29BF818B50 ====
Содержание индексной карты (.CUE)
REM GENRE Classical
REM DATE 2011
REM DISCID E812BC0E
REM COMMENT "ExactAudioCopy v1.3"
CATALOG 5099990992629
PERFORMER "Royal Philharmonic Orchestra"
TITLE "Sir Thomas Beecham - English Music (CD6)"
REM COMPOSER ""
FILE "CD6.Flac" WAVE
TRACK 01 AUDIO
TITLE "Edward German - Gypsy Suite: Valse melancolique (Lonely Life)"
PERFORMER "London Philharmonic Orchestra"
REM COMPOSER ""
ISRC GBAYC1002060
INDEX 01 00:00:00
TRACK 02 AUDIO
TITLE "Allegro di molto (The Dance) {London Philharmonic Orchestra, 1956}"
PERFORMER "London Philharmonic Orchestra"
REM COMPOSER ""
ISRC GBAYC1002061
INDEX 01 04:35:60
TRACK 03 AUDIO
TITLE "Menuetto (Love Duet)"
PERFORMER "London Philharmonic Orchestra"
REM COMPOSER ""
ISRC GBAYC1002062
INDEX 01 07:11:43
TRACK 04 AUDIO
TITLE "Tarantella (The Revel)"
PERFORMER "London Philharmonic Orchestra"
REM COMPOSER ""
ISRC GBAYC1002063
INDEX 01 11:37:08
TRACK 05 AUDIO
TITLE "Granville Bantock - Fifine at the Fair: Part 1"
PERFORMER "Royal Philharmonic Orchestra"
REM COMPOSER ""
ISRC GBAYC9105448
INDEX 00 15:58:24
INDEX 01 15:59:06
TRACK 06 AUDIO
TITLE "Part 2"
PERFORMER "Royal Philharmonic Orchestra"
REM COMPOSER ""
ISRC GBAYC9105449
INDEX 01 33:07:22
TRACK 07 AUDIO
TITLE "Arnold Bax - The Garden of Fand"
PERFORMER "Royal Philharmonic Orchestra"
REM COMPOSER ""
ISRC GBAYC9105458
INDEX 00 48:57:00
INDEX 01 48:59:06
TRACK 08 AUDIO
TITLE "Lord Berners - The Triumph of Nepptune: Schottische"
PERFORMER "London Philharmonic Orchestra"
REM COMPOSER ""
ISRC GBAYC9105453
INDEX 00 65:43:69
INDEX 01 65:45:38
TRACK 09 AUDIO
TITLE "Hornpipe"
PERFORMER "London Philharmonic Orchestra"
REM COMPOSER ""
ISRC GBAYC9105456
INDEX 01 67:55:08
TRACK 10 AUDIO
TITLE "Polka"
PERFORMER "London Philharmonic Orchestra"
REM COMPOSER ""
ISRC GBAYC9105455
INDEX 01 69:27:28
TRACK 11 AUDIO
TITLE "Harlequinade"
PERFORMER "London Philharmonic Orchestra"
REM COMPOSER ""
ISRC GBAYC9105451
INDEX 01 72:08:18
TRACK 12 AUDIO
TITLE "Dance of the Fairy Princess"
PERFORMER "London Philharmonic Orchestra"
REM COMPOSER ""
ISRC GBAYC9105452
INDEX 01 73:23:00
TRACK 13 AUDIO
TITLE "Intermezzo (Sunday Morning)"
PERFORMER "London Philharmonic Orchestra"
REM COMPOSER ""
ISRC GBAYC9105454
INDEX 00 75:27:54
INDEX 01 75:27:56
TRACK 14 AUDIO
TITLE "Apotheosis of Neptune"
PERFORMER "London Philharmonic Orchestra"
REM COMPOSER ""
ISRC GBAYC9105457
INDEX 01 77:21:44
Исполнители:
Sir Thomas Beecham - conductor
Download
Для скачивания .torrent файлов необходима регистрация
Сайт не распространяет и не хранит электронные версии произведений, а лишь предоставляет доступ к создаваемому пользователями каталогу ссылок на торрент-файлы, которые содержат только списки хеш-сумм
[Профиль]  [ЛС] 
 
Ответить
Loading...
Error