Прогулка по Калининградскому взморью (Игорь Чернышов) [2013, документальный, HDTV 1080i]

Страницы:  1

Ответить
Автор
Сообщение

karatak1

Стаж: 9 лет 2 месяца

Сообщений: 581


karatak1 · 15-Янв-18 16:54 (8 месяцев назад, ред. 30-Янв-18 17:15)

Прогулка по Калининградскому взморью
Год выпуска: 2013
Страна: Россия
Студия: RTG TV
Жанр: документальный
Продолжительность: 00:23:11
Перевод: Не требуется
Режиссер: Игорь Чернышов
Описание: Юго-восточное побережье Балтики. Море, два пресноводных залива, целебный воздух, разнообразие природных ландшафтов и умеренный климат. Курорты Калининградской области дают возможность не только отдохнуть, но и поправить здоровье. Светлогорск, Зеленоградск и поселок Янтарный привлекают гостей круглый год.
Тип релиза: HDTV 1080i
Контейнер: TS
Видео: AVC, PAL, 1920x1080, 16x9, 7067 Кbps, 25fps
Аудио: Русский, MP2, 2Ch, 48KHz, 192kbps
MediaInfo
Общее
Идентификатор : 1 (0x1)
Полное имя : H:\Прогулка по Калининградскому взморью (RTGHD2013).ts
Формат : MPEG-TS
Размер файла : 1,24 Гбайт
Продолжительность : 23 м. 11 с.
Режим общего битрейта : Переменный
Общий поток : 7638 Кбит/сек
Видео
Идентификатор : 256 (0x100)
Идентификатор меню : 1 (0x1)
Формат : AVC
Формат/Информация : Advanced Video Codec
Профиль формата : [email protected]
Параметр CABAC формата : Да
Параметр ReFrames формата : 4 кадра
Идентификатор кодека : 27
Продолжительность : 23 м. 11 с.
Битрейт : 7067 Кбит/сек
Ширина : 1920 пикселей
Высота : 1080 пикселей
Соотношение сторон : 16:9
Частота кадров : 25,000 кадров/сек
Цветовое пространство : YUV
Субдискретизация насыщенности : 4:2:0
Битовая глубина : 8 бит
Тип развёртки : Чересстрочная
Метод сохранения типа развёртки : Раздельные поля
Порядок развёртки : Верхнее поле первое
Бит/(Пиксели*Кадры) : 0.136
Размер потока : 1,14 Гбайт (93%)
Цветовой диапазон : Limited
Основные цвета : BT.709
Характеристики трансфера : BT.709
Коэффициенты матрицы : BT.709
Аудио
Идентификатор : 302 (0x12E)
Идентификатор меню : 1 (0x1)
Формат : MPEG Audio
Версия формата : Version 1
Профиль формата : Layer 2
Идентификатор кодека : 3
Продолжительность : 23 м. 11 с.
Вид битрейта : Постоянный
Битрейт : 192 Кбит/сек
Каналы : 2 канала
Частота : 48,0 КГц
Метод сжатия : С потерями
Размер потока : 31,8 Мбайт (3%)
Язык : Russian
Скриншоты
Download
Для скачивания .torrent файлов необходима регистрация
Сайт не распространяет и не хранит электронные версии произведений, а лишь предоставляет доступ к создаваемому пользователями каталогу ссылок на торрент-файлы, которые содержат только списки хеш-сумм
[Профиль]  [ЛС] 

anbelk27

Admin gray

Стаж: 9 лет 5 месяцев

Сообщений: 6022

anbelk27 · 27-Янв-18 23:11 (спустя 12 дней)

[Цитировать] 

karatak1
Скриншоты замените пожалуйста, они должны быть в png формате
[Профиль]  [ЛС] 
 
Ответить
Loading...
Error