Тайны египетских пирамид (1-2 серии) / Lost Secrets of the Pyramid (Гвин Уильямс / Gwin Williams) [2017, Документальный, история, исследования, HDTVRip 720p]

Страницы:  1

Ответить
Автор
Сообщение

kyba62

Top Bonus 07* 100TB

Стаж: 10 лет 4 месяца

Сообщений: 609

kyba62 · 30-Дек-17 10:00 (8 месяцев назад, ред. 30-Дек-17 11:09)

Тайны египетских пирамид / Lost Secrets of the Pyramid
Год выпуска: 2017
Страна: Великобритания, Канада
Студия: Windfall Films, CMF, Argonon, Alibi Entertainment
Жанр: Документальный, история, исследования
Продолжительность: 2x ~00:50:00
Перевод: Студийный (одноголосый закадровый)
Доп. инфо о переводе: SDI Media
Режиссер: Гвин Уильямс / Gwin Williams
Описание: Присоединяйтесь к археологам, которые расшифровывают дневник строителя пирамид возрастом 4500 лет. Смогут ли они воссоздать древнюю лодку и узнать, как строилась Великая пирамида и как они перевозили каменные блоки, используя лишь мускульную силу?
Сэмпл: https://www.sendspace.com/file/6046l1
Тип релиза: HDTVRip 720p
Контейнер: MKV
Видео: 1280x720 (16:9), 25 fps, AVC (x264), [email protected], 4200 kbps, 25fps, 0.182 bit/pixel
Аудио: Русский 48 kHz, AC3 Dolby Digital, 2/0 (L,R) ch, ~128.00 kbps avg
Аудио 2: Английский 48 kHz, AC3 Dolby Digital, 2/0 (L,R) ch, ~128.00 kbps avg
MediaInfo
General
Unique ID : 249387821137369093838344599156729630287 (0xBB9E58E55619DEB6BE25CE1DC13CCE4F)
Complete name : F:\Наладки\Тайны Египетских пирамид\Тайны Египетских пирамид 1_720p.mkv
Format : Matroska
Format version : Version 4 / Version 2
File size : 1.56 GiB
Duration : 49 min 59 s
Overall bit rate : 4 459 kb/s
Encoded date : UTC 2017-12-30 03:33:23
Writing application : mkvmerge v6.6.0 ('The Edge Of The In Between') built on Dec 1 2013 17:55:00
Writing library : libebml v1.3.0 + libmatroska v1.4.1
Video
ID : 1
Format : AVC
Format/Info : Advanced Video Codec
Format profile : [email protected]
Format settings : CABAC / 9 Ref Frames
Format settings, CABAC : Yes
Format settings, ReFrames : 9 frames
Codec ID : V_MPEG4/ISO/AVC
Duration : 49 min 59 s
Bit rate : 4 200 kb/s
Width : 1 280 pixels
Height : 720 pixels
Display aspect ratio : 16:9
Frame rate mode : Constant
Frame rate : 25.000 FPS
Color space : YUV
Chroma subsampling : 4:2:0
Bit depth : 8 bits
Scan type : Progressive
Bits/(Pixel*Frame) : 0.182
Stream size : 1.44 GiB (92%)
Writing library : x264 core 152 r2851 ba24899
Encoding settings : cabac=1 / ref=9 / deblock=1:-3:-3 / analyse=0x3:0x133 / me=umh / subme=9 / psy=1 / psy_rd=1.00:0.00 / mixed_ref=1 / me_range=32 / chroma_me=1 / trellis=2 / 8x8dct=1 / cqm=0 / deadzone=21,11 / fast_pskip=1 / chroma_qp_offset=-2 / threads=12 / lookahead_threads=2 / sliced_threads=0 / nr=0 / decimate=0 / interlaced=0 / bluray_compat=0 / constrained_intra=0 / bframes=9 / b_pyramid=2 / b_adapt=2 / b_bias=0 / direct=3 / weightb=1 / open_gop=0 / weightp=2 / keyint=250 / keyint_min=25 / scenecut=40 / intra_refresh=0 / rc_lookahead=50 / rc=2pass / mbtree=1 / bitrate=4200 / ratetol=1.0 / qcomp=0.60 / qpmin=0 / qpmax=69 / qpstep=4 / cplxblur=20.0 / qblur=0.5 / ip_ratio=1.40 / aq=1:1.00
Language : English
Default : Yes
Forced : No
Audio #1
ID : 2
Format : AC-3
Format/Info : Audio Coding 3
Codec ID : A_AC3
Duration : 49 min 59 s
Bit rate mode : Constant
Bit rate : 128 kb/s
Channel(s) : 2 channels
Channel positions : Front: L R
Sampling rate : 48.0 kHz
Frame rate : 31.250 FPS (1536 SPF)
Bit depth : 16 bits
Compression mode : Lossy
Stream size : 45.8 MiB (3%)
Language : Russian
Service kind : Complete Main
Default : Yes
Forced : Yes
Audio #2
ID : 3
Format : AC-3
Format/Info : Audio Coding 3
Codec ID : A_AC3
Duration : 49 min 59 s
Bit rate mode : Constant
Bit rate : 128 kb/s
Channel(s) : 2 channels
Channel positions : Front: L R
Sampling rate : 48.0 kHz
Frame rate : 31.250 FPS (1536 SPF)
Bit depth : 16 bits
Compression mode : Lossy
Stream size : 45.8 MiB (3%)
Language : English
Service kind : Complete Main
Default : No
Forced : No
Download
Для скачивания .torrent файлов необходима регистрация
Сайт не распространяет и не хранит электронные версии произведений, а лишь предоставляет доступ к создаваемому пользователями каталогу ссылок на торрент-файлы, которые содержат только списки хеш-сумм
[Профиль]  [ЛС] 
 
Ответить
Loading...
Error