Великий Новгород. У истоков Российской государственности [2012, Документальный, HDTV 1080i]

Страницы:  1

Ответить
Автор
Сообщение

Gizmo3k

Стаж: 12 лет 9 месяцев

Сообщений: 204


Gizmo3k · 07-Апр-16 22:15 (2 года 2 месяца назад)

Великий Новгород. У истоков Российской государственности
Год выпуска: 2012
Страна: Россия
Жанр: Документальный
Продолжительность: 00:41:03
Перевод: Не требуется
Описание: Согласно древним летописям, в 862 году славянские племена, жившие вокруг озера Ильмень, объединились и призвали править своими землями варяжского князя Рюрика. Споры о том, кем был Рюрик на самом деле и действительно ли местные племена добровольно призвали его на царство, ведутся до сих пор. Но зарождением Российского государства уже не одну сотню лет принято считать именно это событие. Первым городом, где начал княжить Рюрик - представитель династии русских царей, правивших затем на Руси около 700 лет - стал Великий Новгород. С 11 века это был крупнейший центр древнерусской цивилизации, который сконцентрировал все лучшее, что в ней было: архитектуру, живопись, социальное и политическое устройство. С 12 века Новгород отстаивает Русь в борьбе с Ливонским орденом и скандинавами. А став в 15 веке частью Московского княжества, эти земли дали толчок к развитию нового мощного государства - России. В воображении поэтов и писателей Великий Новгород предстает воплощением вольности и республиканских свобод. Экономисты восторгаются тем, как процветали здесь торговля и ремесла. Об истории Великого Новгорода - в новом фильме телеканала RTG TV.
Доп. информация: IPTV Remux (запись потока без перекодирования)
Тип релиза: HDTV 1080i
Контейнер: TS
Видео: AVC H.264, 1920x1080i (16:9), 25 fps, 6091 kbps, 0.117 bits/pixel
Аудио: MPEG Audio, 2 channels, 160 kbps, 48KHz
MediaInfo
General
ID : 1 (0x1)
Complete name : Великий Новгород. У истоков Российской государственности.ts
Format : MPEG-TS
File size : 1.89 GiB
Duration : 41mn 3s
Overall bit rate mode : Variable
Overall bit rate : 6 578 Kbps
Video
ID : 69 (0x45)
Menu ID : 1 (0x1)
Format : AVC
Format/Info : Advanced Video Codec
Format profile : [email protected]
Format settings, CABAC : Yes
Format settings, ReFrames : 3 frames
Codec ID : 27
Duration : 41mn 3s
Bit rate : 6 091 Kbps
Width : 1 920 pixels
Height : 1 080 pixels
Display aspect ratio : 16:9
Frame rate : 25.000 fps
Standard : Component
Color space : YUV
Chroma subsampling : 4:2:0
Bit depth : 8 bits
Scan type : Interlaced
Scan order : Top Field First
Bits/(Pixel*Frame) : 0.117
Stream size : 1.75 GiB (93%)
Color primaries : BT.709
Transfer characteristics : BT.709
Matrix coefficients : BT.709
Audio
ID : 68 (0x44)
Menu ID : 1 (0x1)
Format : MPEG Audio
Format version : Version 1
Format profile : Layer 2
Codec ID : 3
Duration : 41mn 3s
Bit rate mode : Constant
Bit rate : 160 Kbps
Channel(s) : 2 channels
Sampling rate : 48.0 KHz
Compression mode : Lossy
Stream size : 47.0 MiB (2%)
Language : Russian
Скриншоты
Download
Для скачивания .torrent файлов необходима регистрация
Сайт не распространяет и не хранит электронные версии произведений, а лишь предоставляет доступ к создаваемому пользователями каталогу ссылок на торрент-файлы, которые содержат только списки хеш-сумм
[Профиль]  [ЛС] 

royalstag

Top Seed 05* 640r

Стаж: 8 лет 1 месяц

Сообщений: 1696

royalstag · 03-Фев-18 15:19 (спустя 1 год 9 месяцев)

[Цитировать] 

IPTVRip
[Профиль]  [ЛС] 
 
Ответить
Loading...
Error