(Pop/Latin) [CDM] Ricky Martin - Jaleo (Maxi CD Single) - 2003, FLAC (tracks+.cue), lossless

Страницы:  1

Ответить
Автор
Сообщение

Austrian Cat

Стаж: 5 лет 9 месяцев

Сообщений: 721

Austrian Cat · 06-Окт-15 09:43 (2 года 7 месяцев назад, ред. 08-Окт-15 09:04)

Ricky Martin - Jaleo
Жанр: Pop/Latin
Носитель: CDM
Страна-производитель диска (релиза): Europe
Год издания: 2003
Издатель (лейбл): Columbia
Номер по каталогу: COL 673663 2
Аудиокодек: FLAC (*.flac)
Тип рипа: tracks+.cue
Битрейт аудио: lossless
Продолжительность: 00:14:51
Источник (релизер): own rip
Наличие сканов в содержимом раздачи: да (front, back & CD)

1. Ricky Martin - Jaleo (Spanglish Version) (3:43)
2. Ricky Martin - Jaleo (Spanish Version) (3:43)
3. Ricky Martin - Jaleo (Pablo Flores Spanglish Radio Edit Remix) (4:16)
4. Ricky Martin - Jaleo (Roger Sanchez Spanglish Radio Edit Remix) (3:09)
Лог создания рипа
Exact Audio Copy V1.0 beta 3 from 29. August 2011
EAC extraction logfile from 6. October 2015, 7:46
Ricky Martin / Jaleo (CD Single)
Used drive : TSSTcorpCDDVDW SN-208BB Adapter: 0 ID: 0
Read mode : Secure
Utilize accurate stream : Yes
Defeat audio cache : Yes
Make use of C2 pointers : No
Read offset correction : 6
Overread into Lead-In and Lead-Out : No
Fill up missing offset samples with silence : Yes
Delete leading and trailing silent blocks : No
Null samples used in CRC calculations : Yes
Used interface : Native Win32 interface for Win NT & 2000
Gap handling : Appended to previous track
Used output format : User Defined Encoder
Selected bitrate : 1024 kBit/s
Quality : High
Add ID3 tag : No
Command line compressor : C:\Program Files (x86)\Exact Audio Copy\Flac\flac.exe
Additional command line options : -8 -V -T "artist=%artist%" -T "title=%title%" -T "album=%albumtitle%" -T "date=%year%" -T "tracknumber=%tracknr%" -T "genre=%genre%" %source%
TOC of the extracted CD
Track | Start | Length | Start sector | End sector
---------------------------------------------------------
1 | 0:00.00 | 3:43.38 | 0 | 16762
2 | 3:43.38 | 3:43.04 | 16763 | 33491
3 | 7:26.42 | 4:15.64 | 33492 | 52680
4 | 11:42.31 | 3:08.39 | 52681 | 66819
Track 1
Filename E:\Torrent\Ricky Martin - Jaleo (Maxi CD Single)\01 Jaleo (Spanglish Version).wav
Pre-gap length 0:00:02.00
Peak level 100.0 %
Extraction speed 1.7 X
Track quality 100.0 %
Test CRC 1EABB308
Copy CRC 1EABB308
Accurately ripped (confidence 3) [C525E35D] (AR v2)
Copy OK
Track 2
Filename E:\Torrent\Ricky Martin - Jaleo (Maxi CD Single)\02 Jaleo (Spanish Version).wav
Pre-gap length 0:00:02.00
Peak level 100.0 %
Extraction speed 1.9 X
Track quality 100.0 %
Test CRC 16B691C0
Copy CRC 16B691C0
Accurately ripped (confidence 3) [2D021C61] (AR v2)
Copy OK
Track 3
Filename E:\Torrent\Ricky Martin - Jaleo (Maxi CD Single)\03 Jaleo (Pablo Flores Spanglish Radio Edit Remix).wav
Pre-gap length 0:00:02.00
Peak level 100.0 %
Extraction speed 2.1 X
Track quality 100.0 %
Test CRC 401B28E8
Copy CRC 401B28E8
Accurately ripped (confidence 3) [A69F8DCC] (AR v2)
Copy OK
Track 4
Filename E:\Torrent\Ricky Martin - Jaleo (Maxi CD Single)\04 Jaleo (Roger Sanchez Spanglish Radio Edit Remix).wav
Pre-gap length 0:00:02.00
Peak level 100.0 %
Extraction speed 2.1 X
Track quality 100.0 %
Test CRC 0CBD7209
Copy CRC 0CBD7209
Accurately ripped (confidence 3) [490413C5] (AR v2)
Copy OK
All tracks accurately ripped
No errors occurred
End of status report
==== Log checksum 9CCD69BDEB636817D4196C578B51E4C95D83E6D2344B1A299B7C817105C15EBE ====
Содержание индексной карты (.CUE)
REM GENRE Pop
REM DATE 2003
REM DISCID 26037A04
REM COMMENT "ExactAudioCopy v1.0b3"
CATALOG 5099767366325
PERFORMER "Ricky Martin"
TITLE "Jaleo (CD Single)"
FILE "01 Jaleo (Spanglish Version).wav" WAVE
TRACK 01 AUDIO
TITLE "Jaleo (Spanglish Version)"
PERFORMER "Ricky Martin"
ISRC NLB630300096
FLAGS DCP
INDEX 01 00:00:00
TRACK 02 AUDIO
TITLE "Jaleo (Spanish Version)"
PERFORMER "Ricky Martin"
ISRC NLB630300083
FLAGS DCP
INDEX 00 03:41:38
FILE "02 Jaleo (Spanish Version).wav" WAVE
INDEX 01 00:00:00
TRACK 03 AUDIO
TITLE "Jaleo (Pablo Flores Spanglish Radio Edit Remix)"
PERFORMER "Ricky Martin"
ISRC NLB630300142
FLAGS DCP
INDEX 00 03:41:04
FILE "03 Jaleo (Pablo Flores Spanglish Radio Edit Remix).wav" WAVE
INDEX 01 00:00:00
TRACK 04 AUDIO
TITLE "Jaleo (Roger Sanchez Spanglish Radio Edit Remix)"
PERFORMER "Ricky Martin"
ISRC NLB630300143
FLAGS DCP
INDEX 00 04:13:64
FILE "04 Jaleo (Roger Sanchez Spanglish Radio Edit Remix).wav" WAVE
INDEX 01 00:00:00
Download
Для скачивания .torrent файлов необходима регистрация
Сайт не распространяет и не хранит электронные версии произведений, а лишь предоставляет доступ к создаваемому пользователями каталогу ссылок на торрент-файлы, которые содержат только списки хеш-сумм
[Профиль]  [ЛС] 
 
Ответить
Loading...
Error