(Pop) [CD] Ricky Martin - A Quien Quiera Escuchar (Deluxe Edition) - 2015, FLAC (tracks+.cue), lossless

Страницы:  1

Ответить
Автор
Сообщение

papa1954

Top Seed 09* 10240r

Стаж: 11 лет 2 месяца

Сообщений: 15352

papa1954 · 01-Апр-15 18:50 (3 года 1 месяц назад)

Ricky Martin / A Quien Quiera Escuchar (Deluxe Edition)
Жанр: Pop
Носитель: CD
Год издания: 2015
Издатель (лейбл): Sony Music Latin
Номер по каталогу: 88875053512
Аудиокодек: FLAC (*.flac)
Тип рипа: tracks+.cue
Битрейт аудио: lossless
Продолжительность: 49:29
Источник (релизер): ruskaval
Наличие сканов в содержимом раздачи: да
Треклист:
01. Adios (4:00)
02. Disparo Al Corazon (3:50)
03. Isla Bella (4:56)
04. Perdoname (4:01)
05. Naufrago (3:26)
06. La Mordidita (Feat. Yotuel) (3:32)
07. Cuanto Me Acuerdo De Ti (3:31)
08. Matame Otra Vez (4:03)
09. Nada (3:25)
10. A Quien Quiera Escuchar (4:10)
11. Naufrago (Acoustic Version) (3:20)
12. Matame Otra Vez (Acoustic Version) (4:03)
13. Nada (Dharmik Version) (3:11)
 
Лог создания рипа
Exact Audio Copy V1.0 beta 4 from 7. December 2014
EAC extraction logfile from 20. March 2015, 18:20
Ricky Martin / A Quien Quiera Escuchar (Deluxe Edition)
Used drive : HL-DT-STDVD+-RW GT30N Adapter: 1 ID: 0
Read mode : Secure
Utilize accurate stream : Yes
Defeat audio cache : Yes
Make use of C2 pointers : No
Read offset correction : 103
Overread into Lead-In and Lead-Out : No
Fill up missing offset samples with silence : Yes
Delete leading and trailing silent blocks : No
Null samples used in CRC calculations : Yes
Used interface : Native Win32 interface for Win NT & 2000
Gap handling : Appended to previous track
Used output format : User Defined Encoder
Selected bitrate : 1024 kBit/s
Quality : High
Add ID3 tag : No
Command line compressor : D:\ripflac\flac.exe
Additional command line options : -8 -V -T "ARTIST=%artist%" -T "TITLE=%title%" -T "ALBUM=%albumtitle%" -T "DATE=%year%" -T "TRACKNUMBER=%tracknr%" -T "TOTALTRACKS=%numtracks%" -T "GENRE=%genre%" -T "ALBUMARTIST=%albumartist%" -T "ALBUM ARTIST=%albumartist%" -T "COMMENT=EAC Secure Mode, Test & Copy, AccurateRip, FLAC -8" %source%
TOC of the extracted CD
Track | Start | Length | Start sector | End sector
---------------------------------------------------------
1 | 0:00.00 | 4:00.07 | 0 | 18006
2 | 4:00.07 | 3:50.26 | 18007 | 35282
3 | 7:50.33 | 4:55.50 | 35283 | 57457
4 | 12:46.08 | 4:00.49 | 57458 | 75506
5 | 16:46.57 | 3:26.22 | 75507 | 90978
6 | 20:13.04 | 3:31.51 | 90979 | 106854
7 | 23:44.55 | 3:31.10 | 106855 | 122689
8 | 27:15.65 | 4:03.36 | 122690 | 140950
9 | 31:19.26 | 3:25.29 | 140951 | 156354
10 | 34:44.55 | 4:10.20 | 156355 | 175124
11 | 38:55.00 | 3:20.05 | 175125 | 190129
12 | 42:15.05 | 4:02.38 | 190130 | 208317
13 | 46:17.43 | 3:11.00 | 208318 | 222642
Track 1
Filename D:\EAC Rips\XBT Rips\01 - Adios.wav
Pre-gap length 0:00:02.00
Peak level 99.1 %
Extraction speed 1.2 X
Track quality 100.0 %
Test CRC 2EA42583
Copy CRC 2EA42583
Track not present in AccurateRip database
Copy OK
Track 2
Filename D:\EAC Rips\XBT Rips\02 - Disparo Al Corazon.wav
Pre-gap length 0:00:00.41
Peak level 99.5 %
Extraction speed 1.3 X
Track quality 100.0 %
Test CRC 5FB57148
Copy CRC 5FB57148
Track not present in AccurateRip database
Copy OK
Track 3
Filename D:\EAC Rips\XBT Rips\03 - Isla Bella.wav
Peak level 99.6 %
Extraction speed 1.5 X
Track quality 100.0 %
Test CRC A4D6B17F
Copy CRC A4D6B17F
Track not present in AccurateRip database
Copy OK
Track 4
Filename D:\EAC Rips\XBT Rips\04 - Perdoname.wav
Peak level 99.9 %
Extraction speed 1.4 X
Track quality 99.9 %
Test CRC 7039AE76
Copy CRC 7039AE76
Track not present in AccurateRip database
Copy OK
Track 5
Filename D:\EAC Rips\XBT Rips\05 - Naufrago.wav
Peak level 99.4 %
Extraction speed 1.6 X
Track quality 100.0 %
Test CRC 1A58C1CB
Copy CRC 1A58C1CB
Track not present in AccurateRip database
Copy OK
Track 6
Filename D:\EAC Rips\XBT Rips\06 - La Mordidita (Feat. Yotuel).wav
Pre-gap length 0:00:00.52
Peak level 98.2 %
Extraction speed 1.7 X
Track quality 100.0 %
Test CRC 211D7591
Copy CRC 211D7591
Track not present in AccurateRip database
Copy OK
Track 7
Filename D:\EAC Rips\XBT Rips\07 - Cuanto Me Acuerdo De Ti.wav
Peak level 99.8 %
Extraction speed 1.6 X
Track quality 99.9 %
Test CRC A04B7898
Copy CRC A04B7898
Track not present in AccurateRip database
Copy OK
Track 8
Filename D:\EAC Rips\XBT Rips\08 - Matame Otra Vez.wav
Pre-gap length 0:00:00.56
Peak level 99.0 %
Extraction speed 2.0 X
Track quality 100.0 %
Test CRC 36BB3644
Copy CRC 36BB3644
Track not present in AccurateRip database
Copy OK
Track 9
Filename D:\EAC Rips\XBT Rips\09 - Nada.wav
Peak level 99.8 %
Extraction speed 2.0 X
Track quality 100.0 %
Test CRC 7564460C
Copy CRC 7564460C
Track not present in AccurateRip database
Copy OK
Track 10
Filename D:\EAC Rips\XBT Rips\10 - A Quien Quiera Escuchar.wav
Pre-gap length 0:00:01.12
Peak level 99.9 %
Extraction speed 2.1 X
Track quality 100.0 %
Test CRC 85670682
Copy CRC 85670682
Track not present in AccurateRip database
Copy OK
Track 11
Filename D:\EAC Rips\XBT Rips\11 - Naufrago (Acoustic Version).wav
Pre-gap length 0:00:01.03
Peak level 99.8 %
Extraction speed 2.1 X
Track quality 100.0 %
Test CRC E51567C8
Copy CRC E51567C8
Track not present in AccurateRip database
Copy OK
Track 12
Filename D:\EAC Rips\XBT Rips\12 - Matame Otra Vez (Acoustic Version).wav
Pre-gap length 0:00:00.37
Peak level 99.6 %
Extraction speed 2.2 X
Track quality 100.0 %
Test CRC 1E2A9BDB
Copy CRC 1E2A9BDB
Track not present in AccurateRip database
Copy OK
Track 13
Filename D:\EAC Rips\XBT Rips\13 - Nada (Dharmik Version).wav
Pre-gap length 0:00:01.16
Peak level 100.0 %
Extraction speed 2.2 X
Track quality 100.0 %
Test CRC D53A7EE0
Copy CRC D53A7EE0
Track not present in AccurateRip database
Copy OK
None of the tracks are present in the AccurateRip database
No errors occurred
End of status report
---- CUETools DB Plugin V2.1.4
[CTDB TOCID: AXNgPxwNKMFLNL85a1hVAqIiLfw-] found
Submit result: AXNgPxwNKMFLNL85a1hVAqIiLfw- has been confirmed
Track | CTDB Status
1 | (2/2) Accurately ripped
2 | (2/2) Accurately ripped
3 | (2/2) Accurately ripped
4 | (2/2) Accurately ripped
5 | (2/2) Accurately ripped
6 | (2/2) Accurately ripped
7 | (2/2) Accurately ripped
8 | (2/2) Accurately ripped
9 | (2/2) Accurately ripped
10 | (2/2) Accurately ripped
11 | (2/2) Accurately ripped
12 | (2/2) Accurately ripped
13 | (2/2) Accurately ripped
==== Log checksum 70556BC880E937982926019434D2587E4FD1C48D66A0097DB3A93B5483A5C3D1 ====
Содержание индексной карты (.CUE)
REM GENRE Pop
REM DATE 2015
REM DISCID B70B980D
REM COMMENT "ExactAudioCopy v1.0b4"
PERFORMER "Ricky Martin"
TITLE "A Quien Quiera Escuchar (Deluxe Edition)"
FILE "01 - Adios.wav" WAVE
TRACK 01 AUDIO
TITLE "Adios"
PERFORMER "Ricky Martin"
INDEX 01 00:00:00
TRACK 02 AUDIO
TITLE "Disparo Al Corazon"
PERFORMER "Ricky Martin"
INDEX 00 03:59:41
FILE "02 - Disparo Al Corazon.wav" WAVE
INDEX 01 00:00:00
FILE "03 - Isla Bella.wav" WAVE
TRACK 03 AUDIO
TITLE "Isla Bella"
PERFORMER "Ricky Martin"
INDEX 01 00:00:00
FILE "04 - Perdoname.wav" WAVE
TRACK 04 AUDIO
TITLE "Perdoname"
PERFORMER "Ricky Martin"
INDEX 01 00:00:00
FILE "05 - Naufrago.wav" WAVE
TRACK 05 AUDIO
TITLE "Naufrago"
PERFORMER "Ricky Martin"
INDEX 01 00:00:00
TRACK 06 AUDIO
TITLE "La Mordidita (Feat. Yotuel)"
PERFORMER "Ricky Martin"
INDEX 00 03:25:45
FILE "06 - La Mordidita (Feat. Yotuel).wav" WAVE
INDEX 01 00:00:00
FILE "07 - Cuanto Me Acuerdo De Ti.wav" WAVE
TRACK 07 AUDIO
TITLE "Cuanto Me Acuerdo De Ti"
PERFORMER "Ricky Martin"
INDEX 01 00:00:00
TRACK 08 AUDIO
TITLE "Matame Otra Vez"
PERFORMER "Ricky Martin"
INDEX 00 03:30:29
FILE "08 - Matame Otra Vez.wav" WAVE
INDEX 01 00:00:00
FILE "09 - Nada.wav" WAVE
TRACK 09 AUDIO
TITLE "Nada"
PERFORMER "Ricky Martin"
INDEX 01 00:00:00
TRACK 10 AUDIO
TITLE "A Quien Quiera Escuchar"
PERFORMER "Ricky Martin"
INDEX 00 03:24:17
FILE "10 - A Quien Quiera Escuchar.wav" WAVE
INDEX 01 00:00:00
TRACK 11 AUDIO
TITLE "Naufrago (Acoustic Version)"
PERFORMER "Ricky Martin"
INDEX 00 04:09:17
FILE "11 - Naufrago (Acoustic Version).wav" WAVE
INDEX 01 00:00:00
TRACK 12 AUDIO
TITLE "Matame Otra Vez (Acoustic Version)"
PERFORMER "Ricky Martin"
INDEX 00 03:19:43
FILE "12 - Matame Otra Vez (Acoustic Version).wav" WAVE
INDEX 01 00:00:00
TRACK 13 AUDIO
TITLE "Nada (Dharmik Version)"
PERFORMER "Ricky Martin"
INDEX 00 04:01:22
FILE "13 - Nada (Dharmik Version).wav" WAVE
INDEX 01 00:00:00
Download
Для скачивания .torrent файлов необходима регистрация
Сайт не распространяет и не хранит электронные версии произведений, а лишь предоставляет доступ к создаваемому пользователями каталогу ссылок на торрент-файлы, которые содержат только списки хеш-сумм
[Профиль]  [ЛС] 
 
Ответить
Loading...
Error