Золотой Глобус: Крит / Golden Globe: Crete (Карола Феддерсен / Carola Feddersen, Юрген Бейер / Jürgen Beier) [2011, Документальный, BDRip 720p]

Страницы:  1

Ответить
Автор
Сообщение

Aids

VIP (Заслуженный)

Стаж: 9 лет

Сообщений: 3577

Aids · 04-Фев-15 17:24 (3 года 10 месяцев назад, ред. 04-Фев-15 17:25)

Золотой Глобус: Крит / Golden Globe: Crete

Год выпуска: 2011
Страна: Германия | Komplett-Media
Жанр: Документальный
Продолжительность: 01:24:36
Перевод: Профессиональный одноголосый, DVD R5
Режиссер: Карола Феддерсен / Carola Feddersen, Юрген Бейер / Jürgen Beier
Русские субтитры: нет
Описание: Есть такая страна посреди винно-цветного моря, — Крит прекрасный, богатый, волнами отовсюду омытый, — так писал о Крите Гомер. Сказочные пляжи, кристально-чистая вода, лазурное небо и солнце, очень много солнца, — вот характерные черты острова Крит, где, по легенде, родился на свет сам Зевс-Громовержец. Почти на каждом шагу мы встречаем следы бурной истории острова. Культуру, которую называют колыбелью западной цивилизации, создали минойцы. После них наступили времена микенцев и дарийцев, а затем — римлян и византийцев, сарацинов, венецианцев и османов. Каждый из народов, владевших островом, оставил здесь следы своей культуры и традиции. Венецианские и турецкие здания украшают исторические центры самых крупных городов острова: Ираклиона, Ханьи и Ретимнона. Самая известная достопримечательность — Кносс, дворцовый комплекс, где, согласно мифу, жил царь Минос, сын Зевса. Идя по следам литературного и кино-героя, грека Зорбы, мы попадем на «Дикий Запад» Крита — полуостров Акротири. Настоящий подвиг — проход через длинное ущелье Самария. В ходе же дальнейшего путешествия мы откроем для себя идиллические деревушки, античные руины, замки и живописные монастыри, повсюду наслаждаясь деликатесами критской кухни и блаженствуя под ласковым солнцем и голубым небом.
Релиз: by DeTorquemada
Тип релиза: BDRip 720p
Контейнер: MKV
Видео: 1280x720 at 25.000 fps, [email protected], 6597 kbps
Аудио: Russian: 48 kHz/16-bit, АС3, 2.0 (L,R) ch, ~192 kbps
Аудио 2: Ukrainian: 48 kHz/16-bit, АС3, 2.0 (L,R) ch, ~192 kbps
Аудио 3: German: 48 kHz/16-bit, АС3, 2.0 (L,R) ch, ~256 kbps
Субтитры: нет
Сэмпл
Скриншоты
MediaInfo
General
Unique ID : 237268409508560647381083630643201473552 (0xB2803BC4E265CFF787ABA24B12907C10)
Complete name : D:\Фильмы\Kreta.2011.720p.BluRay.Rus.Ukr.Ger.HDCLUB.mkv
Format : Matroska
Format version : Version 4 / Version 2
File size : 4.36 GiB
Duration : 1h 24mn
Overall bit rate : 7 384 Kbps
Movie name : Create by DeTorquemada for HDCLUB
Encoded date : UTC 2014-08-13 13:57:33
Writing application : mkvmerge v7.0.0 ('Where We Going') 64bit built on Jun 9 2014 15:16:27
Writing library : libebml v1.3.0 + libmatroska v1.4.1
DURATION : 01:24:36.992000000
NUMBER_OF_FRAMES : 158656
NUMBER_OF_BYTES : 162463744
_STATISTICS_WRITING_APP : mkvmerge v7.0.0 ('Where We Going') 64bit built on Jun 9 2014 15:16:27
_STATISTICS_WRITING_DATE_UTC : 2014-08-13 13:57:33
_STATISTICS_TAGS : BPS DURATION NUMBER_OF_FRAMES NUMBER_OF_BYTES
Video
ID : 1
Format : AVC
Format/Info : Advanced Video Codec
Format profile : [email protected]
Format settings, CABAC : Yes
Format settings, ReFrames : 7 frames
Codec ID : V_MPEG4/ISO/AVC
Duration : 1h 24mn
Bit rate : 6 597 Kbps
Width : 1 280 pixels
Height : 720 pixels
Display aspect ratio : 16:9
Frame rate mode : Constant
Frame rate : 25.000 fps
Color space : YUV
Chroma subsampling : 4:2:0
Bit depth : 8 bits
Scan type : Progressive
Bits/(Pixel*Frame) : 0.286
Stream size : 3.90 GiB (89%)
Title : Золотой Глобус: Крит / Golden Globe: Kreta (2011) - Release for HDCLUB
Writing library : x264 core 138 r2358 9e941d1
Encoding settings : cabac=1 / ref=7 / deblock=1:-3:-3 / analyse=0x3:0x113 / me=umh / subme=10 / psy=1 / psy_rd=1.00:0.00 / mixed_ref=1 / me_range=48 / chroma_me=1 / trellis=2 / 8x8dct=1 / cqm=0 / deadzone=21,11 / fast_pskip=1 / chroma_qp_offset=-2 / threads=6 / lookahead_threads=1 / sliced_threads=0 / nr=0 / decimate=1 / interlaced=0 / bluray_compat=0 / constrained_intra=0 / bframes=3 / b_pyramid=2 / b_adapt=2 / b_bias=0 / direct=1 / weightb=1 / open_gop=0 / weightp=2 / keyint=250 / keyint_min=25 / scenecut=40 / intra_refresh=0 / rc_lookahead=65 / rc=crf / mbtree=0 / crf=17.0 / qcomp=0.60 / qpmin=0 / qpmax=69 / qpstep=4 / vbv_maxrate=50000 / vbv_bufsize=62500 / crf_max=0.0 / nal_hrd=none / ip_ratio=1.40 / pb_ratio=1.30 / aq=1:0.80
Language : German
Default : Yes
Forced : No
DURATION : 01:24:36.920000000
NUMBER_OF_FRAMES : 126923
NUMBER_OF_BYTES : 4278357888
_STATISTICS_WRITING_APP : mkvmerge v7.0.0 ('Where We Going') 64bit built on Jun 9 2014 15:16:27
_STATISTICS_WRITING_DATE_UTC : 2014-08-13 13:57:33
_STATISTICS_TAGS : BPS DURATION NUMBER_OF_FRAMES NUMBER_OF_BYTES
Matrix coefficients : BT.709
Audio #1
ID : 2
Format : AC-3
Format/Info : Audio Coding 3
Mode extension : CM (complete main)
Format settings, Endianness : Big
Codec ID : A_AC3
Duration : 1h 24mn
Bit rate mode : Constant
Bit rate : 192 Kbps
Channel(s) : 2 channels
Channel positions : Front: L R
Sampling rate : 48.0 KHz
Bit depth : 16 bits
Compression mode : Lossy
Stream size : 116 MiB (3%)
Title : 48KHz/16-bit, AC3, 2.0 (L,R) ch, 192 kbps - Профессиональный oдноголосый
Language : Russian
Default : Yes
Forced : No
Audio #2
ID : 3
Format : AC-3
Format/Info : Audio Coding 3
Mode extension : CM (complete main)
Format settings, Endianness : Big
Codec ID : A_AC3
Duration : 1h 24mn
Bit rate mode : Constant
Bit rate : 192 Kbps
Channel(s) : 2 channels
Channel positions : Front: L R
Sampling rate : 48.0 KHz
Bit depth : 16 bits
Compression mode : Lossy
Stream size : 116 MiB (3%)
Title : 48KHz/16-bit, AC3, 2.0 (L,R) ch, 192 kbps - Профессиональный oдноголосый
Language : Ukrainian
Default : No
Forced : No
Audio #3
ID : 4
Format : AC-3
Format/Info : Audio Coding 3
Mode extension : CM (complete main)
Format settings, Endianness : Big
Codec ID : A_AC3
Duration : 1h 24mn
Bit rate mode : Constant
Bit rate : 256 Kbps
Channel(s) : 2 channels
Channel positions : Front: L R
Sampling rate : 48.0 KHz
Bit depth : 16 bits
Compression mode : Lossy
Stream size : 155 MiB (3%)
Title : 48KHz/16-bit, AC3, 2.0 (L,R) ch, 256 kbps
Language : German
Default : No
Forced : No
Menu
00:00:00.000 : en:
00:02:37.519 : en:
00:09:55.280 : en:
00:22:53.359 : en:
00:31:10.640 : en:
00:42:19.280 : en:
00:44:29.840 : en:
00:46:56.239 : en:
00:50:23.120 : en:
Дополнительно
Сохранены оригинальные чаптеры как на Blu-ray.
Раздача от группы:
Download
Для скачивания .torrent файлов необходима регистрация
Сайт не распространяет и не хранит электронные версии произведений, а лишь предоставляет доступ к создаваемому пользователями каталогу ссылок на торрент-файлы, которые содержат только списки хеш-сумм
[Профиль]  [ЛС] 
 
Ответить
Loading...
Error