Forbidden Saints - Live in Concert [2010, Instrumental, DVD5]

Страницы:  1

Ответить
Автор
Сообщение

famlu

Стаж: 10 лет 10 месяцев

Сообщений: 196

famlu · 02-Май-14 02:56 (4 года 5 месяцев назад, ред. 02-Май-14 12:26)

Forbidden Saints - Live in Concert
Жанр: Instrumental
Продолжительность: 01:45:25
Год выпуска: 2010 г.
Лейбл: Karen Studio
Описание: Всемирно известный ансамбль Forbidden Saints был создан в Пасадене группой музыкантов, в числе которых 16 музыкантов, представители нескольких латиноамериканских стран, граждане США и Армении...Они собрались вместе, чтобы явить миру доселе невиданную музыку, представить слушателям новый жанр. И им это удалось...
В их композициях смешивалось все - от танго до классики, от классического рока до фламенко - и все это с сильным привкусом музыки народов самых разных стран, включая армянскую...
Из интевью с виолончелистом группы Александром Жировым (Alexander Zhiroff):
"В конце 2009 года во время выступлений на Armenian Music Awards в Лос-Анджелесе нам посчастливилось познакомиться с Камо Сейраняном. Музыка Камо была прозрачна и чиста. Это нас и натолкнуло на мысль о совместном творчестве. И поскольку мы давно являемся большими поклонниками этнической музыки и любим экспериментировать с сочетаниями разнообразных музыкальных стилей и направлений, было принято решение попробовать новый для нас вид сотрудничества.
Мы долгое время планировали начать нечто новое… Но были лишь слова да неоформленные планы. В какой-то момент мы поняли, что важно взять и начать. Вот именно так мы и создали группу Forbidden Saints, в которую вошли как наши музыканты из оркестра Янни, так и те музыканты, с которыми мы познакомились через Камо.
Что касается идеи внедрения армянских элементов в нашу музыку, то она присутствовала всегда. Всерьез же мы к этому подошли только к концу 2009 года. И уже буквально через полгода собрались все в Лос-Анджелесе. Стояло лето, было 21 августа 2010. Live in Concert и был нашим первым большим выступлением, который позже вышел как на DVD, так и на CD. С тех пор и началось наше «путешествие» с концертами."/yerevan.ru/
Состав: Alexsander Zhiroff (cello), Victor Espinola (harp), Kamo Seyranyan (duduk), Armen Movsessian (violin), Hova Burian (bass), Fito Espinola (electric guitar), Ramon Flores (trumpet), Arturo Solar (trumpet), Arturo Velasco (trombone), Larry Klimas (saxophone), Ruben Harutunyan (duduk), Paul Hoyle (keyboards),
Archie Peña (drums), Ray Rios (acoustic guitar), Walter Rodrigezz (percussion), Tatiana Semichastnova (accordion), Irina Makarova (vocals).
Special Guest: Pedro Eustache (flute).
Источник: интернет, спасибо VARDANI.
Треклист
01. Beginning
02. Somewhere in Mediterranea
03. Arevelyan
04. Baila Morena
05. Prelude
06. Galileo's Dream
07. Un Poquito de Cerveza
08. Armor of Faith
09. Oblivion
10. Libertango
11. African Queen
12. Bumblebee
13. Caravan
14. La Noche y La Luna
15. Children
16. Spring Hora
17. Te Canta Paye
Bonus:
Dream
Ver Veri
Доп. информация: Live in Concert, Pasadena, CA, August 21, 2010
Качество : DVD5
Формат: DVD video
Видео кодек: MPEG2
Аудио кодек: AC3
Видео: NTSC 720x480 (16:9) 29.97fps 5584kbps
Аудио: Dolby Digital 2.0 ch.
MediaInfo
Общее
Полное имя : D:\Music\Forbidden Saints\Video\2010 - Live in concert\VIDEO_TS\VIDEO_TS.BUP
Формат : DVD Video
Профиль формата : Menu
Размер файла : 14,0 Кбайт
Режим общего битрейта : Переменный
Видео
Идентификатор : 224 (0xE0)
Формат : MPEG Video
Версия формата : Version 2
Вид битрейта : Переменный
Ширина : 720 пикселей
Высота : 480 пикселей
Соотношение сторон : 16:9
Частота кадров : 29,970 кадров/сек
Стандарт вещания : NTSC
Метод сжатия : С потерями
Текст
Формат : RLE
Формат/Информация : Run-length encoding
Битовая глубина : 2 бит
Общее
Полное имя : D:\Music\Forbidden Saints\Video\2010 - Live in concert\VIDEO_TS\VIDEO_TS.IFO
Формат : DVD Video
Профиль формата : Menu
Размер файла : 14,0 Кбайт
Режим общего битрейта : Переменный
Видео
Идентификатор : 224 (0xE0)
Формат : MPEG Video
Версия формата : Version 2
Вид битрейта : Переменный
Ширина : 720 пикселей
Высота : 480 пикселей
Соотношение сторон : 16:9
Частота кадров : 29,970 кадров/сек
Стандарт вещания : NTSC
Метод сжатия : С потерями
Текст
Формат : RLE
Формат/Информация : Run-length encoding
Битовая глубина : 2 бит
Общее
Полное имя : D:\Music\Forbidden Saints\Video\2010 - Live in concert\VIDEO_TS\VIDEO_TS.VOB
Формат : MPEG-PS
Размер файла : 114 Кбайт
Продолжительность : 400 мс.
Общий поток : 2335 Кбит/сек
Видео
Идентификатор : 224 (0xE0)
Формат : MPEG Video
Версия формата : Version 2
Профиль формата : [email protected]
Параметр BVOP формата : Да
Параметр матрицы формата : Выборочная
Продолжительность : 400 мс.
Максимальный битрейт : 2000 Кбит/сек
Ширина : 720 пикселей
Высота : 480 пикселей
Соотношение сторон : 4:3
Частота кадров : 29,970 кадров/сек
Стандарт вещания : NTSC
Цветовое пространство : YUV
Субдискретизация насыщенности : 4:2:0
Битовая глубина : 8 бит
Тип развёртки : Чересстрочная
Порядок развёртки : Верхнее поле первое
Метод сжатия : С потерями
Временной код первого кадра : 00:00:00:01
Оригинал временного кода : Group of pictures header
Текст
Идентификатор : 189 (0xBD)-32 (0x20)
Формат : RLE
Формат/Информация : Run-length encoding
Режим смешивания : DVD-Video
Задержка видео : -66 мс.
Меню
Общее
Полное имя : D:\Music\Forbidden Saints\Video\2010 - Live in concert\VIDEO_TS\VTS_01_0.BUP
Формат : DVD Video
Профиль формата : Program
Размер файла : 24,0 Кбайт
Продолжительность : 5 с. 633 мс.
Режим общего битрейта : Переменный
Общий поток : 34,9 Кбит/сек
Видео
Идентификатор : 224 (0xE0)
Формат : MPEG Video
Версия формата : Version 2
Продолжительность : 5 с. 639 мс.
Вид битрейта : Переменный
Ширина : 720 пикселей
Высота : 480 пикселей
Соотношение сторон : 16:9
Частота кадров : 29,970 кадров/сек
Стандарт вещания : NTSC
Метод сжатия : С потерями
Аудио
Идентификатор : 128 (0x80)
Формат : AC-3
Формат/Информация : Audio Coding 3
Продолжительность : 5 с. 633 мс.
Каналы : 2 канала
Частота : 48,0 КГц
Метод сжатия : С потерями
Меню
Продолжительность : 5 с. 633 мс.
00:00:00.000 : Chapter 1
List (Audio) : 0
Общее
Полное имя : D:\Music\Forbidden Saints\Video\2010 - Live in concert\VIDEO_TS\VTS_01_0.IFO
Формат : DVD Video
Профиль формата : Program
Размер файла : 24,0 Кбайт
Продолжительность : 5 с. 633 мс.
Режим общего битрейта : Переменный
Общий поток : 34,9 Кбит/сек
Видео
Идентификатор : 224 (0xE0)
Формат : MPEG Video
Версия формата : Version 2
Продолжительность : 5 с. 639 мс.
Вид битрейта : Переменный
Ширина : 720 пикселей
Высота : 480 пикселей
Соотношение сторон : 16:9
Частота кадров : 29,970 кадров/сек
Стандарт вещания : NTSC
Метод сжатия : С потерями
Аудио
Идентификатор : 128 (0x80)
Формат : AC-3
Формат/Информация : Audio Coding 3
Продолжительность : 5 с. 633 мс.
Каналы : 2 канала
Частота : 48,0 КГц
Метод сжатия : С потерями
Меню
Продолжительность : 5 с. 633 мс.
00:00:00.000 : Chapter 1
List (Audio) : 0
Общее
Полное имя : D:\Music\Forbidden Saints\Video\2010 - Live in concert\VIDEO_TS\VTS_01_0.VOB
Формат : MPEG-PS
Размер файла : 4,50 Мбайт
Продолжительность : 2 с. 35 мс.
Режим общего битрейта : Переменный
Общий поток : 18,5 Мбит/сек
Видео
Идентификатор : 224 (0xE0)
Формат : MPEG Video
Версия формата : Version 2
Профиль формата : [email protected]
Параметр BVOP формата : Нет
Параметр матрицы формата : Выборочная
Параметр GOP формата : N=1
Продолжительность : 2 с. 35 мс.
Вид битрейта : Переменный
Битрейт : 18,2 Мбит/сек
Максимальный битрейт : 7000 Кбит/сек
Ширина : 720 пикселей
Высота : 480 пикселей
Соотношение сторон : 16:9
Частота кадров : 29,970 кадров/сек
Стандарт вещания : NTSC
Цветовое пространство : YUV
Субдискретизация насыщенности : 4:2:0
Битовая глубина : 8 бит
Тип развёртки : Прогрессивная
Метод сжатия : С потерями
Бит/(Пиксели*Кадры) : 1.755
Размер потока : 4,41 Мбайт (98%)
Основные цвета : BT.601 NTSC
Характеристики трансфера : BT.601
Коэффициенты матрицы : BT.601
Текст #1
Идентификатор : 189 (0xBD)-32 (0x20)
Формат : RLE
Формат/Информация : Run-length encoding
Режим смешивания : DVD-Video
Продолжительность : 2 с. 2 мс.
Текст #2
Идентификатор : 189 (0xBD)-33 (0x21)
Формат : RLE
Формат/Информация : Run-length encoding
Режим смешивания : DVD-Video
Продолжительность : 2 с. 2 мс.
Меню
Общее
Полное имя : D:\Music\Forbidden Saints\Video\2010 - Live in concert\VIDEO_TS\VTS_01_1.VOB
Формат : MPEG-PS
Размер файла : 1,59 Мбайт
Продолжительность : 5 с. 664 мс.
Режим общего битрейта : Переменный
Общий поток : 2358 Кбит/сек
Видео
Идентификатор : 224 (0xE0)
Формат : MPEG Video
Версия формата : Version 2
Профиль формата : [email protected]
Параметр BVOP формата : Да
Параметр матрицы формата : Выборочная
Параметр GOP формата : M=3, N=15
Продолжительность : 5 с. 639 мс.
Вид битрейта : Переменный
Битрейт : 2119 Кбит/сек
Максимальный битрейт : 7700 Кбит/сек
Ширина : 720 пикселей
Высота : 480 пикселей
Соотношение сторон : 16:9
Частота кадров : 29,970 кадров/сек
Стандарт вещания : NTSC
Цветовое пространство : YUV
Субдискретизация насыщенности : 4:2:0
Битовая глубина : 8 бит
Тип развёртки : Чересстрочная
Порядок развёртки : Нижнее поле первое
Метод сжатия : С потерями
Бит/(Пиксели*Кадры) : 0.205
Временной код первого кадра : 00:00:00;00
Оригинал временного кода : Group of pictures header
Размер потока : 1,42 Мбайт (89%)
Основные цвета : BT.601 NTSC
Характеристики трансфера : BT.601
Коэффициенты матрицы : BT.601
Аудио
Идентификатор : 189 (0xBD)-128 (0x80)
Формат : AC-3
Формат/Информация : Audio Coding 3
Расширение режима : CM (complete main)
Параметр Endianness формата : Big
Режим смешивания : DVD-Video
Продолжительность : 5 с. 664 мс.
Вид битрейта : Постоянный
Битрейт : 192 Кбит/сек
Каналы : 2 канала
Расположение каналов : Front: L R
Частота : 48,0 КГц
Битовая глубина : 16 бит
Метод сжатия : С потерями
Размер потока : 133 Кбайт (8%)
Меню
Общее
Полное имя : D:\Music\Forbidden Saints\Video\2010 - Live in concert\VIDEO_TS\VTS_02_0.BUP
Формат : DVD Video
Профиль формата : Program
Размер файла : 74,0 Кбайт
Продолжительность : 1 ч. 45 м.
Режим общего битрейта : Переменный
Общий поток : 96 бит/сек
Видео
Идентификатор : 224 (0xE0)
Формат : MPEG Video
Версия формата : Version 2
Продолжительность : 1 ч. 45 м.
Вид битрейта : Переменный
Ширина : 720 пикселей
Высота : 480 пикселей
Соотношение сторон : 16:9
Частота кадров : 29,970 кадров/сек
Стандарт вещания : NTSC
Метод сжатия : С потерями
Аудио
Идентификатор : 128 (0x80)
Формат : AC-3
Формат/Информация : Audio Coding 3
Продолжительность : 1 ч. 45 м.
Каналы : 2 канала
Частота : 48,0 КГц
Метод сжатия : С потерями
Меню
Продолжительность : 1 ч. 45 м.
00:00:00.000 : Chapter 1
00:02:33.000 : Chapter 2
00:06:13.600 : Chapter 3
00:11:12.300 : Chapter 4
00:17:35.333 : Chapter 5
00:20:29.633 : Chapter 6
00:25:22.999 : Chapter 7
00:34:44.632 : Chapter 8
00:40:07.032 : Chapter 9
00:44:51.365 : Chapter 10
00:50:17.765 : Chapter 11
01:04:57.765 : Chapter 12
01:08:56.598 : Chapter 13
01:14:35.498 : Chapter 14
01:20:19.898 : Chapter 15
01:27:29.631 : Chapter 16
01:29:51.464 : Chapter 17
01:36:24.230 : Chapter 18
01:36:27.730 : Chapter 19
01:36:32.763 : Chapter 20
01:41:22.829 : Chapter 21
List (Audio) : 0
Общее
Полное имя : D:\Music\Forbidden Saints\Video\2010 - Live in concert\VIDEO_TS\VTS_02_0.IFO
Формат : DVD Video
Профиль формата : Program
Размер файла : 74,0 Кбайт
Продолжительность : 1 ч. 45 м.
Режим общего битрейта : Переменный
Общий поток : 96 бит/сек
Видео
Идентификатор : 224 (0xE0)
Формат : MPEG Video
Версия формата : Version 2
Продолжительность : 1 ч. 45 м.
Вид битрейта : Переменный
Ширина : 720 пикселей
Высота : 480 пикселей
Соотношение сторон : 16:9
Частота кадров : 29,970 кадров/сек
Стандарт вещания : NTSC
Метод сжатия : С потерями
Аудио
Идентификатор : 128 (0x80)
Формат : AC-3
Формат/Информация : Audio Coding 3
Продолжительность : 1 ч. 45 м.
Каналы : 2 канала
Частота : 48,0 КГц
Метод сжатия : С потерями
Меню
Продолжительность : 1 ч. 45 м.
00:00:00.000 : Chapter 1
00:02:33.000 : Chapter 2
00:06:13.600 : Chapter 3
00:11:12.300 : Chapter 4
00:17:35.333 : Chapter 5
00:20:29.633 : Chapter 6
00:25:22.999 : Chapter 7
00:34:44.632 : Chapter 8
00:40:07.032 : Chapter 9
00:44:51.365 : Chapter 10
00:50:17.765 : Chapter 11
01:04:57.765 : Chapter 12
01:08:56.598 : Chapter 13
01:14:35.498 : Chapter 14
01:20:19.898 : Chapter 15
01:27:29.631 : Chapter 16
01:29:51.464 : Chapter 17
01:36:24.230 : Chapter 18
01:36:27.730 : Chapter 19
01:36:32.763 : Chapter 20
01:41:22.829 : Chapter 21
List (Audio) : 0
Общее
Полное имя : D:\Music\Forbidden Saints\Video\2010 - Live in concert\VIDEO_TS\VTS_02_0.VOB
Формат : MPEG-PS
Размер файла : 114 Кбайт
Продолжительность : 400 мс.
Общий поток : 2335 Кбит/сек
Видео
Идентификатор : 224 (0xE0)
Формат : MPEG Video
Версия формата : Version 2
Профиль формата : [email protected]
Параметр BVOP формата : Да
Параметр матрицы формата : Выборочная
Продолжительность : 400 мс.
Максимальный битрейт : 2000 Кбит/сек
Ширина : 720 пикселей
Высота : 480 пикселей
Соотношение сторон : 4:3
Частота кадров : 29,970 кадров/сек
Стандарт вещания : NTSC
Цветовое пространство : YUV
Субдискретизация насыщенности : 4:2:0
Битовая глубина : 8 бит
Тип развёртки : Чересстрочная
Порядок развёртки : Верхнее поле первое
Метод сжатия : С потерями
Временной код первого кадра : 00:00:00:01
Оригинал временного кода : Group of pictures header
Текст
Идентификатор : 189 (0xBD)-32 (0x20)
Формат : RLE
Формат/Информация : Run-length encoding
Режим смешивания : DVD-Video
Задержка видео : -66 мс.
Меню
Общее
Полное имя : D:\Music\Forbidden Saints\Video\2010 - Live in concert\VIDEO_TS\VTS_02_1.VOB
Формат : MPEG-PS
Размер файла : 1024 Мбайт
Продолжительность : 25 м.
Режим общего битрейта : Переменный
Общий поток : 5584 Кбит/сек
Видео
Идентификатор : 224 (0xE0)
Формат : MPEG Video
Версия формата : Version 2
Профиль формата : [email protected]
Параметр BVOP формата : Да
Параметр матрицы формата : Выборочная
Параметр GOP формата : Variable
Продолжительность : 25 м.
Вид битрейта : Переменный
Битрейт : 5280 Кбит/сек
Максимальный битрейт : 7500 Кбит/сек
Ширина : 720 пикселей
Высота : 480 пикселей
Соотношение сторон : 16:9
Частота кадров : 23,976 кадра/сек
Стандарт вещания : NTSC
Цветовое пространство : YUV
Субдискретизация насыщенности : 4:2:0
Битовая глубина : 8 бит
Тип развёртки : Прогрессивная
Порядок развёртки : 2:3 Pulldown
Метод сжатия : С потерями
Бит/(Пиксели*Кадры) : 0.637
Временной код первого кадра : 01:00:00:00
Оригинал временного кода : Group of pictures header
Размер потока : 968 Мбайт (95%)
Основные цвета : BT.601 NTSC
Характеристики трансфера : BT.601
Коэффициенты матрицы : BT.601
Аудио
Идентификатор : 189 (0xBD)-128 (0x80)
Формат : AC-3
Формат/Информация : Audio Coding 3
Расширение режима : CM (complete main)
Параметр Endianness формата : Big
Режим смешивания : DVD-Video
Продолжительность : 25 м.
Вид битрейта : Постоянный
Битрейт : 192 Кбит/сек
Каналы : 2 канала
Расположение каналов : Front: L R
Частота : 48,0 КГц
Битовая глубина : 16 бит
Метод сжатия : С потерями
Размер потока : 35,2 Мбайт (3%)
Меню
Общее
Полное имя : D:\Music\Forbidden Saints\Video\2010 - Live in concert\VIDEO_TS\VTS_02_2.VOB
Формат : MPEG-PS
Размер файла : 1024 Мбайт
Продолжительность : 25 м.
Режим общего битрейта : Переменный
Общий поток : 5598 Кбит/сек
Видео
Идентификатор : 224 (0xE0)
Формат : MPEG Video
Версия формата : Version 2
Профиль формата : [email protected]
Параметр BVOP формата : Да
Параметр матрицы формата : Выборочная
Параметр GOP формата : Variable
Продолжительность : 25 м.
Вид битрейта : Переменный
Битрейт : 5294 Кбит/сек
Максимальный битрейт : 7500 Кбит/сек
Ширина : 720 пикселей
Высота : 480 пикселей
Соотношение сторон : 16:9
Частота кадров : 23,976 кадра/сек
Стандарт вещания : NTSC
Цветовое пространство : YUV
Субдискретизация насыщенности : 4:2:0
Битовая глубина : 8 бит
Тип развёртки : Прогрессивная
Порядок развёртки : 2:3 Pulldown
Метод сжатия : С потерями
Бит/(Пиксели*Кадры) : 0.639
Временной код первого кадра : 01:25:37:00
Оригинал временного кода : Group of pictures header
Размер потока : 968 Мбайт (95%)
Основные цвета : BT.601 NTSC
Характеристики трансфера : BT.601
Коэффициенты матрицы : BT.601
Аудио
Идентификатор : 189 (0xBD)-128 (0x80)
Формат : AC-3
Формат/Информация : Audio Coding 3
Расширение режима : CM (complete main)
Параметр Endianness формата : Big
Режим смешивания : DVD-Video
Продолжительность : 25 м.
Вид битрейта : Постоянный
Битрейт : 192 Кбит/сек
Каналы : 2 канала
Расположение каналов : Front: L R
Частота : 48,0 КГц
Битовая глубина : 16 бит
Метод сжатия : С потерями
Задержка видео : -553 мс.
Размер потока : 35,1 Мбайт (3%)
Меню
Общее
Полное имя : D:\Music\Forbidden Saints\Video\2010 - Live in concert\VIDEO_TS\VTS_02_3.VOB
Формат : MPEG-PS
Размер файла : 1024 Мбайт
Продолжительность : 30 м.
Режим общего битрейта : Переменный
Общий поток : 4731 Кбит/сек
Видео
Идентификатор : 224 (0xE0)
Формат : MPEG Video
Версия формата : Version 2
Профиль формата : [email protected]
Параметр BVOP формата : Да
Параметр матрицы формата : Выборочная
Параметр GOP формата : Variable
Продолжительность : 30 м.
Вид битрейта : Переменный
Битрейт : 4445 Кбит/сек
Максимальный битрейт : 7500 Кбит/сек
Ширина : 720 пикселей
Высота : 480 пикселей
Соотношение сторон : 16:9
Частота кадров : 23,976 кадра/сек
Стандарт вещания : NTSC
Цветовое пространство : YUV
Субдискретизация насыщенности : 4:2:0
Битовая глубина : 8 бит
Тип развёртки : Прогрессивная
Порядок развёртки : 2:3 Pulldown
Метод сжатия : С потерями
Бит/(Пиксели*Кадры) : 0.536
Временной код первого кадра : 01:51:09:22
Оригинал временного кода : Group of pictures header
Размер потока : 962 Мбайт (94%)
Основные цвета : BT.601 NTSC
Характеристики трансфера : BT.601
Коэффициенты матрицы : BT.601
Аудио
Идентификатор : 189 (0xBD)-128 (0x80)
Формат : AC-3
Формат/Информация : Audio Coding 3
Расширение режима : CM (complete main)
Параметр Endianness формата : Big
Режим смешивания : DVD-Video
Продолжительность : 30 м.
Вид битрейта : Постоянный
Битрейт : 192 Кбит/сек
Каналы : 2 канала
Расположение каналов : Front: L R
Частота : 48,0 КГц
Битовая глубина : 16 бит
Метод сжатия : С потерями
Задержка видео : -500 мс.
Размер потока : 41,6 Мбайт (4%)
Меню
Общее
Полное имя : D:\Music\Forbidden Saints\Video\2010 - Live in concert\VIDEO_TS\VTS_02_4.VOB
Формат : MPEG-PS
Размер файла : 929 Мбайт
Продолжительность : 24 м.
Режим общего битрейта : Переменный
Общий поток : 5395 Кбит/сек
Видео
Идентификатор : 224 (0xE0)
Формат : MPEG Video
Версия формата : Version 2
Профиль формата : [email protected]
Параметр BVOP формата : Да
Параметр матрицы формата : Выборочная
Параметр GOP формата : Variable
Продолжительность : 24 м.
Вид битрейта : Переменный
Битрейт : 5096 Кбит/сек
Максимальный битрейт : 7500 Кбит/сек
Ширина : 720 пикселей
Высота : 480 пикселей
Соотношение сторон : 16:9
Частота кадров : 23,976 кадра/сек
Стандарт вещания : NTSC
Цветовое пространство : YUV
Субдискретизация насыщенности : 4:2:0
Битовая глубина : 8 бит
Тип развёртки : Прогрессивная
Порядок развёртки : 2:3 Pulldown
Метод сжатия : С потерями
Бит/(Пиксели*Кадры) : 0.615
Временной код первого кадра : 02:21:23:12
Оригинал временного кода : Group of pictures header
Размер потока : 877 Мбайт (94%)
Основные цвета : BT.601 NTSC
Характеристики трансфера : BT.601
Коэффициенты матрицы : BT.601
Аудио
Идентификатор : 189 (0xBD)-128 (0x80)
Формат : AC-3
Формат/Информация : Audio Coding 3
Расширение режима : CM (complete main)
Параметр Endianness формата : Big
Режим смешивания : DVD-Video
Продолжительность : 24 м.
Вид битрейта : Постоянный
Битрейт : 192 Кбит/сек
Каналы : 2 канала
Расположение каналов : Front: L R
Частота : 48,0 КГц
Битовая глубина : 16 бит
Метод сжатия : С потерями
Задержка видео : -588 мс.
Размер потока : 33,1 Мбайт (4%)
Меню
Скриншоты меню
Скриншоты
Download
Для скачивания .torrent файлов необходима регистрация
Сайт не распространяет и не хранит электронные версии произведений, а лишь предоставляет доступ к создаваемому пользователями каталогу ссылок на торрент-файлы, которые содержат только списки хеш-сумм
[Профиль]  [ЛС] 

famlu

Стаж: 10 лет 10 месяцев

Сообщений: 196

famlu · 02-Май-14 12:23 (спустя 9 часов, ред. 04-Май-14 15:20)

[Цитировать] 

Концерт просто шикарен!!! Несмотря на дикую смесь стилей, жанров, стран (или благодаря ей), он слушается и смотрится на одном дыхании, доставляя массу удовольствия!
Galileo's Dream, Oblivion, Libertango - великолепны, а какой Полет Шмеля, а Spring Hora!!!
Здесь все звезды, но эта звездность каждого очень органично переплетается, сливаясь воедино и создавая единое кружево - МУЗЫКУ!
[Профиль]  [ЛС] 

chay-chay

Стаж: 9 лет

Сообщений: 4


chay-chay · 14-Сен-14 19:40 (спустя 4 месяца 12 дней)

[Цитировать] 

famlu писал(а):
63794861Концерт просто шикарен!!! Несмотря на дикую смесь стилей, жанров, стран (или благодаря ей), он слушается и смотрится на одном дыхании, доставляя массу удовольствия!
Galileo's Dream, Oblivion, Libertango - великолепны, а какой Полет Шмеля, а Spring Hora!!!
Здесь все звезды, но эта звездность каждого очень органично переплетается, сливаясь воедино и создавая единое кружево - МУЗЫКУ!
[Профиль]  [ЛС] 

greg_appel

Стаж: 5 лет 8 месяцев

Сообщений: 1


greg_appel · 15-Окт-14 20:37 (спустя 1 месяц 1 день)

[Цитировать] 

Шикарный концерт! Обалдеть вобще! Жаль, что больше вместе не выступали.
[Профиль]  [ЛС] 

famlu

Стаж: 10 лет 10 месяцев

Сообщений: 196

famlu · 16-Окт-14 21:50 (спустя 1 день 1 час)

[Цитировать] 

Мне тоже очень жаль, ведь здорово получилось!
[Профиль]  [ЛС] 

habemus

Стаж: 9 лет 8 месяцев

Сообщений: 910

habemus · 11-Фев-16 13:45 (спустя 1 год 3 месяца)

[Цитировать] 

Потрясающий концерт, посмотрел 3 раза, спасибо!
[Профиль]  [ЛС] 

voidghost

Стаж: 8 лет 2 месяца

Сообщений: 3


voidghost · 15-Сен-18 22:12 (спустя 2 года 7 месяцев)

[Цитировать] 

В комплекте с ним был CD вроде бы. Никто не подскажет - где взять в lossless?
[Профиль]  [ЛС] 
 
Ответить
Loading...
Error