Mighty Car Mods Сезон 5 [RUS] E01-26 (2013, Австралия, DIY, Автотюнинг, WEBRip 1080p) [BMIRussian] (Посл. обн 02.10.14 - Bonus)

Страницы:  1

Ответить
Автор
Сообщение

Mr.Leon911

Стаж: 7 лет 6 месяцев

Сообщений: 235

Mr.Leon911 · 01-Май-14 22:38 (4 года 7 месяцев назад, ред. 02-Окт-14 21:07)

Mighty Car Mods официально на русском от [BMIRussian]
Сезон 5ый

Страна: Австралия
Режиссер: Marty & Moog
Жанр: Автотюнинг, DIY (Сделай сам).
Дата выпуска: 2013
Перевод: Студийный (одноголосый закадровый) BMIRussian
Описание:
Mighty Car Mods - самое популярное шоу на Youtube, посвященное DIY (Do It Yourself - сделай сам). Его ведущие - австралийцы Марти и Муг, тюнеры-кулибины, по-разному тюнящие машины - от серьезных вещей, до абcолютно бредовых и дурацких, снимающие это на видео, и, с немалой долей юмора, комментирующие происходящее.
Информация от переводчиков:
Перевод нашей группы является официальным, т.е. согласованным с правообладателями - Марти и Мугом, и прошедшим их ОТК :). Параллельно релизы будут проходить на нашем канале youtube и группе в контакте. Возможно, выпуски будут не столь частыми, как у других переводчиков (помимо этого шоу мы уже не первый год переводим Best Motoring, Hot Version, Video Option и другие видео JDM-тематики), но постараемся брать качеством.
Приятного просмотра!
Другие переводы BMIRussian
JDM-шоу:
All New Hot Version International Vol.111-... 720p
Best Motoring International Vol.01-35
Best Motoring International GTTV Series (Эксклюзив) Vol. 01-25 SD/1080p
Hot Version Vol.38
JDM Option/Video Option International
JDM Option/Video Option International GTTV Series (Эксклюзив) Vol.1-12
Другие автомобильные шоу:
Официальный перевод Mighty Car Mods. Турбины и Храмы + за кадром (на его базе в дальнейшем будет 3ий сезон)
Официальный перевод Mighty Car Mods. Сезон 04. (720p)
Официальный перевод Mighty Car Mods. Сезон 05. (1080p)
Официальный перевод Mighty Car Mods. Кей-кар. Ключ к городу + за кадром (на его базе в дальнейшем будет 6ой сезон) (1080p)
Отсечка (Redline) Episode 1-... 1080p
Дрифт гараж (Drift Garage) Episode 1-7 720p
Художественные и документальные фильмы:
Чужаки: Япония.(Driftwork Presents Outsiders: Japan). Официальный перевод. 1080p
КАЗ: преодолевая виртуальный барьер 720p
Автоманьяки - жизнь с Ле-Маном 4K
Анимэ "Мотолегенда"
Худ. фильм "Гонки на автостраде Шуто 1"
Худ. фильм "Гонки на автостраде Шуто 2"
Худ. фильм "Гонки на автостраде Шуто 3"
Худ. фильм "Гонки на автостраде Шуто 4"
Худ. фильм "Гонки на автостраде Шуто 5"
Худ. фильм "Гонки на автостраде Шуто 6"
Торрент будет обновляться с заменой торрент-файла.
Последнее обновление: 02.10.2014 - Добавлены бонусы
S05E01 Дрифт-кар / Season 5 Premiere - Drift Car
Ребята начинают строить дрифт-кар из Nissan 180SX, "насильно подаренной" Мартину Мугом.
MediaInfo
Общее
Уникальный идентификатор : 229622313216322032142840433043083574119 (0xACBFA61DCDE870DFB6F637158DF73B67)
Полное имя : F:\DC++\Downloads\!Torrent\Mighty Car Mods Season 5 [BMIRussian] (1080p)\S05E01 Season 5 Premiere - Drift Car [BMIRussian].mkv
Формат : Matroska
Версия формата : Version 2
Размер файла : 521 Мбайт
Продолжительность : 23 м.
Общий поток : 3101 Кбит/сек
Дата кодирования : UTC 2014-04-30 22:13:02
Программа кодирования : mkvmerge v4.2.0 ('No Talking') сборка от Jul 28 2010 18:38:23
Библиотека кодирования : libebml v1.0.0 + libmatroska v1.0.0
Видео
Идентификатор : 1
Формат : AVC
Формат/Информация : Advanced Video Codec
Профиль формата : [email protected]
Параметр CABAC формата : Да
Параметр ReFrames формата : 3 кадра
Режим смешивания : Header stripping
Идентификатор кодека : V_MPEG4/ISO/AVC
Продолжительность : 23 м.
Битрейт : 2848 Кбит/сек
Ширина : 1920 пикселей
Высота : 1080 пикселей
Соотношение сторон : 16:9
Режим частоты кадров : Постоянный
Частота кадров : 25,000 кадров/сек
Цветовое пространство : YUV
Субдискретизация насыщенности : 4:2:0
Битовая глубина : 8 бит
Тип развёртки : Прогрессивная
Бит/(Пиксели*Кадры) : 0.055
Размер потока : 479 Мбайт (92%)
Default : Да
Forced : Нет
Аудио
Идентификатор : 2
Формат : MPEG Audio
Версия формата : Version 1
Профиль формата : Layer 3
Режим : Joint stereo
Расширение режима : MS Stereo
Режим смешивания : Header stripping
Идентификатор кодека : A_MPEG/L3
Идентификатор кодека/Подсказка : MP3
Продолжительность : 23 м.
Вид битрейта : Постоянный
Битрейт : 192 Кбит/сек
Каналы : 2 канала
Частота : 44,1 КГц
Метод сжатия : С потерями
Размер потока : 32,3 Мбайт (6%)
Default : Да
Forced : Нет
Продолжительность
0:23:29
Скриншоты
S05E02 Установка койловеров на 180SX / 180SX Coilover Suspension
Продолжение постройки дрифт-кара. Установка и настройка койловеров.
MediaInfo
General
Unique ID : 197386988390107546522968366282307758345 (0x947F59E571BE85B6A0DF62E7AB936909)
Complete name : F:\DC++\Downloads\!Torrent\Mighty Car Mods Season 5 [BMIRussian] (1080p)\S05E02 180SX Coilover Suspension [BMIRussian].mkv
Format : Matroska
Format version : Version 2
File size : 237 MiB
Duration : 10mn 12s
Overall bit rate : 3 248 Kbps
Encoded date : UTC 2014-05-03 15:54:10
Writing application : mkvmerge v4.2.0 ('No Talking') сборка от Jul 28 2010 18:38:23
Writing library : libebml v1.0.0 + libmatroska v1.0.0
Video
ID : 1
Format : AVC
Format/Info : Advanced Video Codec
Format profile : [email protected]
Format settings, CABAC : Yes
Format settings, ReFrames : 3 frames
Muxing mode : Header stripping
Codec ID : V_MPEG4/ISO/AVC
Duration : 10mn 12s
Bit rate : 2 991 Kbps
Width : 1 920 pixels
Height : 1 080 pixels
Display aspect ratio : 16:9
Frame rate mode : Constant
Frame rate : 25.000 fps
Color space : YUV
Chroma subsampling : 4:2:0
Bit depth : 8 bits
Scan type : Progressive
Bits/(Pixel*Frame) : 0.058
Stream size : 218 MiB (92%)
Default : Yes
Forced : No
Audio
ID : 2
Format : MPEG Audio
Format version : Version 1
Format profile : Layer 3
Mode : Joint stereo
Muxing mode : Header stripping
Codec ID : A_MPEG/L3
Codec ID/Hint : MP3
Duration : 10mn 12s
Bit rate mode : Constant
Bit rate : 192 Kbps
Channel(s) : 2 channels
Sampling rate : 44.1 KHz
Compression mode : Lossy
Stream size : 14.0 MiB (6%)
Default : Yes
Forced : No
Продолжительность
0:10:12
Скриншоты
S05E03 Дрифт-кар. Часть 2. / Drift Car Build Part 2.
Продолжение постройки дрифт-кара.
MediaInfo
General
Unique ID : 254372695233063970974088961384145660885 (0xBF5E662A00427A748E7AC6724472ABD5)
Complete name : F:\DC++\Downloads\!Torrent\Mighty Car Mods Season 5 [BMIRussian] (1080p)\S05E03 Drift Car Build - Part 2 [BMIRussian].mkv
Format : Matroska
Format version : Version 2
File size : 326 MiB
Duration : 12mn 52s
Overall bit rate : 3 543 Kbps
Encoded date : UTC 2014-05-07 08:03:10
Writing application : mkvmerge v4.2.0 ('No Talking') сборка от Jul 28 2010 18:38:23
Writing library : libebml v1.0.0 + libmatroska v1.0.0
Video
ID : 1
Format : AVC
Format/Info : Advanced Video Codec
Format profile : [email protected]
Format settings, CABAC : Yes
Format settings, ReFrames : 3 frames
Muxing mode : Header stripping
Codec ID : V_MPEG4/ISO/AVC
Duration : 12mn 52s
Bit rate : 3 281 Kbps
Width : 1 920 pixels
Height : 1 080 pixels
Display aspect ratio : 16:9
Frame rate mode : Constant
Frame rate : 25.000 fps
Color space : YUV
Chroma subsampling : 4:2:0
Bit depth : 8 bits
Scan type : Progressive
Bits/(Pixel*Frame) : 0.063
Stream size : 302 MiB (93%)
Default : Yes
Forced : No
Audio
ID : 2
Format : MPEG Audio
Format version : Version 1
Format profile : Layer 3
Mode : Joint stereo
Muxing mode : Header stripping
Codec ID : A_MPEG/L3
Codec ID/Hint : MP3
Duration : 12mn 52s
Bit rate mode : Constant
Bit rate : 192 Kbps
Channel(s) : 2 channels
Sampling rate : 44.1 KHz
Compression mode : Lossy
Stream size : 17.7 MiB (5%)
Default : Yes
Forced : No
Продолжительность
0:12:53
Скриншоты
S05E04 Дрифт-кар. Часть 3. / Drift Car Build Part 3.
Окончание постройки дрифт-кара.
MediaInfo
General
Unique ID : 177298158046141131598343680995930300244 (0x85626217346A889882C968104AF25F54)
Complete name : F:\DC++\Downloads\!Torrent\Mighty Car Mods Season 5 [BMIRussian] (1080p)\S05E04 Drift Car Build - Part 3 [BMIRussian].mkv
Format : Matroska
Format version : Version 2
File size : 402 MiB
Duration : 20mn 9s
Overall bit rate : 2 791 Kbps
Encoded date : UTC 2014-05-14 11:33:51
Writing application : mkvmerge v4.2.0 ('No Talking') сборка от Jul 28 2010 18:38:23
Writing library : libebml v1.0.0 + libmatroska v1.0.0
Video
ID : 1
Format : AVC
Format/Info : Advanced Video Codec
Format profile : [email protected]
Format settings, CABAC : Yes
Format settings, ReFrames : 3 frames
Muxing mode : Header stripping
Codec ID : V_MPEG4/ISO/AVC
Duration : 20mn 9s
Bit rate : 2 543 Kbps
Width : 1 920 pixels
Height : 1 080 pixels
Display aspect ratio : 16:9
Frame rate mode : Constant
Frame rate : 25.000 fps
Color space : YUV
Chroma subsampling : 4:2:0
Bit depth : 8 bits
Scan type : Progressive
Bits/(Pixel*Frame) : 0.049
Stream size : 367 MiB (91%)
Default : Yes
Forced : No
Audio
ID : 2
Format : MPEG Audio
Format version : Version 1
Format profile : Layer 3
Mode : Joint stereo
Muxing mode : Header stripping
Codec ID : A_MPEG/L3
Codec ID/Hint : MP3
Duration : 20mn 9s
Bit rate mode : Constant
Bit rate : 192 Kbps
Channel(s) : 2 channels
Sampling rate : 44.1 KHz
Compression mode : Lossy
Stream size : 27.7 MiB (7%)
Default : Yes
Forced : No
Продолжительность
0:20:09
Скриншоты
S05E05 Устанавливаем электростеклоподъёмники / Electric Windows Conversion
Установка электростеклоподъёмников в синее ведёрко.
MediaInfo
General
Unique ID : 231087585749104735630602403038621991175 (0xADD9D9A14520C38F92984A75C6260107)
Complete name : F:\DC++\Downloads\!Torrent\Mighty Car Mods Season 5 [BMIRussian] (1080p)\S05E05 Electric Window Conversion [BMIRussian].mkv
Format : Matroska
Format version : Version 2
File size : 309 MiB
Duration : 13mn 54s
Overall bit rate : 3 112 Kbps
Encoded date : UTC 2014-05-22 10:09:55
Writing application : mkvmerge v4.2.0 ('No Talking') сборка от Jul 28 2010 18:38:23
Writing library : libebml v1.0.0 + libmatroska v1.0.0
Video
ID : 1
Format : AVC
Format/Info : Advanced Video Codec
Format profile : [email protected]
Format settings, CABAC : Yes
Format settings, ReFrames : 3 frames
Muxing mode : Header stripping
Codec ID : V_MPEG4/ISO/AVC
Duration : 13mn 54s
Bit rate : 2 858 Kbps
Width : 1 920 pixels
Height : 1 080 pixels
Display aspect ratio : 16:9
Frame rate mode : Constant
Frame rate : 25.000 fps
Color space : YUV
Chroma subsampling : 4:2:0
Bit depth : 8 bits
Scan type : Progressive
Bits/(Pixel*Frame) : 0.055
Stream size : 284 MiB (92%)
Default : Yes
Forced : No
Audio
ID : 2
Format : MPEG Audio
Format version : Version 1
Format profile : Layer 3
Mode : Joint stereo
Muxing mode : Header stripping
Codec ID : A_MPEG/L3
Codec ID/Hint : MP3
Duration : 13mn 54s
Bit rate mode : Constant
Bit rate : 192 Kbps
Channel(s) : 2 channels
Sampling rate : 44.1 KHz
Compression mode : Lossy
Stream size : 19.1 MiB (6%)
Default : Yes
Forced : No
Продолжительность
0:13:54
Скриншоты
S05E06 Бюджетный кузовной ремонт / S05E06 Budget Bog Dent Repair
Ремонт вмятин за дешман на синем ведёрке
MediaInfo
General
Unique ID : 241230098776162717630871820553886033884 (0xB57B3A2164D5A5FEA284A932CE7AE7DC)
Complete name : F:\DC++\Downloads\!Torrent\Mighty Car Mods Season 5 [BMIRussian] (1080p)\S05E06 Budget Bog Dent Repair [BMIRussian].mkv
Format : Matroska
Format version : Version 2
File size : 410 MiB
Duration : 15mn 21s
Overall bit rate : 3 734 Kbps
Encoded date : UTC 2014-06-04 12:01:46
Writing application : mkvmerge v4.2.0 ('No Talking') сборка от Jul 28 2010 18:38:23
Writing library : libebml v1.0.0 + libmatroska v1.0.0
Video
ID : 1
Format : AVC
Format/Info : Advanced Video Codec
Format profile : [email protected]
Format settings, CABAC : Yes
Format settings, ReFrames : 3 frames
Muxing mode : Header stripping
Codec ID : V_MPEG4/ISO/AVC
Duration : 15mn 21s
Bit rate : 3 468 Kbps
Width : 1 920 pixels
Height : 1 080 pixels
Display aspect ratio : 16:9
Frame rate mode : Constant
Frame rate : 25.000 fps
Color space : YUV
Chroma subsampling : 4:2:0
Bit depth : 8 bits
Scan type : Progressive
Bits/(Pixel*Frame) : 0.067
Stream size : 381 MiB (93%)
Default : Yes
Forced : No
Audio
ID : 2
Format : MPEG Audio
Format version : Version 1
Format profile : Layer 3
Mode : Joint stereo
Muxing mode : Header stripping
Codec ID : A_MPEG/L3
Codec ID/Hint : MP3
Duration : 15mn 21s
Bit rate mode : Constant
Bit rate : 192 Kbps
Channel(s) : 2 channels
Sampling rate : 44.1 KHz
Compression mode : Lossy
Stream size : 21.1 MiB (5%)
Default : Yes
Forced : No
Продолжительность
0:15:21
Скриншоты
S05E07 `Европейка` Марти / Marty's euro car
Марти под давлением Муга покупает европейку. Но понравится ли она ему?
MediaInfo
General
Unique ID : 206058720135234392799274906702813675910 (0x9B057747E9BC152AAE7DAF3067B14186)
Complete name : F:\DC++\Downloads\!Torrent\Mighty Car Mods Season 5 [BMIRussian] (1080p)\S05E07 Marty's Euro Car [BMIRussian].mkv
Format : Matroska
Format version : Version 2
File size : 286 MiB
Duration : 13mn 45s
Overall bit rate : 2 911 Kbps
Encoded date : UTC 2014-06-03 19:32:23
Writing application : mkvmerge v4.2.0 ('No Talking') сборка от Jul 28 2010 18:38:23
Writing library : libebml v1.0.0 + libmatroska v1.0.0
Video
ID : 1
Format : AVC
Format/Info : Advanced Video Codec
Format profile : [email protected]
Format settings, CABAC : Yes
Format settings, ReFrames : 3 frames
Muxing mode : Header stripping
Codec ID : V_MPEG4/ISO/AVC
Duration : 13mn 45s
Bit rate : 2 661 Kbps
Width : 1 920 pixels
Height : 1 080 pixels
Display aspect ratio : 16:9
Frame rate mode : Constant
Frame rate : 25.000 fps
Color space : YUV
Chroma subsampling : 4:2:0
Bit depth : 8 bits
Scan type : Progressive
Bits/(Pixel*Frame) : 0.051
Stream size : 262 MiB (91%)
Default : Yes
Forced : No
Audio
ID : 2
Format : MPEG Audio
Format version : Version 1
Format profile : Layer 3
Mode : Joint stereo
Muxing mode : Header stripping
Codec ID : A_MPEG/L3
Codec ID/Hint : MP3
Duration : 13mn 45s
Bit rate mode : Constant
Bit rate : 192 Kbps
Channel(s) : 2 channels
Sampling rate : 44.1 KHz
Compression mode : Lossy
Stream size : 18.9 MiB (7%)
Default : Yes
Forced : No
Продолжительность
0:13:45
Скриншоты
S05E08 Как турбировать атмосферник. Часть 1. / How to turbo. Part 1.
Ребята начинают новый проект - турбирование новой машины Марти. Атмосферной Mazda MX-5.
MediaInfo
General
Complete name : F:\DC++\Downloads\!Torrent\Mighty Car Mods\Season 5\S05E08 How to Turbo - Part 1.mp4
Format : MPEG-4
Format profile : Base Media
Codec ID : isom
File size : 695 MiB
Duration : 31mn 0s
Overall bit rate : 3 136 Kbps
Writing application : Lavf54.63.104
Video
ID : 1
Format : AVC
Format/Info : Advanced Video Codec
Format profile : [email protected]
Format settings, CABAC : Yes
Format settings, ReFrames : 3 frames
Codec ID : avc1
Codec ID/Info : Advanced Video Coding
Duration : 30mn 59s
Bit rate : 3 005 Kbps
Width : 1 920 pixels
Height : 1 080 pixels
Display aspect ratio : 16:9
Frame rate mode : Variable
Frame rate : 25.000 fps
Minimum frame rate : 25.000 fps
Maximum frame rate : 1 000.000 fps
Color space : YUV
Chroma subsampling : 4:2:0
Bit depth : 8 bits
Scan type : Progressive
Bits/(Pixel*Frame) : 0.058
Stream size : 666 MiB (96%)
Audio
ID : 2
Format : AAC
Format/Info : Advanced Audio Codec
Format profile : LC
Codec ID : 40
Duration : 31mn 0s
Bit rate mode : Constant
Bit rate : 126 Kbps
Channel(s) : 2 channels
Channel positions : Front: L R
Sampling rate : 44.1 KHz
Compression mode : Lossy
Stream size : 27.8 MiB (4%)
Продолжительность
0:31:00
Скриншоты
S05E09 Как турбировать атмосферник. Часть 2. / How to turbo. Part 2.
Продолжение истории турбирования Mazda MX-5
MediaInfo
General
Unique ID : 253493922328954477788244852288181470698 (0xBEB5275095462F4996E66CDAA56F85EA)
Complete name : F:\DC++\Downloads\!Torrent\Mighty Car Mods Season 5 [BMIRussian] (1080p)\S05E09 How to Turbo - Part 2 [BMIRussian].mkv
Format : Matroska
Format version : Version 2
File size : 357 MiB
Duration : 17mn 30s
Overall bit rate : 2 851 Kbps
Encoded date : UTC 2014-06-19 21:03:41
Writing application : mkvmerge v4.2.0 ('No Talking') сборка от Jul 28 2010 18:38:23
Writing library : libebml v1.0.0 + libmatroska v1.0.0
Video
ID : 1
Format : AVC
Format/Info : Advanced Video Codec
Format profile : [email protected]
Format settings, CABAC : Yes
Format settings, ReFrames : 3 frames
Muxing mode : Header stripping
Codec ID : V_MPEG4/ISO/AVC
Duration : 17mn 30s
Bit rate : 2 602 Kbps
Width : 1 920 pixels
Height : 1 080 pixels
Display aspect ratio : 16:9
Frame rate mode : Constant
Frame rate : 25.000 fps
Color space : YUV
Chroma subsampling : 4:2:0
Bit depth : 8 bits
Scan type : Progressive
Bits/(Pixel*Frame) : 0.050
Stream size : 326 MiB (91%)
Default : Yes
Forced : No
Audio
ID : 2
Format : MPEG Audio
Format version : Version 1
Format profile : Layer 3
Mode : Joint stereo
Muxing mode : Header stripping
Codec ID : A_MPEG/L3
Codec ID/Hint : MP3
Duration : 17mn 30s
Bit rate mode : Constant
Bit rate : 192 Kbps
Channel(s) : 2 channels
Sampling rate : 44.1 KHz
Compression mode : Lossy
Stream size : 24.0 MiB (7%)
Default : Yes
Forced : No
Продолжительность
0:17:30
Скриншоты
S05E10 Как турбировать атмосферник. Часть 3. / How to turbo. Part 3.
Окончание истории турбирования MX-5, но не конец её истории...
MediaInfo
General
Unique ID : 236497124523325478438804790973999557573 (0xB1EBB07BBCFA084C9E7204B2EC872BC5)
Complete name : F:\DC++\Downloads\!Torrent\Mighty Car Mods Season 5 [BMIRussian] (1080p)\S05E10 How to Turbo - Part 3 [BMIRussian].mkv
Format : Matroska
Format version : Version 2
File size : 559 MiB
Duration : 26mn 35s
Overall bit rate : 2 937 Kbps
Encoded date : UTC 2014-06-27 09:16:51
Writing application : mkvmerge v4.2.0 ('No Talking') сборка от Jul 28 2010 18:38:23
Writing library : libebml v1.0.0 + libmatroska v1.0.0
Video
ID : 1
Format : AVC
Format/Info : Advanced Video Codec
Format profile : [email protected]
Format settings, CABAC : Yes
Format settings, ReFrames : 3 frames
Muxing mode : Header stripping
Codec ID : V_MPEG4/ISO/AVC
Duration : 26mn 35s
Bit rate : 2 687 Kbps
Width : 1 920 pixels
Height : 1 080 pixels
Display aspect ratio : 16:9
Frame rate mode : Constant
Frame rate : 25.000 fps
Color space : YUV
Chroma subsampling : 4:2:0
Bit depth : 8 bits
Scan type : Progressive
Bits/(Pixel*Frame) : 0.052
Stream size : 511 MiB (91%)
Default : Yes
Forced : No
Audio
ID : 2
Format : MPEG Audio
Format version : Version 1
Format profile : Layer 3
Mode : Joint stereo
Muxing mode : Header stripping
Codec ID : A_MPEG/L3
Codec ID/Hint : MP3
Duration : 26mn 35s
Bit rate mode : Constant
Bit rate : 192 Kbps
Channel(s) : 2 channels
Sampling rate : 44.1 KHz
Compression mode : Lossy
Stream size : 36.5 MiB (7%)
Default : Yes
Forced : No
Продолжительность
0:26:35
Скриншоты
S05E11 Путешествие в Сингапур. / Singapore Car Scene.
Рассказ о поездке ребят в Сингапур и о нюансах владения и тюнинга авто в этой стране.
MediaInfo
General
Unique ID : 233956086494426701458120314560166302033 (0xB0024DA2C889010896974A3FAB0D1151)
Complete name : F:\DC++\Downloads\!Torrent\Mighty Car Mods Season 5 [BMIRussian] (1080p)\S05E11 Singapore Car Scene [BMIRussian].mkv
Format : Matroska
Format version : Version 2
File size : 270 MiB
Duration : 11mn 50s
Overall bit rate : 3 187 Kbps
Encoded date : UTC 2014-07-02 11:42:01
Writing application : mkvmerge v4.2.0 ('No Talking') сборка от Jul 28 2010 18:38:23
Writing library : libebml v1.0.0 + libmatroska v1.0.0
Video
ID : 1
Format : AVC
Format/Info : Advanced Video Codec
Format profile : [email protected]
Format settings, CABAC : Yes
Format settings, ReFrames : 3 frames
Muxing mode : Header stripping
Codec ID : V_MPEG4/ISO/AVC
Duration : 11mn 50s
Bit rate : 2 932 Kbps
Width : 1 920 pixels
Height : 1 080 pixels
Display aspect ratio : 16:9
Frame rate mode : Constant
Frame rate : 25.000 fps
Color space : YUV
Chroma subsampling : 4:2:0
Bit depth : 8 bits
Scan type : Progressive
Bits/(Pixel*Frame) : 0.057
Stream size : 248 MiB (92%)
Default : Yes
Forced : No
Audio
ID : 2
Format : MPEG Audio
Format version : Version 1
Format profile : Layer 3
Mode : Joint stereo
Muxing mode : Header stripping
Codec ID : A_MPEG/L3
Codec ID/Hint : MP3
Duration : 11mn 50s
Bit rate mode : Constant
Bit rate : 192 Kbps
Channel(s) : 2 channels
Sampling rate : 44.1 KHz
Compression mode : Lossy
Stream size : 16.3 MiB (6%)
Default : Yes
Forced : No
Продолжительность
0:11:51
Скриншоты
[/URL]
S05E12 Как установить турботаймер. / How to install a turbotimer.
Установка турботаймера на турболансер в Сингапуре.
MediaInfo
General
Unique ID : 198094080600929919745605322530731881113 (0x9507883BDE4E0C2E8482121BC6347299)
Complete name : F:\DC++\Downloads\!Torrent\Mighty Car Mods Season 5 [BMIRussian] (1080p)\S05E12 How To Install a Turbo Timer [BMIRussian].mkv
Format : Matroska
Format version : Version 2
File size : 350 MiB
Duration : 15mn 25s
Overall bit rate : 3 172 Kbps
Encoded date : UTC 2014-07-08 13:00:04
Writing application : mkvmerge v4.2.0 ('No Talking') сборка от Jul 28 2010 18:38:23
Writing library : libebml v1.0.0 + libmatroska v1.0.0
Video
ID : 1
Format : AVC
Format/Info : Advanced Video Codec
Format profile : [email protected]
Format settings, CABAC : Yes
Format settings, ReFrames : 3 frames
Muxing mode : Header stripping
Codec ID : V_MPEG4/ISO/AVC
Duration : 15mn 25s
Bit rate : 2 917 Kbps
Width : 1 920 pixels
Height : 1 080 pixels
Display aspect ratio : 16:9
Frame rate mode : Constant
Frame rate : 25.000 fps
Color space : YUV
Chroma subsampling : 4:2:0
Bit depth : 8 bits
Scan type : Progressive
Bits/(Pixel*Frame) : 0.056
Stream size : 322 MiB (92%)
Default : Yes
Forced : No
Audio
ID : 2
Format : MPEG Audio
Format version : Version 1
Format profile : Layer 3
Mode : Joint stereo
Muxing mode : Header stripping
Codec ID : A_MPEG/L3
Codec ID/Hint : MP3
Duration : 15mn 25s
Bit rate mode : Constant
Bit rate : 192 Kbps
Channel(s) : 2 channels
Sampling rate : 44.1 KHz
Compression mode : Lossy
Stream size : 21.2 MiB (6%)
Default : Yes
Forced : No
Продолжительность
0:15:24
Скриншоты
S05E13 Новый Ниссан Марти. / Marty's new Nissan.
В этом выпуске Муг дарит Марти новый чумовой Ниссан )).
MediaInfo
General
Unique ID : 209096847095010483959906692358339133806 (0x9D4E9681406D8995AF7640F49CD9816E)
Complete name : F:\DC++\Downloads\!Torrent\Mighty Car Mods Season 5 [BMIRussian] (1080p)\S05E13 Marty's New Nissan [BMIRussian].mkv
Format : Matroska
Format version : Version 2
File size : 412 MiB
Duration : 14mn 13s
Overall bit rate : 4 047 Kbps
Encoded date : UTC 2014-07-15 16:46:28
Writing application : mkvmerge v4.2.0 ('No Talking') сборка от Jul 28 2010 18:38:23
Writing library : libebml v1.0.0 + libmatroska v1.0.0
Video
ID : 1
Format : AVC
Format/Info : Advanced Video Codec
Format profile : [email protected]
Format settings, CABAC : Yes
Format settings, ReFrames : 3 frames
Muxing mode : Header stripping
Codec ID : V_MPEG4/ISO/AVC
Duration : 14mn 13s
Bit rate : 3 774 Kbps
Width : 1 920 pixels
Height : 1 080 pixels
Display aspect ratio : 16:9
Frame rate mode : Constant
Frame rate : 25.000 fps
Color space : YUV
Chroma subsampling : 4:2:0
Bit depth : 8 bits
Scan type : Progressive
Bits/(Pixel*Frame) : 0.073
Stream size : 384 MiB (93%)
Default : Yes
Forced : No
Audio
ID : 2
Format : MPEG Audio
Format version : Version 1
Format profile : Layer 3
Mode : Joint stereo
Muxing mode : Header stripping
Codec ID : A_MPEG/L3
Codec ID/Hint : MP3
Duration : 14mn 13s
Bit rate mode : Constant
Bit rate : 192 Kbps
Channel(s) : 2 channels
Sampling rate : 44.1 KHz
Compression mode : Lossy
Stream size : 19.5 MiB (5%)
Default : Yes
Forced : No
Продолжительность
0:14:14
Скриншоты
S05E14 Фигаро против Ведёрка / Figaro vs The Blue Turd
Битва Фигаро против Синего Ведёрка
MediaInfo
General
Unique ID : 237606015980806233221105886745776670741 (0xB2C1410DA427C865BFDAE3251364C815)
Complete name : F:\DC++\Downloads\!Torrent\Mighty Car Mods Season 5 [BMIRussian] (1080p)\S05E14 Nissan Figaro VS Daihatsu Blue Turd Final Battle [BMIRussian].mkv
Format : Matroska
Format version : Version 2
File size : 176 MiB
Duration : 6mn 16s
Overall bit rate : 3 924 Kbps
Encoded date : UTC 2014-07-24 11:21:33
Writing application : mkvmerge v4.2.0 ('No Talking') сборка от Jul 28 2010 18:38:23
Writing library : libebml v1.0.0 + libmatroska v1.0.0
Video
ID : 1
Format : AVC
Format/Info : Advanced Video Codec
Format profile : [email protected]
Format settings, CABAC : Yes
Format settings, ReFrames : 3 frames
Muxing mode : Header stripping
Codec ID : V_MPEG4/ISO/AVC
Duration : 6mn 16s
Bit rate : 3 654 Kbps
Width : 1 920 pixels
Height : 1 080 pixels
Display aspect ratio : 16:9
Frame rate mode : Constant
Frame rate : 25.000 fps
Color space : YUV
Chroma subsampling : 4:2:0
Bit depth : 8 bits
Scan type : Progressive
Bits/(Pixel*Frame) : 0.070
Stream size : 164 MiB (93%)
Default : Yes
Forced : No
Audio
ID : 2
Format : MPEG Audio
Format version : Version 1
Format profile : Layer 3
Mode : Joint stereo
Muxing mode : Header stripping
Codec ID : A_MPEG/L3
Codec ID/Hint : MP3
Duration : 6mn 16s
Bit rate mode : Constant
Bit rate : 192 Kbps
Channel(s) : 2 channels
Sampling rate : 44.1 KHz
Compression mode : Lossy
Stream size : 8.63 MiB (5%)
Default : Yes
Forced : No
Продолжительность
0:06:17
Скриншоты
S05E15 Муг показывает нового противника Ведёрка / Moog reveals the new Turd Challenger
Муг выводит на сцену V8!
MediaInfo
General
Unique ID : 171725512970507310764851128392088026983 (0x81312179C88722ECA035276D6BD7FF67)
Complete name : E:\Mighty Car Mods Season 5 [BMIRussian] (1080p)\S05E15 Moog reveals the new Turd Challenger [BMIRussian].mkv
Format : Matroska
Format version : Version 2
File size : 150 MiB
Duration : 5mn 30s
Overall bit rate : 3 799 Kbps
Encoded date : UTC 2014-07-30 10:26:09
Writing application : mkvmerge v4.2.0 ('No Talking') сборка от Jul 28 2010 18:38:23
Writing library : libebml v1.0.0 + libmatroska v1.0.0
Video
ID : 1
Format : AVC
Format/Info : Advanced Video Codec
Format profile : [email protected]
Format settings, CABAC : Yes
Format settings, ReFrames : 3 frames
Muxing mode : Header stripping
Codec ID : V_MPEG4/ISO/AVC
Duration : 5mn 30s
Bit rate : 3 531 Kbps
Width : 1 920 pixels
Height : 1 080 pixels
Display aspect ratio : 16:9
Frame rate mode : Constant
Frame rate : 25.000 fps
Color space : YUV
Chroma subsampling : 4:2:0
Bit depth : 8 bits
Scan type : Progressive
Bits/(Pixel*Frame) : 0.068
Stream size : 139 MiB (93%)
Default : Yes
Forced : No
Audio
ID : 2
Format : MPEG Audio
Format version : Version 1
Format profile : Layer 3
Mode : Joint stereo
Mode extension : MS Stereo
Muxing mode : Header stripping
Codec ID : A_MPEG/L3
Codec ID/Hint : MP3
Duration : 5mn 30s
Bit rate mode : Constant
Bit rate : 192 Kbps
Channel(s) : 2 channels
Sampling rate : 44.1 KHz
Compression mode : Lossy
Stream size : 7.56 MiB (5%)
Default : Yes
Forced : No
Продолжительность
0:05:30
Скриншоты
S05E16 V8 против Ведёрка / V8 VS TURD
Это, как сказал Муг - последний эпизод сериала "Битва Вёдер" VN Commodore против Daihatsu!
MediaInfo
General
Unique ID : 220745802401657574265158696598567200470 (0xA612185819D8B84DA7595650BAED26D6)
Complete name : E:\Mighty Car Mods Season 5 [BMIRussian] (1080p)\S05E16 V8 VS TURD [BMIRussian].mkv
Format : Matroska
Format version : Version 2
File size : 389 MiB
Duration : 15mn 19s
Overall bit rate : 3 553 Kbps
Encoded date : UTC 2014-07-30 16:58:23
Writing application : mkvmerge v4.2.0 ('No Talking') сборка от Jul 28 2010 18:38:23
Writing library : libebml v1.0.0 + libmatroska v1.0.0
Video
ID : 1
Format : AVC
Format/Info : Advanced Video Codec
Format profile : [email protected]
Format settings, CABAC : Yes
Format settings, ReFrames : 3 frames
Muxing mode : Header stripping
Codec ID : V_MPEG4/ISO/AVC
Duration : 15mn 19s
Bit rate : 3 290 Kbps
Width : 1 920 pixels
Height : 1 080 pixels
Display aspect ratio : 16:9
Frame rate mode : Constant
Frame rate : 25.000 fps
Color space : YUV
Chroma subsampling : 4:2:0
Bit depth : 8 bits
Scan type : Progressive
Bits/(Pixel*Frame) : 0.063
Stream size : 361 MiB (93%)
Default : Yes
Forced : No
Audio
ID : 2
Format : MPEG Audio
Format version : Version 1
Format profile : Layer 3
Mode : Joint stereo
Muxing mode : Header stripping
Codec ID : A_MPEG/L3
Codec ID/Hint : MP3
Duration : 15mn 19s
Bit rate mode : Constant
Bit rate : 192 Kbps
Channel(s) : 2 channels
Sampling rate : 44.1 KHz
Compression mode : Lossy
Stream size : 21.0 MiB (5%)
Default : Yes
Forced : No
Продолжительность
0:15:19
Скриншоты
S05E17 Как установить сигнализацию / How to Install an Alarm
В этом выпуске Марти с Мугом устанавливают сигнализацию в MX-5 Мартина.
MediaInfo
General
Unique ID : 171927917464563798892063842292909324761 (0x81581CC9A968449680C456FC30B1B9D9)
Complete name : E:\Mighty Car Mods Season 5 [BMIRussian] (1080p)\S05E17 How to Install an Alarm [BMIRussian].mkv
Format : Matroska
Format version : Version 2
File size : 466 MiB
Duration : 20mn 0s
Overall bit rate : 3 259 Kbps
Encoded date : UTC 2014-08-06 15:25:02
Writing application : mkvmerge v4.2.0 ('No Talking') сборка от Jul 28 2010 18:38:23
Writing library : libebml v1.0.0 + libmatroska v1.0.0
Video
ID : 1
Format : AVC
Format/Info : Advanced Video Codec
Format profile : [email protected]
Format settings, CABAC : Yes
Format settings, ReFrames : 3 frames
Muxing mode : Header stripping
Codec ID : V_MPEG4/ISO/AVC
Duration : 20mn 0s
Bit rate : 3 002 Kbps
Width : 1 920 pixels
Height : 1 080 pixels
Display aspect ratio : 16:9
Frame rate mode : Constant
Frame rate : 25.000 fps
Color space : YUV
Chroma subsampling : 4:2:0
Bit depth : 8 bits
Scan type : Progressive
Bits/(Pixel*Frame) : 0.058
Stream size : 429 MiB (92%)
Default : Yes
Forced : No
Audio
ID : 2
Format : MPEG Audio
Format version : Version 1
Format profile : Layer 3
Mode : Joint stereo
Muxing mode : Header stripping
Codec ID : A_MPEG/L3
Codec ID/Hint : MP3
Duration : 20mn 0s
Bit rate mode : Constant
Bit rate : 192 Kbps
Channel(s) : 2 channels
Sampling rate : 44.1 KHz
Compression mode : Lossy
Stream size : 27.5 MiB (6%)
Default : Yes
Forced : No
Продолжительность
0:20:00
Скриншоты
S05E18 Устанавливаем в машину Airplay / Install Airplay In Your Car
В этом условно-бонусном эпизоде ребята поставят систему Airplay в Forester Муга.
MediaInfo
General
Unique ID : 171108538592069604458227860814440093508 (0x80BA4E4A510982D196BDD18E3656D744)
Complete name : E:\Mighty Car Mods Season 5 [BMIRussian] (1080p)\S05E18 Install Airplay In Your Car [BMIRussian].mkv
Format : Matroska
Format version : Version 2
File size : 125 MiB
Duration : 4mn 55s
Overall bit rate : 3 540 Kbps
Encoded date : UTC 2014-08-09 13:21:18
Writing application : mkvmerge v4.2.0 ('No Talking') сборка от Jul 28 2010 18:38:23
Writing library : libebml v1.0.0 + libmatroska v1.0.0
Video
ID : 1
Format : AVC
Format/Info : Advanced Video Codec
Format profile : [email protected]
Format settings, CABAC : Yes
Format settings, ReFrames : 3 frames
Muxing mode : Header stripping
Codec ID : V_MPEG4/ISO/AVC
Duration : 4mn 55s
Bit rate : 3 277 Kbps
Width : 1 920 pixels
Height : 1 080 pixels
Display aspect ratio : 16:9
Frame rate mode : Constant
Frame rate : 25.000 fps
Color space : YUV
Chroma subsampling : 4:2:0
Bit depth : 8 bits
Scan type : Progressive
Bits/(Pixel*Frame) : 0.063
Stream size : 115 MiB (93%)
Default : Yes
Forced : No
Audio
ID : 2
Format : MPEG Audio
Format version : Version 1
Format profile : Layer 3
Mode : Joint stereo
Muxing mode : Header stripping
Codec ID : A_MPEG/L3
Codec ID/Hint : MP3
Duration : 4mn 55s
Bit rate mode : Constant
Bit rate : 192 Kbps
Channel(s) : 2 channels
Sampling rate : 44.1 KHz
Compression mode : Lossy
Stream size : 6.76 MiB (5%)
Default : Yes
Forced : No
Продолжительность
0:45:55
Скриншоты
S05E19 Исследования и разработки на гоночном треке / Race Track R&D
В этом эпизоде Марти попросит профессионального гонщика прокатиться по треку на его MX-5, чтобы понять, как дальше улучшать машину.
MediaInfo
General
Unique ID : 182155936710908898529925020414773072357 (0x8909F512009C29F5B5C10728DF6C91E5)
Complete name : E:\Mighty Car Mods Season 5 [BMIRussian] (1080p)\S05E19 Race Track R&D [BMIRussian].mkv
Format : Matroska
Format version : Version 2
File size : 266 MiB
Duration : 10mn 48s
Overall bit rate : 3 447 Kbps
Encoded date : UTC 2014-08-09 13:22:02
Writing application : mkvmerge v4.2.0 ('No Talking') сборка от Jul 28 2010 18:38:23
Writing library : libebml v1.0.0 + libmatroska v1.0.0
Video
ID : 1
Format : AVC
Format/Info : Advanced Video Codec
Format profile : [email protected]
Format settings, CABAC : Yes
Format settings, ReFrames : 3 frames
Muxing mode : Header stripping
Codec ID : V_MPEG4/ISO/AVC
Duration : 10mn 48s
Bit rate : 3 186 Kbps
Width : 1 920 pixels
Height : 1 080 pixels
Display aspect ratio : 16:9
Frame rate mode : Constant
Frame rate : 25.000 fps
Color space : YUV
Chroma subsampling : 4:2:0
Bit depth : 8 bits
Scan type : Progressive
Bits/(Pixel*Frame) : 0.061
Stream size : 246 MiB (92%)
Default : Yes
Forced : No
Audio
ID : 2
Format : MPEG Audio
Format version : Version 1
Format profile : Layer 3
Mode : Joint stereo
Mode extension : MS Stereo
Muxing mode : Header stripping
Codec ID : A_MPEG/L3
Codec ID/Hint : MP3
Duration : 10mn 48s
Bit rate mode : Constant
Bit rate : 192 Kbps
Channel(s) : 2 channels
Sampling rate : 44.1 KHz
Compression mode : Lossy
Stream size : 14.8 MiB (6%)
Default : Yes
Forced : No
Продолжительность
0:10:48
Скриншоты
S05E20 Как установить роллбар (защитную дугу) / How to Install a Roll Bar
В этом эпизоде ребята устанавливают дугу безопасности на MX-5 Мартина.
MediaInfo
General
Unique ID : 187011191791970909414915240301077783798 (0x8CB10BA0B2123CF49FD368CD39B4E4F6)
Complete name : E:\Mighty Car Mods Season 5 [BMIRussian] (1080p)\S05E20 How to Install a Roll Bar [BMIRussian].mkv
Format : Matroska
Format version : Version 2
File size : 305 MiB
Duration : 13mn 21s
Overall bit rate : 3 192 Kbps
Encoded date : UTC 2014-08-11 17:18:01
Writing application : mkvmerge v4.2.0 ('No Talking') сборка от Jul 28 2010 18:38:23
Writing library : libebml v1.0.0 + libmatroska v1.0.0
Video
ID : 1
Format : AVC
Format/Info : Advanced Video Codec
Format profile : [email protected]
Format settings, CABAC : Yes
Format settings, ReFrames : 3 frames
Muxing mode : Header stripping
Codec ID : V_MPEG4/ISO/AVC
Duration : 13mn 21s
Bit rate : 2 937 Kbps
Width : 1 920 pixels
Height : 1 080 pixels
Display aspect ratio : 16:9
Frame rate mode : Constant
Frame rate : 25.000 fps
Color space : YUV
Chroma subsampling : 4:2:0
Bit depth : 8 bits
Scan type : Progressive
Bits/(Pixel*Frame) : 0.057
Stream size : 281 MiB (92%)
Default : Yes
Forced : No
Audio
ID : 2
Format : MPEG Audio
Format version : Version 1
Format profile : Layer 3
Mode : Joint stereo
Muxing mode : Header stripping
Codec ID : A_MPEG/L3
Codec ID/Hint : MP3
Duration : 13mn 21s
Bit rate mode : Constant
Bit rate : 192 Kbps
Channel(s) : 2 channels
Sampling rate : 44.1 KHz
Compression mode : Lossy
Stream size : 18.3 MiB (6%)
Default : Yes
Forced : No
Продолжительность
0:13:21
Скриншоты
S05E21 Ведёрко отправляется под пресс / Martys car gets crushed
В этом эпизоде ведёрко отправится под пресс... Но у ребят появятся новые тачки!
MediaInfo
General
Unique ID : 254656265959902624766911291437315471569 (0xBF950347C3EAFBB79AE1A304094338D1)
Complete name : E:\Mighty Car Mods Season 5 [BMIRussian] (1080p)\S05E21 Martys car gets crushed [BMIRussian].mkv
Format : Matroska
Format version : Version 2
File size : 170 MiB
Duration : 6mn 51s
Overall bit rate : 3 461 Kbps
Encoded date : UTC 2014-08-17 19:12:44
Writing application : mkvmerge v4.2.0 ('No Talking') сборка от Jul 28 2010 18:38:23
Writing library : libebml v1.0.0 + libmatroska v1.0.0
Video
ID : 1
Format : AVC
Format/Info : Advanced Video Codec
Format profile : [email protected]
Format settings, CABAC : Yes
Format settings, ReFrames : 3 frames
Muxing mode : Header stripping
Codec ID : V_MPEG4/ISO/AVC
Duration : 6mn 51s
Bit rate : 3 200 Kbps
Width : 1 920 pixels
Height : 1 080 pixels
Display aspect ratio : 16:9
Frame rate mode : Constant
Frame rate : 25.000 fps
Color space : YUV
Chroma subsampling : 4:2:0
Bit depth : 8 bits
Scan type : Progressive
Bits/(Pixel*Frame) : 0.062
Stream size : 157 MiB (92%)
Default : Yes
Forced : No
Audio
ID : 2
Format : MPEG Audio
Format version : Version 1
Format profile : Layer 3
Mode : Joint stereo
Muxing mode : Header stripping
Codec ID : A_MPEG/L3
Codec ID/Hint : MP3
Duration : 6mn 51s
Bit rate mode : Constant
Bit rate : 192 Kbps
Channel(s) : 2 channels
Sampling rate : 44.1 KHz
Compression mode : Lossy
Stream size : 9.42 MiB (6%)
Default : Yes
Forced : No
Продолжительность
0:06:51
Скриншоты
S05E22 Устанавливаем распорки / Performance Bracing
В этом эпизоде ребята будут устанавливать различные распорки на MX-5 Мартина
MediaInfo
General
Unique ID : 249222479940955461568552948356344690071 (0xBB7E80F20AD830F0AD80F02C3E0FB597)
Complete name : E:\Mighty Car Mods Season 5 [BMIRussian] (1080p)\S05E22 Performance Bracing [BMIRussian].mkv
Format : Matroska
Format version : Version 2
File size : 307 MiB
Duration : 14mn 20s
Overall bit rate : 2 997 Kbps
Encoded date : UTC 2014-08-20 11:49:43
Writing application : mkvmerge v4.2.0 ('No Talking') сборка от Jul 28 2010 18:38:23
Writing library : libebml v1.0.0 + libmatroska v1.0.0
Video
ID : 1
Format : AVC
Format/Info : Advanced Video Codec
Format profile : [email protected]
Format settings, CABAC : Yes
Format settings, ReFrames : 3 frames
Muxing mode : Header stripping
Codec ID : V_MPEG4/ISO/AVC
Duration : 14mn 20s
Bit rate : 2 745 Kbps
Width : 1 920 pixels
Height : 1 080 pixels
Display aspect ratio : 16:9
Frame rate mode : Constant
Frame rate : 24.000 fps
Color space : YUV
Chroma subsampling : 4:2:0
Bit depth : 8 bits
Scan type : Progressive
Bits/(Pixel*Frame) : 0.055
Stream size : 282 MiB (92%)
Default : Yes
Forced : No
Audio
ID : 2
Format : MPEG Audio
Format version : Version 1
Format profile : Layer 3
Mode : Joint stereo
Mode extension : MS Stereo
Muxing mode : Header stripping
Codec ID : A_MPEG/L3
Codec ID/Hint : MP3
Duration : 14mn 20s
Bit rate mode : Constant
Bit rate : 192 Kbps
Channel(s) : 2 channels
Sampling rate : 44.1 KHz
Compression mode : Lossy
Stream size : 19.7 MiB (6%)
Default : Yes
Forced : No
Продолжительность
0:14:20
Скриншоты
S05E23 Как установить армированные тормозные шланги / How to Install Braided Brake Lines
В этом выпуске ребята займутся установкой армированных тормозных шлангов на MX-5 Мартина.
MediaInfo
General
Unique ID : 177741286919791770504124412316299648542 (0x85B7BA07EA44CD61B3CD35C7A7D95E1E)
Complete name : E:\Mighty Car Mods Season 5 [BMIRussian] (1080p)\S05E23 How to Install Braided Brake Lines [BMIRussian].mkv
Format : Matroska
Format version : Version 2
File size : 250 MiB
Duration : 11mn 4s
Overall bit rate : 3 156 Kbps
Encoded date : UTC 2014-08-20 11:50:29
Writing application : mkvmerge v4.2.0 ('No Talking') сборка от Jul 28 2010 18:38:23
Writing library : libebml v1.0.0 + libmatroska v1.0.0
Video
ID : 1
Format : AVC
Format/Info : Advanced Video Codec
Format profile : [email protected]
Format settings, CABAC : Yes
Format settings, ReFrames : 3 frames
Muxing mode : Header stripping
Codec ID : V_MPEG4/ISO/AVC
Duration : 11mn 4s
Bit rate : 2 901 Kbps
Width : 1 920 pixels
Height : 1 080 pixels
Display aspect ratio : 16:9
Frame rate mode : Constant
Frame rate : 25.000 fps
Color space : YUV
Chroma subsampling : 4:2:0
Bit depth : 8 bits
Scan type : Progressive
Bits/(Pixel*Frame) : 0.056
Stream size : 230 MiB (92%)
Default : Yes
Forced : No
Audio
ID : 2
Format : MPEG Audio
Format version : Version 1
Format profile : Layer 3
Mode : Joint stereo
Muxing mode : Header stripping
Codec ID : A_MPEG/L3
Codec ID/Hint : MP3
Duration : 11mn 4s
Bit rate mode : Constant
Bit rate : 192 Kbps
Channel(s) : 2 channels
Sampling rate : 44.1 KHz
Compression mode : Lossy
Stream size : 15.2 MiB (6%)
Default : Yes
Forced : No
Продолжительность
0:11:04
Скриншоты
S05E24 11-секундный проект Марти / S05E24 Martys 11 Second Project Car
В этом выпуске Марти покажет свою новую машину
MediaInfo
Общее
Уникальный идентификатор : 177794947651764720191215193804283239891 (0x85C20FB5929C3B0AAAC8B2D92FC6DDD3)
Полное имя : E:\Mighty Car Mods Season 5 [BMIRussian] (1080p)\S05E24 Martys 11 Second Project Car [BMIRussian].mkv
Формат : Matroska
Версия формата : Version 2
Размер файла : 152 Мбайт
Продолжительность : 7 м. 11 с.
Общий поток : 2964 Кбит/сек
Дата кодирования : UTC 2014-08-26 17:12:41
Программа кодирования : mkvmerge v4.2.0 ('No Talking') сборка от Jul 28 2010 18:38:23
Библиотека кодирования : libebml v1.0.0 + libmatroska v1.0.0
Видео
Идентификатор : 1
Формат : AVC
Формат/Информация : Advanced Video Codec
Профиль формата : [email protected]
Параметр CABAC формата : Да
Параметр ReFrames формата : 3 кадра
Режим смешивания : Header stripping
Идентификатор кодека : V_MPEG4/ISO/AVC
Продолжительность : 7 м. 11 с.
Битрейт : 2713 Кбит/сек
Ширина : 1920 пикселей
Высота : 1080 пикселей
Соотношение сторон : 16:9
Режим частоты кадров : Постоянный
Частота кадров : 25,000 кадров/сек
Цветовое пространство : YUV
Субдискретизация насыщенности : 4:2:0
Битовая глубина : 8 бит
Тип развёртки : Прогрессивная
Бит/(Пиксели*Кадры) : 0.052
Размер потока : 139 Мбайт (92%)
Default : Да
Forced : Нет
Аудио
Идентификатор : 2
Формат : MPEG Audio
Версия формата : Version 1
Профиль формата : Layer 3
Режим : Joint stereo
Расширение режима : MS Stereo
Режим смешивания : Header stripping
Идентификатор кодека : A_MPEG/L3
Идентификатор кодека/Подсказка : MP3
Продолжительность : 7 м. 11 с.
Вид битрейта : Постоянный
Битрейт : 192 Кбит/сек
Каналы : 2 канала
Частота : 48,0 КГц
Метод сжатия : С потерями
Размер потока : 9,87 Мбайт (6%)
Default : Да
Forced : Нет
Продолжительность
0:07:12
Скриншоты
S05E25 S2000 Муга / Moogs Honda S2000
В этом выпуске Муг расскажет о своей новой машине.
MediaInfo
General
Unique ID : 255113852868374478433183079789906454521 (0xBFED240E87D8FA368C188D0FF7D167F9)
Complete name : E:\Mighty Car Mods Season 5 [BMIRussian] (1080p)\S05E25 Moogs Honda S2000 [BMIRussian].mkv
Format : Matroska
Format version : Version 2
File size : 400 MiB
Duration : 16mn 1s
Overall bit rate : 3 494 Kbps
Encoded date : UTC 2014-08-30 19:53:41
Writing application : mkvmerge v4.2.0 ('No Talking') сборка от Jul 28 2010 18:38:23
Writing library : libebml v1.0.0 + libmatroska v1.0.0
Video
ID : 1
Format : AVC
Format/Info : Advanced Video Codec
Format profile : [email protected]
Format settings, CABAC : Yes
Format settings, ReFrames : 3 frames
Muxing mode : Header stripping
Codec ID : V_MPEG4/ISO/AVC
Duration : 16mn 1s
Bit rate : 3 232 Kbps
Width : 1 920 pixels
Height : 1 080 pixels
Display aspect ratio : 16:9
Frame rate mode : Constant
Frame rate : 25.000 fps
Color space : YUV
Chroma subsampling : 4:2:0
Bit depth : 8 bits
Scan type : Progressive
Bits/(Pixel*Frame) : 0.062
Stream size : 370 MiB (93%)
Default : Yes
Forced : No
Audio
ID : 2
Format : MPEG Audio
Format version : Version 1
Format profile : Layer 3
Mode : Joint stereo
Muxing mode : Header stripping
Codec ID : A_MPEG/L3
Codec ID/Hint : MP3
Duration : 16mn 1s
Bit rate mode : Constant
Bit rate : 192 Kbps
Channel(s) : 2 channels
Sampling rate : 48.0 KHz
Compression mode : Lossy
Stream size : 22.0 MiB (5%)
Default : Yes
Forced : No
Продолжительность
0:16:01
Скриншоты
S05E26 МХ5 против S2000 / Mazda MX5 VS Honda S2000
В этом финальном выпуске 5-го сезона ребята будут выяснять, чей же кабрик быстрее.
MediaInfo
Общее
Уникальный идентификатор : 235857084237621317827391620498652944544 (0xB1706C0F9776A66691DA6300862458A0)
Полное имя : E:\Mighty Car Mods Season 5 [BMIRussian] (1080p)\S05E26 Mazda MX5 VS Honda S2000 [BMIRussian].mkv
Формат : Matroska
Версия формата : Version 4 / Version 2
Размер файла : 448 Мбайт
Продолжительность : 22 м.
Общий поток : 2799 Кбит/сек
Дата кодирования : UTC 2014-09-11 19:05:11
Программа кодирования : mkvmerge v7.1.0 ('Good Love') 64bit built on Jul 27 2014 13:06:55
Библиотека кодирования : libebml v1.3.0 + libmatroska v1.4.1
DURATION : 00:22:21.888000000
NUMBER_OF_FRAMES : 55912
NUMBER_OF_BYTES : 32205312
_STATISTICS_WRITING_APP : mkvmerge v7.1.0 ('Good Love') 64bit built on Jul 27 2014 13:06:55
_STATISTICS_WRITING_DATE_UTC : 2014-09-11 19:05:11
_STATISTICS_TAGS : BPS DURATION NUMBER_OF_FRAMES NUMBER_OF_BYTES
Видео
Идентификатор : 1
Формат : AVC
Формат/Информация : Advanced Video Codec
Профиль формата : [email protected]
Параметр CABAC формата : Да
Параметр ReFrames формата : 3 кадра
Идентификатор кодека : V_MPEG4/ISO/AVC
Продолжительность : 22 м.
Битрейт : 2551 Кбит/сек
Ширина : 1920 пикселей
Высота : 1080 пикселей
Соотношение сторон : 16:9
Режим частоты кадров : Постоянный
Частота кадров : 25,000 кадров/сек
Цветовое пространство : YUV
Субдискретизация насыщенности : 4:2:0
Битовая глубина : 8 бит
Тип развёртки : Прогрессивная
Бит/(Пиксели*Кадры) : 0.049
Размер потока : 408 Мбайт (91%)
Default : Да
Forced : Нет
Аудио
Идентификатор : 2
Формат : MPEG Audio
Версия формата : Version 1
Профиль формата : Layer 3
Режим : Joint stereo
Расширение режима : MS Stereo
Идентификатор кодека : A_MPEG/L3
Идентификатор кодека/Подсказка : MP3
Продолжительность : 22 м.
Вид битрейта : Постоянный
Битрейт : 192 Кбит/сек
Каналы : 2 канала
Частота : 48,0 КГц
Метод сжатия : С потерями
Размер потока : 30,7 Мбайт (7%)
Default : Да
Forced : Нет
Продолжительность
0:22:23
Скриншоты
S05 BONUS 180SX Reveal
Клип с дрифтящей построенной 180SX
MediaInfo
General
Unique ID : 172755185145575339641446979208304021499 (0x81F7703BC4DCB786BE13C9D6FB364FFB)
Complete name : F:\DC++\Downloads\!Torrent\Mighty Car Mods Season 5 [BMIRussian] (1080p)\Bonuses\Mighty Car Mods 180SX Reveal.mkv
Format : Matroska
Format version : Version 2
File size : 74.7 MiB
Duration : 3mn 40s
Overall bit rate : 2 848 Kbps
Encoded date : UTC 2014-05-17 14:52:58
Writing application : mkvmerge v4.2.0 ('No Talking') сборка от Jul 28 2010 18:38:23
Writing library : libebml v1.0.0 + libmatroska v1.0.0
Video
ID : 1
Format : AVC
Format/Info : Advanced Video Codec
Format profile : [email protected]
Format settings, CABAC : Yes
Format settings, ReFrames : 3 frames
Muxing mode : Header stripping
Codec ID : V_MPEG4/ISO/AVC
Duration : 3mn 40s
Width : 1 920 pixels
Height : 1 080 pixels
Display aspect ratio : 16:9
Frame rate mode : Constant
Frame rate : 25.000 fps
Color space : YUV
Chroma subsampling : 4:2:0
Bit depth : 8 bits
Scan type : Progressive
Default : Yes
Forced : No
Audio
ID : 2
Format : AAC
Format/Info : Advanced Audio Codec
Format profile : LC
Codec ID : A_AAC
Duration : 3mn 40s
Channel(s) : 2 channels
Channel positions : Front: L R
Sampling rate : 44.1 KHz
Compression mode : Lossy
Default : Yes
Forced : No
Продолжительность
0:3:40
Скриншоты
S05 BONUS Интервью на YouTube FanFest 2013 720p
Занятное и объёмное интервью, не смотря на туповатость ведущей.
MediaInfo
бщее
Уникальный идентификатор : 197119258844827856382952314206160108395 (0x944BC9CF804F8650B24645EC3DF33B6B)
Полное имя : F:\DC++\Downloads\!Torrent\Mighty Car Mods Season 5 [BMIRussian] (1080p)\Bonuses\Mighty Car Mods Interview at Youtube FanFest 2013 [BMIRussian].mkv
Формат : Matroska
Версия формата : Version 2
Размер файла : 362 Мбайт
Продолжительность : 23 м.
Общий поток : 2130 Кбит/сек
Дата кодирования : UTC 2014-04-10 18:56:54
Программа кодирования : mkvmerge v4.2.0 ('No Talking') сборка от Jul 28 2010 18:38:23
Библиотека кодирования : libebml v1.0.0 + libmatroska v1.0.0
Видео
Идентификатор : 1
Формат : AVC
Формат/Информация : Advanced Video Codec
Профиль формата : [email protected]
Параметр CABAC формата : Да
Параметр ReFrames формата : 1 кадр
Режим смешивания : Header stripping
Идентификатор кодека : V_MPEG4/ISO/AVC
Продолжительность : 23 м.
Битрейт : 1896 Кбит/сек
Ширина : 1280 пикселей
Высота : 720 пикселей
Соотношение сторон : 16:9
Режим частоты кадров : Постоянный
Частота кадров : 25,000 кадров/сек
Цветовое пространство : YUV
Субдискретизация насыщенности : 4:2:0
Битовая глубина : 8 бит
Тип развёртки : Прогрессивная
Бит/(Пиксели*Кадры) : 0.082
Размер потока : 322 Мбайт (89%)
Default : Да
Forced : Нет
Аудио
Идентификатор : 2
Формат : MPEG Audio
Версия формата : Version 1
Профиль формата : Layer 3
Режим : Joint stereo
Расширение режима : MS Stereo
Режим смешивания : Header stripping
Идентификатор кодека : A_MPEG/L3
Идентификатор кодека/Подсказка : MP3
Продолжительность : 23 м.
Вид битрейта : Постоянный
Битрейт : 192 Кбит/сек
Каналы : 2 канала
Частота : 44,1 КГц
Метод сжатия : С потерями
Размер потока : 32,6 Мбайт (9%)
Default : Да
Forced : Нет
Продолжительность
0:23:45
Скриншоты
S05 BONUS Кладбище AE86 / AE86 Cemetery
Кладбище 86ых в Японии
MediaInfo
General
Unique ID : 209145710893775760707232682746121126666 (0x9D57FFAD199FDDEF9D7A198CEF15830A)
Complete name : F:\DC++\Downloads\!Torrent\Mighty Car Mods Season 5 [BMIRussian] (1080p)\Bonuses\Mighty Car Mods AE86 Cemetery [BMIRussian].mkv
Format : Matroska
Format version : Version 2
File size : 16.1 MiB
Duration : 31s 817ms
Overall bit rate : 4 240 Kbps
Encoded date : UTC 2014-05-14 11:38:21
Writing application : mkvmerge v4.2.0 ('No Talking') сборка от Jul 28 2010 18:38:23
Writing library : libebml v1.0.0 + libmatroska v1.0.0
Video
ID : 1
Format : AVC
Format/Info : Advanced Video Codec
Format profile : [email protected]
Format settings, CABAC : Yes
Format settings, ReFrames : 3 frames
Muxing mode : Header stripping
Codec ID : V_MPEG4/ISO/AVC
Duration : 31s 832ms
Bit rate : 3 964 Kbps
Width : 1 920 pixels
Height : 1 080 pixels
Display aspect ratio : 16:9
Frame rate mode : Constant
Frame rate : 29.970 fps
Color space : YUV
Chroma subsampling : 4:2:0
Bit depth : 8 bits
Scan type : Progressive
Bits/(Pixel*Frame) : 0.064
Stream size : 15.0 MiB (94%)
Default : Yes
Forced : No
Audio
ID : 2
Format : MPEG Audio
Format version : Version 1
Format profile : Layer 3
Mode : Joint stereo
Muxing mode : Header stripping
Codec ID : A_MPEG/L3
Codec ID/Hint : MP3
Duration : 31s 817ms
Bit rate mode : Constant
Bit rate : 192 Kbps
Channel(s) : 2 channels
Sampling rate : 44.1 KHz
Compression mode : Lossy
Stream size : 746 KiB (5%)
Default : Yes
Forced : No
Продолжительность
0:00:32
Скриншоты
S05 BONUS Странная переделка дворников в Японии / Weird Wiper Mod in Japan 720p
Забавный мод дворников.
MediaInfo
General
Unique ID : 191119674580181109963930681356056538588 (0x8FC84F77EAF985DA8CD9842497202DDC)
Complete name : F:\DC++\Downloads\!Torrent\Mighty Car Mods Season 5 [BMIRussian] (1080p)\Bonuses\Mighty Car Mods Weird Japanese Wiper Mod [BMIRussian].mkv
Format : Matroska
Format version : Version 2
File size : 9.39 MiB
Duration : 25s 234ms
Overall bit rate : 3 122 Kbps
Encoded date : UTC 2014-05-14 11:40:15
Writing application : mkvmerge v4.2.0 ('No Talking') сборка от Jul 28 2010 18:38:23
Writing library : libebml v1.0.0 + libmatroska v1.0.0
Video
ID : 1
Format : AVC
Format/Info : Advanced Video Codec
Format profile : [email protected]
Format settings, CABAC : Yes
Format settings, ReFrames : 1 frame
Muxing mode : Header stripping
Codec ID : V_MPEG4/ISO/AVC
Duration : 25s 250ms
Bit rate : 2 868 Kbps
Width : 1 280 pixels
Height : 720 pixels
Display aspect ratio : 16:9
Frame rate mode : Constant
Frame rate : 24.000 fps
Color space : YUV
Chroma subsampling : 4:2:0
Bit depth : 8 bits
Scan type : Progressive
Bits/(Pixel*Frame) : 0.130
Stream size : 8.63 MiB (92%)
Default : Yes
Forced : No
Audio
ID : 2
Format : MPEG Audio
Format version : Version 1
Format profile : Layer 3
Mode : Joint stereo
Mode extension : MS Stereo
Muxing mode : Header stripping
Codec ID : A_MPEG/L3
Codec ID/Hint : MP3
Duration : 25s 233ms
Bit rate mode : Constant
Bit rate : 192 Kbps
Channel(s) : 2 channels
Sampling rate : 44.1 KHz
Compression mode : Lossy
Stream size : 591 KiB (6%)
Default : Yes
Forced : No
Продолжительность
0:00:25
Скриншоты
S05 BONUS Как турбировать атмосферник (за 5 минут)/ How to Turbo (in 5 minutes)
Краткая выжимка E08-10 для тех, у кого нет времени.
MediaInfo
General
Unique ID : 175343502059266621803001981958424854675 (0x83E9EE1C25413BD6811A65BA02AB8093)
Complete name : F:\DC++\Downloads\!Torrent\Mighty Car Mods Season 5 [BMIRussian] (1080p)\Bonuses\Mighty Car Mods How To Turbo Your Car (In 5 Minutes) [BMIRussian].mkv
Format : Matroska
Format version : Version 2
File size : 112 MiB
Duration : 5mn 23s
Overall bit rate : 2 908 Kbps
Encoded date : UTC 2014-07-02 11:40:14
Writing application : mkvmerge v4.2.0 ('No Talking') сборка от Jul 28 2010 18:38:23
Writing library : libebml v1.0.0 + libmatroska v1.0.0
Video
ID : 1
Format : AVC
Format/Info : Advanced Video Codec
Format profile : [email protected]
Format settings, CABAC : Yes
Format settings, ReFrames : 3 frames
Muxing mode : Header stripping
Codec ID : V_MPEG4/ISO/AVC
Duration : 5mn 23s
Bit rate : 2 658 Kbps
Width : 1 920 pixels
Height : 1 080 pixels
Display aspect ratio : 16:9
Frame rate mode : Constant
Frame rate : 25.000 fps
Color space : YUV
Chroma subsampling : 4:2:0
Bit depth : 8 bits
Scan type : Progressive
Bits/(Pixel*Frame) : 0.051
Stream size : 102 MiB (91%)
Default : Yes
Forced : No
Audio
ID : 2
Format : MPEG Audio
Format version : Version 1
Format profile : Layer 3
Mode : Joint stereo
Mode extension : MS Stereo
Muxing mode : Header stripping
Codec ID : A_MPEG/L3
Codec ID/Hint : MP3
Duration : 5mn 23s
Bit rate mode : Constant
Bit rate : 192 Kbps
Channel(s) : 2 channels
Sampling rate : 44.1 KHz
Compression mode : Lossy
Stream size : 7.40 MiB (7%)
Default : Yes
Forced : No
Продолжительность
0:05:23
Скриншоты
S05 BONUS Извинения - иногда мы ошибаемся./ Apology - sometimes we make mistakes
Короткий бонус, определяющий дальнейший ход сезона.
MediaInfo
General
Unique ID : 184598438217474525763488173735022403092 (0x8AE05DB131A6CFF8A4D86EECA7DB9E14)
Complete name : F:\DC++\Downloads\!Torrent\Mighty Car Mods Season 5 [BMIRussian] (1080p)\Bonuses\Mighty Car Mods Apology - Sometimes We Make Mistakes [BMIRussian].mkv
Format : Matroska
Format version : Version 2
File size : 56.0 MiB
Duration : 3mn 53s
Overall bit rate : 2 012 Kbps
Encoded date : UTC 2014-07-09 13:12:41
Writing application : mkvmerge v4.2.0 ('No Talking') сборка от Jul 28 2010 18:38:23
Writing library : libebml v1.0.0 + libmatroska v1.0.0
Video
ID : 1
Format : AVC
Format/Info : Advanced Video Codec
Format profile : [email protected]
Format settings, CABAC : Yes
Format settings, ReFrames : 3 frames
Muxing mode : Header stripping
Codec ID : V_MPEG4/ISO/AVC
Duration : 3mn 53s
Bit rate : 1 780 Kbps
Width : 1 920 pixels
Height : 1 080 pixels
Display aspect ratio : 16:9
Frame rate mode : Constant
Frame rate : 25.000 fps
Color space : YUV
Chroma subsampling : 4:2:0
Bit depth : 8 bits
Scan type : Progressive
Bits/(Pixel*Frame) : 0.034
Stream size : 49.6 MiB (88%)
Default : Yes
Forced : No
Audio
ID : 2
Format : MPEG Audio
Format version : Version 1
Format profile : Layer 3
Mode : Joint stereo
Muxing mode : Header stripping
Codec ID : A_MPEG/L3
Codec ID/Hint : MP3
Duration : 3mn 53s
Bit rate mode : Constant
Bit rate : 192 Kbps
Channel(s) : 2 channels
Sampling rate : 44.1 KHz
Compression mode : Lossy
Stream size : 5.35 MiB (10%)
Default : Yes
Forced : No
Продолжительность
0:03:24
Скриншоты
S05 BONUS Катаемся на Фигаро./ Cruising in Figaro
Небольшая поездка на "новом ниссане" Марти
MediaInfo
General
Unique ID : 199583605810272198087042352297926736881 (0x9626677F25F2F85CA9D5AE493C143BF1)
Complete name : F:\DC++\Downloads\!Torrent\Mighty Car Mods Season 5 [BMIRussian] (1080p)\Bonuses\Mighty Car Mods Cruising in the Nissan Figaro [BMIRussian].mkv
Format : Matroska
Format version : Version 2
File size : 365 MiB
Duration : 13mn 31s
Overall bit rate : 3 775 Kbps
Encoded date : UTC 2014-07-24 11:20:35
Writing application : mkvmerge v4.2.0 ('No Talking') сборка от Jul 28 2010 18:38:23
Writing library : libebml v1.0.0 + libmatroska v1.0.0
Video
ID : 1
Format : AVC
Format/Info : Advanced Video Codec
Format profile : [email protected]
Format settings, CABAC : Yes
Format settings, ReFrames : 3 frames
Muxing mode : Header stripping
Codec ID : V_MPEG4/ISO/AVC
Duration : 13mn 31s
Bit rate : 3 508 Kbps
Width : 1 920 pixels
Height : 1 080 pixels
Display aspect ratio : 16:9
Frame rate mode : Constant
Frame rate : 25.000 fps
Color space : YUV
Chroma subsampling : 4:2:0
Bit depth : 8 bits
Scan type : Progressive
Bits/(Pixel*Frame) : 0.068
Stream size : 339 MiB (93%)
Default : Yes
Forced : No
Audio
ID : 2
Format : MPEG Audio
Format version : Version 1
Format profile : Layer 3
Mode : Joint stereo
Muxing mode : Header stripping
Codec ID : A_MPEG/L3
Codec ID/Hint : MP3
Duration : 13mn 31s
Bit rate mode : Constant
Bit rate : 192 Kbps
Channel(s) : 2 channels
Sampling rate : 44.1 KHz
Compression mode : Lossy
Stream size : 18.6 MiB (5%)
Default : Yes
Forced : No
Продолжительность
0:13:32
Скриншоты
Download
Для скачивания .torrent файлов необходима регистрация
Сайт не распространяет и не хранит электронные версии произведений, а лишь предоставляет доступ к создаваемому пользователями каталогу ссылок на торрент-файлы, которые содержат только списки хеш-сумм
[Профиль]  [ЛС] 

Mr.Leon911

Стаж: 7 лет 6 месяцев

Сообщений: 235

Mr.Leon911 · 01-Май-14 22:40 (спустя 1 мин., ред. 03-Май-14 22:46)

[Цитировать] 

поехали )
Обновлено. добавлен второй эпизод. Третий - в пятницу.
[Профиль]  [ЛС] 

sania-3541

Стаж: 9 лет 4 месяца

Сообщений: 5


sania-3541 · 04-Май-14 12:29 (спустя 2 дня 13 часов, ред. 04-Май-14 12:29)

[Цитировать] 

спасибо за перевод, жду с нетерпением новых частей.
[Профиль]  [ЛС] 

Mr.Leon911

Стаж: 7 лет 6 месяцев

Сообщений: 235

Mr.Leon911 · 04-Май-14 12:30 (спустя 58 сек.)

[Цитировать] 

Номерные релизы по пятницам, за редким исключением. )
[Профиль]  [ЛС] 

Mr.Leon911

Стаж: 7 лет 6 месяцев

Сообщений: 235

Mr.Leon911 · 08-Май-14 12:39 (спустя 4 дня)

[Цитировать] 

Обновлено Добавлен 3ий выпуск. Следующий - 16го мая.
[Профиль]  [ЛС] 

Mr.Leon911

Стаж: 7 лет 6 месяцев

Сообщений: 235

Mr.Leon911 · 17-Май-14 18:00 (спустя 9 дней)

[Цитировать] 

Авторам можно выложить респекты на их оф. сайте )))
Если вдруг речь о переводчиках - спасибо. )
Обновлено
Добавлен 4ый выпуск+бонусы
[Профиль]  [ЛС] 

Mr.Leon911

Стаж: 7 лет 6 месяцев

Сообщений: 235

Mr.Leon911 · 01-Июн-14 13:54 (спустя 14 дней)

[Цитировать] 

Обновлено. Добавлен 5ый жпизод.
Сорри за задержку, забыл. Сейчас недельный перерыв из-за проблем с микрофоном. Проблема решена, но одну пятницу пропустили.
[Профиль]  [ЛС] 

Mr.Leon911

Стаж: 7 лет 6 месяцев

Сообщений: 235

Mr.Leon911 · 08-Июн-14 10:51 (спустя 6 дней, ред. 08-Июн-14 10:51)

[Цитировать] 

Обновлено. Добавлены 6ой и 7ой эпизоды.
[Профиль]  [ЛС] 

fx0

Стаж: 8 лет 8 месяцев

Сообщений: 78


fx0 · 10-Июн-14 08:47 (спустя 1 день 21 час, ред. 10-Июн-14 08:47)

[Цитировать] 

drunkel1
Я так понимаю вы переводчик или это ваш голос мы слышим? А будут ли 1-3 сезоны в вашем переводе?
P.S. заранее спасибо)
P.S.S. увидел только что, что у Mighty Car Mods Хоккайдо: Турбины и Храмы + за кадром / Hokkaido: Turbos and Tempes + behind the scenes [BMIRussian] папка в которой раздают называется Mighty Car Mods Season 3 [BMIRussian]. Ошибка? Или я чего то не понимаю?
[Профиль]  [ЛС] 

Mr.Leon911

Стаж: 7 лет 6 месяцев

Сообщений: 235

Mr.Leon911 · 10-Июн-14 18:34 (спустя 9 часов, ред. 10-Июн-14 18:34)

[Цитировать] 

Нас в команде чуть больше, и я давно принимаю участие в переводах только на финальной стадии - довычитка, выяснение тех. подробностей. ) А так - да, мой.
1ый-3ий будут, но нескоро. Заходите в группу - там на все вопросы ответы есть, для ютюба готовится видеоFAQ.
Турбины и храмы относятся к третьему сезону МСМ, и как только нагоним оригинал шоу - будем переводить его.
[Профиль]  [ЛС] 

Pumbars

Стаж: 9 лет

Сообщений: 6

Pumbars · 14-Июн-14 22:43 (спустя 4 дня)

[Цитировать] 

Спасибо за перевод! Очень динамично и со знанием дела. Приятно смотреть.
Жду обновлений здесь и на трубе.
[Профиль]  [ЛС] 

Mr.Leon911

Стаж: 7 лет 6 месяцев

Сообщений: 235

Mr.Leon911 · 15-Июн-14 00:14 (спустя 1 час 30 мин.)

[Цитировать] 

Спасибо.
На ютюбе/вк уже выложен следующий эпизод, до торрентов руки не доходят пока (
[Профиль]  [ЛС] 

Mr.Leon911

Стаж: 7 лет 6 месяцев

Сообщений: 235

Mr.Leon911 · 25-Июн-14 19:49 (спустя 10 дней, ред. 27-Июн-14 20:49)

[Цитировать] 

Категорически не хватает времени на торренты. Постараюсь обновить сразу двумя сериями в пятницу - субботу
Обновлено.
[Профиль]  [ЛС] 

Mr.Leon911

Стаж: 7 лет 6 месяцев

Сообщений: 235

Mr.Leon911 · 27-Июл-14 12:53 (спустя 1 месяц 1 день)

[Цитировать] 

Извините, что торрент стал реже обновляться - с удовольствием бы отдал тему кому-нибудь (оригиналы предоставляю). Тупо нет времени.
Обновлено: добавлены E13 и E14 + Бонус
[Профиль]  [ЛС] 

Mr.Leon911

Стаж: 7 лет 6 месяцев

Сообщений: 235

Mr.Leon911 · 09-Авг-14 20:25 (спустя 13 дней)

[Цитировать] 

Господа, кто может подсказать модератора данного раздела? Я бы хотел передать свои раздачи (обновления) другом пользователю (есть желающий) в силу полнейшего отсутствия времени на их обновление.
[Профиль]  [ЛС] 

Mr.Leon911

Стаж: 7 лет 6 месяцев

Сообщений: 235

Mr.Leon911 · 10-Авг-14 09:53 (спустя 13 часов)

[Цитировать] 

drunkel1 писал(а):
64786456Господа, кто может подсказать модератора данного раздела? Я бы хотел передать свои раздачи (обновления) другом пользователю (есть желающий) в силу полнейшего отсутствия времени на их обновление.
Напиши письмо *13*
[Профиль]  [ЛС] 

Mr.Leon911

Стаж: 7 лет 6 месяцев

Сообщений: 235

Mr.Leon911 · 10-Авг-14 13:25 (спустя 3 часа)

[Цитировать] 

Mr.Leon911 писал(а):
64790114
drunkel1 писал(а):
64786456Господа, кто может подсказать модератора данного раздела? Я бы хотел передать свои раздачи (обновления) другом пользователю (есть желающий) в силу полнейшего отсутствия времени на их обновление.
Напиши письмо *13*
Лёнь, а дай ссылку на его профиль, плз
[Профиль]  [ЛС] 

Mr.Leon911

Стаж: 7 лет 6 месяцев

Сообщений: 235

Mr.Leon911 · 10-Авг-14 16:56 (спустя 3 часа)

[Цитировать] 

drunkel1 писал(а):
64791904
Mr.Leon911 писал(а):
64790114
drunkel1 писал(а):
64786456Господа, кто может подсказать модератора данного раздела? Я бы хотел передать свои раздачи (обновления) другом пользователю (есть желающий) в силу полнейшего отсутствия времени на их обновление.
Напиши письмо *13*
Лёнь, а дай ссылку на его профиль, плз
http://rutracker.org/forum/profile.php?mode=viewprofile&u=148268
[Профиль]  [ЛС] 

Mr.Leon911

Стаж: 7 лет 6 месяцев

Сообщений: 235

Mr.Leon911 · 14-Авг-14 23:24 (спустя 4 дня, ред. 15-Авг-14 15:41)

[Цитировать] 

drunkel1 писал(а):
64832647Уф. Ура, у темы новый релизер )
Так точно!
Обновлено. Добавлены 15-19 эпизоды.
[Профиль]  [ЛС] 

Mr.Leon911

Стаж: 7 лет 6 месяцев

Сообщений: 235

Mr.Leon911 · 22-Авг-14 20:07 (спустя 7 дней, ред. 22-Авг-14 20:07)

[Цитировать] 

Обновлено. Добавлен 20 эпизод.
[Профиль]  [ЛС] 

Mr.Leon911

Стаж: 7 лет 6 месяцев

Сообщений: 235

Mr.Leon911 · 27-Авг-14 18:23 (спустя 4 дня)

[Цитировать] 

Обновлено. Добавлен 21 эпизод.
[Профиль]  [ЛС] 

Mr.Leon911

Стаж: 7 лет 6 месяцев

Сообщений: 235

Mr.Leon911 · 29-Авг-14 20:49 (спустя 2 дня 2 часа, ред. 29-Авг-14 20:49)

[Цитировать] 

Обновлено. Добавлен 22 эпизод.
zavodor писал(а):
64964202Спасибо за труды!
Стараюсь.
[Профиль]  [ЛС] 

Mr.Leon911

Стаж: 7 лет 6 месяцев

Сообщений: 235

Mr.Leon911 · 05-Сен-14 18:42 (спустя 6 дней)

[Цитировать] 

Обновлено. Добавлен 23 эпизод.
[Профиль]  [ЛС] 

Mr.Leon911

Стаж: 7 лет 6 месяцев

Сообщений: 235

Mr.Leon911 · 13-Сен-14 17:13 (спустя 7 дней)

[Цитировать] 

Обновлено. Добавлен 24 эпизод.
[Профиль]  [ЛС] 

Mr.Leon911

Стаж: 7 лет 6 месяцев

Сообщений: 235

Mr.Leon911 · 19-Сен-14 17:50 (спустя 6 дней)

[Цитировать] 

Обновлено. Добавлен 25 эпизод.
[Профиль]  [ЛС] 

slavik svg

Стаж: 8 лет 4 месяца

Сообщений: 3

slavik svg · 25-Сен-14 23:57 (спустя 6 дней)

[Цитировать] 

Кто нибудь скажите где скачать альбомы Муга????
[Профиль]  [ЛС] 

Mr.Leon911

Стаж: 7 лет 6 месяцев

Сообщений: 235

Mr.Leon911 · 27-Сен-14 11:02 (спустя 1 день 11 часов, ред. 27-Сен-14 11:02)

[Цитировать] 

slavik svg писал(а):
65263368Кто нибудь скажите где скачать альбомы Муга????
Его надо покупать.
Обновлено. Добавлен заключительный эпизод.
[Профиль]  [ЛС] 

Mr.Leon911

Стаж: 7 лет 6 месяцев

Сообщений: 235

Mr.Leon911 · 02-Окт-14 21:08 (спустя 5 дней)

[Цитировать] 

Обновлено. Добавлены бонусы. Раздача закрыта. Полный сезон.
[Профиль]  [ЛС] 
 
Ответить
Loading...
Error