(Classical) Carl Nielsen - The Danish Symphonist [10CD]: Symphonies, Orchestral works, Concertos, Piano works, Lieder (The Czech Chamber Philh. Orch./Royal Liverpool Philh. Orch./Douglas Bostock) - 2011, FLAC (tracks+.cue) lossless

Страницы:  1

Ответить
Автор
Сообщение

harpv

Стаж: 10 лет

Сообщений: 14

harpv · 03-Апр-13 16:39 (5 лет 6 месяцев назад, ред. 13-Июл-13 00:03)

Carl Nielsen - The Danish Symphonist [10 CD] Collection Жанр: Classical
Страна-производитель диска: EU
Год издания диска: 2011
Издатель (лейбл): Membran Music Ltd.
Номер по каталогу: 233378
Дата записи: 1992-2003
Аудиокодек: FLAC
Тип рипа: tracks+.cue
Битрейт аудио: lossless
Источник: собственный рип
Наличие сканов в содержимом раздачи: да
CD1: Carl Nielsen - Symphonies N0s. 1+2 (63:15)
Исполнители:
Royal Liverpool Philharmonic Orchestra
Douglas Bostock
– conductor
Recorded in Liverpool, January 2001
(Tr.1-4),2-3 August 1999 (Tr.5-8)

Треклист:
SYMPHONY N0. 1 IN G MINOR, OP.7
(The Carl Nielsen Edition)
1.I. Allegro orgoglioso
2.II. Andante
3.III.Allegro comodo
4.IV. Finale: Allegro con fioco
SYMPHONY N0.2, OP. 16
"THE FOUR TEMPERAMENTS"

(The Carl Nielsen Edition)
5.I. Allegro collerico
6.II. Allegro comodo e flemmatico
7.III.Andante malincolico
8.IV. Allegro snguineo
Отчёт ЕАС
Exact Audio Copy V1.0 beta 3 from 29. August 2011
EAC extraction logfile from 31. March 2013, 12:26
Nielsen, Carl / Symphonien Nr. 1 g-moll, Op.7, und Symphonie Nr. 2, Op. 16 - RLPO - Douglas Bostock
Used drive : HL-DT-STDVDRAM GSA-T20N Adapter: 0 ID: 0
Read mode : Secure
Utilize accurate stream : Yes
Defeat audio cache : Yes
Make use of C2 pointers : No
Read offset correction : 667
Overread into Lead-In and Lead-Out : No
Fill up missing offset samples with silence : Yes
Delete leading and trailing silent blocks : No
Null samples used in CRC calculations : Yes
Used interface : Native Win32 interface for Win NT & 2000
Gap handling : Appended to previous track
Used output format : User Defined Encoder
Selected bitrate : 1024 kBit/s
Quality : High
Add ID3 tag : No
Command line compressor : C:\Program Files\Exact Audio Copy\Flac\flac.exe
Additional command line options : -8 -V -T "ARTIST=%artist%" -T "TITLE=%title%" -T "ALBUM=%albumtitle%" -T "DATE=%year%" -T "TRACKNUMBER=%tracknr%" -T "TOTALTRACKS=%numtracks%" -T "GENRE=%genre%" -T "ALBUMARTIST=%albumartist%" -T "ALBUM ARTIST=%albumartist%" -T "COMMENT=EAC Secure Mode, Test & Copy, AccurateRip, FLAC -8" %source%
TOC of the extracted CD
Track | Start | Length | Start sector | End sector
---------------------------------------------------------
1 | 0:00.00 | 9:01.26 | 0 | 40600
2 | 9:01.26 | 6:55.37 | 40601 | 71762
3 | 15:56.63 | 7:08.24 | 71763 | 103886
4 | 23:05.12 | 8:40.62 | 103887 | 142948
5 | 31:45.74 | 9:11.05 | 142949 | 184278
6 | 40:57.04 | 4:14.66 | 184279 | 203394
7 | 45:11.70 | 10:43.11 | 203395 | 251630
8 | 55:55.06 | 7:20.17 | 251631 | 284647
Track 1
Filename D:\Georgi My RIPS\New folder\01 - Symphonie Nr. 1 g-moll, Op. 7 - I - Allegro orgoglioso.wav
Pre-gap length 0:00:02.00
Peak level 86.0 %
Extraction speed 3.2 X
Track quality 100.0 %
Test CRC 16E12E5C
Copy CRC 16E12E5C
Track not present in AccurateRip database
Copy OK
Track 2
Filename D:\Georgi My RIPS\New folder\02 - Symphonie Nr. 1 g-moll, Op. 7 - II - Andante.wav
Peak level 77.5 %
Extraction speed 3.8 X
Track quality 100.0 %
Test CRC E923496D
Copy CRC E923496D
Track not present in AccurateRip database
Copy OK
Track 3
Filename D:\Georgi My RIPS\New folder\03 - Symphonie Nr. 1 g-moll, Op. 7 - III - Allegro comodo.wav
Peak level 90.4 %
Extraction speed 4.2 X
Track quality 100.0 %
Test CRC 25E41D5F
Copy CRC 25E41D5F
Track not present in AccurateRip database
Copy OK
Track 4
Filename D:\Georgi My RIPS\New folder\04 - Symphonie Nr. 1 g-moll, Op. 7 - IV - Finale- Allegro con fuoco.wav
Peak level 100.0 %
Extraction speed 4.6 X
Track quality 100.0 %
Test CRC 19B5391F
Copy CRC 19B5391F
Track not present in AccurateRip database
Copy OK
Track 5
Filename D:\Georgi My RIPS\New folder\05 - Symphonie Nr. 2 ''Die vier Temperamente'', Op. 16 - I - Allegro collerico.wav
Pre-gap length 0:00:02.00
Peak level 92.1 %
Extraction speed 5.1 X
Track quality 100.0 %
Test CRC D8ECA212
Copy CRC D8ECA212
Track not present in AccurateRip database
Copy OK
Track 6
Filename D:\Georgi My RIPS\New folder\06 - Symphonie Nr. 2 ''Die vier Temperamente'', Op. 16 - II - Allegro comodo e flemmatico.wav
Peak level 34.3 %
Extraction speed 4.9 X
Track quality 100.0 %
Test CRC 5AB917C5
Copy CRC 5AB917C5
Track not present in AccurateRip database
Copy OK
Track 7
Filename D:\Georgi My RIPS\New folder\07 - Symphonie Nr. 2 ''Die vier Temperamente'', Op. 16 - III - Andante malincolico.wav
Peak level 100.0 %
Extraction speed 5.7 X
Track quality 100.0 %
Test CRC F4A94E85
Copy CRC F4A94E85
Track not present in AccurateRip database
Copy OK
Track 8
Filename D:\Georgi My RIPS\New folder\08 - Symphonie Nr. 2 ''Die vier Temperamente'', Op. 16 - IV - Allegro sanguineo.wav
Peak level 95.2 %
Extraction speed 5.3 X
Track quality 99.9 %
Test CRC A60336C6
Copy CRC A60336C6
Track not present in AccurateRip database
Copy OK
None of the tracks are present in the AccurateRip database
No errors occurred
End of status report
---- CUETools DB Plugin V2.1.3
[CTDB TOCID: 6XUbyI4h6ebdu8zHIocCcCProSE-] found, Submit result: 6XUbyI4h6ebdu8zHIocCcCProSE- has been confirmed
[22a8a960] (1/1) Accurately ripped
==== Log checksum 75ADD0AEB1C189CE42A2231BDD2E16819F66C60503E74B65945EAB1A95F45BA8 ====
CD2: Carl Nielsen - Symphonies N0s. 3+4 (79:53)
Исполнители:
Eva Hess-Thaysen – soprano
Jan Lund – tenor
Nicholas Cox – clarinet
Kevin Price – trombone
Royal Liverpool Philharmonic Orchestra
Douglas Bostock
– conductor
Recorded in Liverpool, 19-20 January 2000
(Tr.1-5),7-9 August 2000 (Tr.6-9)

Треклист:
SYMPHONY N0.3, OP.27
"SINFONIA ESPANSIVA"

(The Carl Nielsen Edition)
1.I. Allegro espansivo
2.II. Andante pastorale*
3.III.Allegro un poco
4.IV. Finale: Allegro
5.II. Andante pastorale
(Alternative Version)**
SYMPHONY N0.4, OP. 29
"THE INEXTINGUISHBLE"

(The Carl Nielsen Edition)
6.I. Allegro
7.II. Poco Allegretto
8.III.Poco adagio quasi andante
9.IV. Allegro
Отчёт ЕАС
Exact Audio Copy V1.0 beta 3 from 29. August 2011
EAC extraction logfile from 31. March 2013, 17:27
Nielsen, Carl / Edition 02
Used drive : HL-DT-STDVDRAM GSA-T20N Adapter: 0 ID: 0
Read mode : Secure
Utilize accurate stream : Yes
Defeat audio cache : Yes
Make use of C2 pointers : No
Read offset correction : 667
Overread into Lead-In and Lead-Out : No
Fill up missing offset samples with silence : Yes
Delete leading and trailing silent blocks : No
Null samples used in CRC calculations : Yes
Used interface : Native Win32 interface for Win NT & 2000
Gap handling : Appended to previous track
Used output format : User Defined Encoder
Selected bitrate : 1024 kBit/s
Quality : High
Add ID3 tag : No
Command line compressor : C:\Program Files\Exact Audio Copy\Flac\flac.exe
Additional command line options : -8 -V -T "ARTIST=%artist%" -T "TITLE=%title%" -T "ALBUM=%albumtitle%" -T "DATE=%year%" -T "TRACKNUMBER=%tracknr%" -T "TOTALTRACKS=%numtracks%" -T "GENRE=%genre%" -T "ALBUMARTIST=%albumartist%" -T "ALBUM ARTIST=%albumartist%" -T "COMMENT=EAC Secure Mode, Test & Copy, AccurateRip, FLAC -8" %source%
TOC of the extracted CD
Track | Start | Length | Start sector | End sector
---------------------------------------------------------
1 | 0:00.00 | 10:37.04 | 0 | 47778
2 | 10:37.04 | 9:14.17 | 47779 | 89345
3 | 19:51.21 | 6:14.49 | 89346 | 117444
4 | 26:05.70 | 9:39.22 | 117445 | 160891
5 | 35:45.17 | 9:15.47 | 160892 | 202563
6 | 45:00.64 | 10:45.11 | 202564 | 250949
7 | 55:46.00 | 5:13.06 | 250950 | 274430
8 | 60:59.06 | 10:28.35 | 274431 | 321565
9 | 71:27.41 | 8:25.39 | 321566 | 359479
Track 1
Filename D:\Georgi My RIPS\Carl Nielsen - The Danish Symphonist 10 CD Collection\New folder\01 - Symphonie Nr 3, -Sinfonia Espansiva-, Op 27 - I Allegro espansivo.wav
Pre-gap length 0:00:02.00
Peak level 100.0 %
Extraction speed 3.3 X
Track quality 100.0 %
Test CRC 3157B307
Copy CRC 3157B307
Track not present in AccurateRip database
Copy OK
Track 2
Filename D:\Georgi My RIPS\Carl Nielsen - The Danish Symphonist 10 CD Collection\New folder\02 - Symphonie Nr 3, -Sinfonia Espansiva-, Op 27 - II Andante pastorale.wav
Peak level 42.4 %
Extraction speed 3.9 X
Track quality 100.0 %
Test CRC 89A45E07
Copy CRC 89A45E07
Track not present in AccurateRip database
Copy OK
Track 3
Filename D:\Georgi My RIPS\Carl Nielsen - The Danish Symphonist 10 CD Collection\New folder\03 - Symphonie Nr 3, -Sinfonia Espansiva-, Op 27 - III Allegretto un poco.wav
Peak level 59.9 %
Extraction speed 4.2 X
Track quality 100.0 %
Test CRC 529DCEE2
Copy CRC 529DCEE2
Track not present in AccurateRip database
Copy OK
Track 4
Filename D:\Georgi My RIPS\Carl Nielsen - The Danish Symphonist 10 CD Collection\New folder\04 - Symphonie Nr 3, -Sinfonia Espansiva-, Op 27 - IV Finale Allegro.wav
Peak level 100.0 %
Extraction speed 4.3 X
Track quality 99.9 %
Test CRC 4F95DCCA
Copy CRC 4F95DCCA
Track not present in AccurateRip database
Copy OK
Track 5
Filename D:\Georgi My RIPS\Carl Nielsen - The Danish Symphonist 10 CD Collection\New folder\05 - Symphonie Nr 3, -Sinfonia Espansiva-, Op 27 - II Andante pastorale(alternate).wav
Peak level 42.4 %
Extraction speed 5.0 X
Track quality 100.0 %
Test CRC AC108908
Copy CRC AC108908
Track not present in AccurateRip database
Copy OK
Track 6
Filename D:\Georgi My RIPS\Carl Nielsen - The Danish Symphonist 10 CD Collection\New folder\06 - Symphonie Nr 4, -Det Uudslukkelige-, Op 29 - I Allegro.wav
Pre-gap length 0:00:04.00
Peak level 90.1 %
Extraction speed 5.5 X
Track quality 100.0 %
Test CRC 4AED969D
Copy CRC 4AED969D
Track not present in AccurateRip database
Copy OK
Track 7
Filename D:\Georgi My RIPS\Carl Nielsen - The Danish Symphonist 10 CD Collection\New folder\07 - Symphonie Nr 4, -Det Uudslukkelige-, Op 29 - II Poco allegretto.wav
Peak level 6.8 %
Extraction speed 4.7 X
Track quality 99.9 %
Test CRC 83D91E11
Copy CRC 83D91E11
Track not present in AccurateRip database
Copy OK
Track 8
Filename D:\Georgi My RIPS\Carl Nielsen - The Danish Symphonist 10 CD Collection\New folder\08 - Symphonie Nr 4, -Det Uudslukkelige-, Op 29 - III Poco adagio quasi andante.wav
Peak level 100.0 %
Extraction speed 5.5 X
Track quality 99.9 %
Test CRC 3592BA04
Copy CRC 3592BA04
Track not present in AccurateRip database
Copy OK
Track 9
Filename D:\Georgi My RIPS\Carl Nielsen - The Danish Symphonist 10 CD Collection\New folder\09 - Symphonie Nr 4, -Det Uudslukkelige-, Op 29 - IV Allegro.wav
Peak level 100.0 %
Extraction speed 6.1 X
Track quality 100.0 %
Test CRC 2D7F3078
Copy CRC 2D7F3078
Track not present in AccurateRip database
Copy OK
None of the tracks are present in the AccurateRip database
No errors occurred
End of status report
---- CUETools DB Plugin V2.1.3
[CTDB TOCID: 3mVUtpsDWndew5gfzo8DrXxhmAM-] found, Submit result: 3mVUtpsDWndew5gfzo8DrXxhmAM- has been confirmed
[f2ac61b2] (1/1) Accurately ripped
==== Log checksum B586A3427A1F6D6FA06EAEC855EF88E1F3D6030E10C6235539DC76F2052854FA ====
CD3: Carl Nielsen - Symphonies N0s. 5+6 (66:49)
Исполнители:
Nicholas Cox – clarinet
Grham Johns – side drum
Royal Liverpool Philharmonic Orchestra
Douglas Bostock
– conductor
Recorded in Liverpool, 2-3 August 1999
(Tr.1-3),January 2001 (Tr.4-7)

Треклист:
SYMPHONY N0.5, OP.50
(The Carl Nielsen Edition)
1.I. Tempo giusto
2. Adagio non troppo
3.II. Allegro. Presto. Andante un
poco tranquillo. Allegro (Tempo I)
SYMPHONY N0.6
"SYMPHONY SEMPLICE"

4.I. Tempo giusto
5.II. Humoresque: Allegretto
6.III.Proposta seria: Adagio
7.IV. Theme and Variations: Allegro
Отчёт ЕАС
Exact Audio Copy V1.0 beta 3 from 29. August 2011
EAC extraction logfile from 31. March 2013, 18:34
Nielsen, Carl / Edition 03
Used drive : HL-DT-STDVDRAM GSA-T20N Adapter: 0 ID: 0
Read mode : Secure
Utilize accurate stream : Yes
Defeat audio cache : Yes
Make use of C2 pointers : No
Read offset correction : 667
Overread into Lead-In and Lead-Out : No
Fill up missing offset samples with silence : Yes
Delete leading and trailing silent blocks : No
Null samples used in CRC calculations : Yes
Used interface : Native Win32 interface for Win NT & 2000
Gap handling : Appended to previous track
Used output format : User Defined Encoder
Selected bitrate : 1024 kBit/s
Quality : High
Add ID3 tag : No
Command line compressor : C:\Program Files\Exact Audio Copy\Flac\flac.exe
Additional command line options : -8 -V -T "ARTIST=%artist%" -T "TITLE=%title%" -T "ALBUM=%albumtitle%" -T "DATE=%year%" -T "TRACKNUMBER=%tracknr%" -T "TOTALTRACKS=%numtracks%" -T "GENRE=%genre%" -T "ALBUMARTIST=%albumartist%" -T "ALBUM ARTIST=%albumartist%" -T "COMMENT=EAC Secure Mode, Test & Copy, AccurateRip, FLAC -8" %source%
TOC of the extracted CD
Track | Start | Length | Start sector | End sector
---------------------------------------------------------
1 | 0:00.00 | 9:44.50 | 0 | 43849
2 | 9:44.50 | 8:50.23 | 43850 | 83622
3 | 18:34.73 | 14:39.40 | 83623 | 149587
4 | 33:14.38 | 12:59.58 | 149588 | 208070
5 | 46:14.21 | 3:57.12 | 208071 | 225857
6 | 50:11.33 | 5:41.02 | 225858 | 251434
7 | 55:52.35 | 10:56.13 | 251435 | 300647
Track 1
Filename D:\Georgi My RIPS\Carl Nielsen - The Danish Symphonist 10 CD Collection\Cd3\01 - Symphonie Nr 5, Op 50 - I Tempo giusto.wav
Pre-gap length 0:00:02.00
Peak level 43.0 %
Extraction speed 3.1 X
Track quality 99.9 %
Test CRC BA9979A8
Copy CRC BA9979A8
Track not present in AccurateRip database
Copy OK
Track 2
Filename D:\Georgi My RIPS\Carl Nielsen - The Danish Symphonist 10 CD Collection\Cd3\02 - Symphonie Nr 5, Op 50 - I Adagio non troppo.wav
Peak level 87.5 %
Extraction speed 4.0 X
Track quality 100.0 %
Test CRC CD3AA29A
Copy CRC CD3AA29A
Track not present in AccurateRip database
Copy OK
Track 3
Filename D:\Georgi My RIPS\Carl Nielsen - The Danish Symphonist 10 CD Collection\Cd3\03 - Symphonie Nr 5, Op 50 - II Allegro Presto Andante un poco tranquillo Allegro.wav
Peak level 100.0 %
Extraction speed 4.2 X
Track quality 99.9 %
Test CRC F8EE87EA
Copy CRC F8EE87EA
Track not present in AccurateRip database
Copy OK
Track 4
Filename D:\Georgi My RIPS\Carl Nielsen - The Danish Symphonist 10 CD Collection\Cd3\04 - Symphonie Nr 6, -Sinfonia semplice- I Tempo giusto.wav
Pre-gap length 0:00:02.00
Peak level 100.0 %
Extraction speed 4.7 X
Track quality 99.9 %
Test CRC 707CB17A
Copy CRC 707CB17A
Track not present in AccurateRip database
Copy OK
Track 5
Filename D:\Georgi My RIPS\Carl Nielsen - The Danish Symphonist 10 CD Collection\Cd3\05 - Symphonie Nr 6, -Sinfonia semplice- II Humoresque Allegretto.wav
Peak level 46.5 %
Extraction speed 5.2 X
Track quality 100.0 %
Test CRC E6A3C19E
Copy CRC E6A3C19E
Track not present in AccurateRip database
Copy OK
Track 6
Filename D:\Georgi My RIPS\Carl Nielsen - The Danish Symphonist 10 CD Collection\Cd3\06 - Symphonie Nr 6, -Sinfonia semplice- III Proposta seria Adagio.wav
Peak level 30.4 %
Extraction speed 4.2 X
Track quality 99.9 %
Test CRC 8785642F
Copy CRC 8785642F
Track not present in AccurateRip database
Copy OK
Track 7
Filename D:\Georgi My RIPS\Carl Nielsen - The Danish Symphonist 10 CD Collection\Cd3\07 - Symphonie Nr 6, -Sinfonia semplice- IV Theme & Variations Allegro.wav
Peak level 100.0 %
Extraction speed 4.8 X
Track quality 99.9 %
Test CRC BF32C99E
Copy CRC BF32C99E
Track not present in AccurateRip database
Copy OK
None of the tracks are present in the AccurateRip database
No errors occurred
End of status report
---- CUETools DB Plugin V2.1.3
[CTDB TOCID: nS9VJYxZlOP.K43Fhlrkma7a07M-] found, Submit result: nS9VJYxZlOP.K43Fhlrkma7a07M- has been confirmed
[4a4838c2] (1/1) Accurately ripped
==== Log checksum 2DD30F08A46A87BDEC70712B1BEC25F9D21C5791A044012BC5C28BBD22E6C093 ====
CD4: Carl Nielsen - Orchestral works (63:36)
Исполнители:
Jonatan Aasgaard – cello
Royal Liverpool Philharmonic Orchestra
Douglas Bostock
– conductor
Recorded in Liverpool, 19-20 January 2000
(Tr.9, 15), 7-9 August 2000 9Tr.8, 10-14),
2003 (Tr.1-7)

Треклист:
ALADDIN SUITE
(The Carl Nielsen Edition)
1.I. Oriental Festive March
2.II. Aladdin's Dream and Dance
of the Morning Mists: Poco adagio
3.III.Hindu Dance: Andantino con moto
4.IV. Chinese Dance: Allegretto un poco
5.V. The Market Place in Ispahan:
Andantino. Allegretto. Adagio.
Allegretto moderato
6.VI. Prisoner's Dance: Moderato non troppo
7.VII.Negro Dance: Allegro
8.PAN AND SYRINX, OP. 49
(The Carl Nielsen Edition)
5.I. Prelude
6.II. Intermezzo
7.III.Finale
8.SYMPHONIC RHAPSODY
(The Carl Nielsen Edition)
9.OVERTURE "HELIOS", OP. 17
(The Carl Nielsen Edition)
CUPID AND THE POET:
ORCHESTRAL SUITE

10. Overture
11.I. Andante
12.II. Andantino
13.III.Andantino
14.IV. Andante quasi sostenuto
15.PARAPHASE ON "NEARER,
MY GOD, TO THEE"

(Instr./Arr. Knut Ketting)
Отчёт ЕАС
Exact Audio Copy V1.0 beta 3 from 29. August 2011
EAC extraction logfile from 31. March 2013, 20:58
Nielsen, Carl / Carl Nielsen - The Danish Symphonist (CD4)
Used drive : HL-DT-STDVDRAM GSA-T20N Adapter: 0 ID: 0
Read mode : Secure
Utilize accurate stream : Yes
Defeat audio cache : Yes
Make use of C2 pointers : No
Read offset correction : 667
Overread into Lead-In and Lead-Out : No
Fill up missing offset samples with silence : Yes
Delete leading and trailing silent blocks : No
Null samples used in CRC calculations : Yes
Used interface : Native Win32 interface for Win NT & 2000
Gap handling : Appended to previous track
Used output format : User Defined Encoder
Selected bitrate : 1024 kBit/s
Quality : High
Add ID3 tag : No
Command line compressor : C:\Program Files\Exact Audio Copy\Flac\flac.exe
Additional command line options : -8 -V -T "ARTIST=%artist%" -T "TITLE=%title%" -T "ALBUM=%albumtitle%" -T "DATE=%year%" -T "TRACKNUMBER=%tracknr%" -T "TOTALTRACKS=%numtracks%" -T "GENRE=%genre%" -T "ALBUMARTIST=%albumartist%" -T "ALBUM ARTIST=%albumartist%" -T "COMMENT=EAC Secure Mode, Test & Copy, AccurateRip, FLAC -8" %source%
TOC of the extracted CD
Track | Start | Length | Start sector | End sector
---------------------------------------------------------
1 | 0:00.00 | 3:05.58 | 0 | 13932
2 | 3:05.58 | 2:26.16 | 13933 | 24898
3 | 5:31.74 | 2:21.08 | 24899 | 35481
4 | 7:53.07 | 3:36.67 | 35482 | 51748
5 | 11:29.74 | 5:05.30 | 51749 | 74653
6 | 16:35.29 | 4:31.15 | 74654 | 94993
7 | 21:06.44 | 5:04.38 | 94994 | 117831
8 | 26:11.07 | 8:32.02 | 117832 | 156233
9 | 34:43.09 | 12:07.31 | 156234 | 210789
10 | 46:50.40 | 5:18.55 | 210790 | 234694
11 | 52:09.20 | 0:38.15 | 234695 | 237559
12 | 52:47.35 | 2:29.39 | 237560 | 248773
13 | 55:16.74 | 0:45.35 | 248774 | 252183
14 | 56:02.34 | 1:46.43 | 252184 | 260176
15 | 57:49.02 | 5:38.19 | 260177 | 285545
Track 1
Filename D:\Georgi My RIPS\Carl Nielsen - The Danish Symphonist 10 CD Collection\Cd4\01 - Aladdin Suite - 1. Oriental Festive March.wav
Pre-gap length 0:00:02.00
Peak level 100.0 %
Extraction speed 2.7 X
Track quality 100.0 %
Test CRC 22D5CD8E
Copy CRC 22D5CD8E
Track not present in AccurateRip database
Copy OK
Track 2
Filename D:\Georgi My RIPS\Carl Nielsen - The Danish Symphonist 10 CD Collection\Cd4\02 - Aladdin Suite - 2. Aladdin's Dream & Dance of the Morning Mists.wav
Peak level 27.9 %
Extraction speed 2.8 X
Track quality 100.0 %
Test CRC 47324919
Copy CRC 47324919
Track not present in AccurateRip database
Copy OK
Track 3
Filename D:\Georgi My RIPS\Carl Nielsen - The Danish Symphonist 10 CD Collection\Cd4\03 - Aladdin Suite - 3. Hindu Dance.wav
Peak level 11.4 %
Extraction speed 2.2 X
Track quality 99.9 %
Test CRC DFC8C1F5
Copy CRC DFC8C1F5
Track not present in AccurateRip database
Copy OK
Track 4
Filename D:\Georgi My RIPS\Carl Nielsen - The Danish Symphonist 10 CD Collection\Cd4\04 - Aladdin Suite - 4. Chinese Dance.wav
Peak level 38.9 %
Extraction speed 3.3 X
Track quality 100.0 %
Test CRC C23B22E0
Copy CRC C23B22E0
Track not present in AccurateRip database
Copy OK
Track 5
Filename D:\Georgi My RIPS\Carl Nielsen - The Danish Symphonist 10 CD Collection\Cd4\05 - Aladdin Suite - 5. The Market Place in Ispahan.wav
Peak level 77.3 %
Extraction speed 3.7 X
Track quality 100.0 %
Test CRC FDE2CF72
Copy CRC FDE2CF72
Track not present in AccurateRip database
Copy OK
Track 6
Filename D:\Georgi My RIPS\Carl Nielsen - The Danish Symphonist 10 CD Collection\Cd4\06 - Aladdin Suite - 6. Prisoner's Dance.wav
Peak level 100.0 %
Extraction speed 3.9 X
Track quality 100.0 %
Test CRC 575A13D0
Copy CRC 575A13D0
Track not present in AccurateRip database
Copy OK
Track 7
Filename D:\Georgi My RIPS\Carl Nielsen - The Danish Symphonist 10 CD Collection\Cd4\07 - Aladdin Suite - 7. Negro Dance.wav
Peak level 100.0 %
Extraction speed 4.3 X
Track quality 100.0 %
Test CRC 3041FFD4
Copy CRC 3041FFD4
Track not present in AccurateRip database
Copy OK
Track 8
Filename D:\Georgi My RIPS\Carl Nielsen - The Danish Symphonist 10 CD Collection\Cd4\08 - Symphonic Rhapsody.wav
Peak level 87.6 %
Extraction speed 4.8 X
Track quality 100.0 %
Test CRC 10AD9FAB
Copy CRC 10AD9FAB
Track not present in AccurateRip database
Copy OK
Track 9
Filename D:\Georgi My RIPS\Carl Nielsen - The Danish Symphonist 10 CD Collection\Cd4\09 - Overture ''Helios'', Op.17.wav
Peak level 100.0 %
Extraction speed 5.0 X
Track quality 99.9 %
Test CRC CA7933F3
Copy CRC CA7933F3
Track not present in AccurateRip database
Copy OK
Track 10
Filename D:\Georgi My RIPS\Carl Nielsen - The Danish Symphonist 10 CD Collection\Cd4\10 - Cupid andthe Poet, Orchestral Suite - Overture.wav
Peak level 99.9 %
Extraction speed 4.7 X
Track quality 99.9 %
Test CRC CB8C09C3
Copy CRC CB8C09C3
Track not present in AccurateRip database
Copy OK
Track 11
Filename D:\Georgi My RIPS\Carl Nielsen - The Danish Symphonist 10 CD Collection\Cd4\11 - Cupid andthe Poet, Orchestral Suite - 1. Andante.wav
Peak level 23.7 %
Extraction speed 1.8 X
Track quality 99.7 %
Test CRC 34B43BA4
Copy CRC 34B43BA4
Track not present in AccurateRip database
Copy OK
Track 12
Filename D:\Georgi My RIPS\Carl Nielsen - The Danish Symphonist 10 CD Collection\Cd4\12 - Cupid andthe Poet, Orchestral Suite - 2. Andantino.wav
Peak level 11.6 %
Extraction speed 5.0 X
Track quality 100.0 %
Test CRC D147BE3A
Copy CRC D147BE3A
Track not present in AccurateRip database
Copy OK
Track 13
Filename D:\Georgi My RIPS\Carl Nielsen - The Danish Symphonist 10 CD Collection\Cd4\13 - Cupid andthe Poet, Orchestral Suite - 3. Andantino.wav
Peak level 23.3 %
Extraction speed 2.1 X
Track quality 99.7 %
Test CRC A6AA80FC
Copy CRC A6AA80FC
Track not present in AccurateRip database
Copy OK
Track 14
Filename D:\Georgi My RIPS\Carl Nielsen - The Danish Symphonist 10 CD Collection\Cd4\14 - Cupid andthe Poet, Orchestral Suite - 4. Andante quasi sostenuto.wav
Peak level 25.5 %
Extraction speed 3.4 X
Track quality 99.9 %
Test CRC DC847DA2
Copy CRC DC847DA2
Track not present in AccurateRip database
Copy OK
Track 15
Filename D:\Georgi My RIPS\Carl Nielsen - The Danish Symphonist 10 CD Collection\Cd4\15 - Paraphrase on ''Nearer My God, to Thee''.wav
Peak level 100.0 %
Extraction speed 5.8 X
Track quality 100.0 %
Test CRC BE7C5412
Copy CRC BE7C5412
Track not present in AccurateRip database
Copy OK
None of the tracks are present in the AccurateRip database
No errors occurred
End of status report
---- CUETools DB Plugin V2.1.3
[CTDB TOCID: F1HigRE1sHFcGExuxnBXEEGERQ0-] found, Submit result: F1HigRE1sHFcGExuxnBXEEGERQ0- has been confirmed
[946ba5cc] (1/1) Accurately ripped
==== Log checksum B8052FC9E483AA773D7235EDEB17A97AD37C95F1B9535891B5B39AA51BE7B369 ====
CD5: Carl Nielsen - Flute concerto / Pan and Syrinx / Works for string orchestra (64:45)
Исполнители:
Royal Liverpool Philharmonic Orchestra
Douglas Bostock
– conductor
Recorded in Liverpool, January 2001
Треклист:
CONCERTO FOR FLUTE
AND ORCHESTRA

(The Carl Nielsen Edition)
1.I. Allegro moderato
2.II. Allegro un poco. Adagio
ma non troppo. Allegretto
3.III.Allegro un poco (Original
Second Movement of the
Flute Concerto)
4.PAN AND SYRINX, OP. 49
(The Carl Nielsen Edition)
5.I. Prelude
6.II. Intermezzo
7.III.Finale
8.AT THE BIER OF A YOUNG ARTIST
for String Orcgestra
(The Carl Nielsen Edition)

9.BOHEMIAN-DANISH FOLK SONGS
for String Orcgestra
(The Carl Nielsen Edition)

Исполнители:
Rune Most – flute
The Czech Chamber Philharmonic Orchestra
Pardubice,

Douglas Bostock
– conductor
Recorded in Pardubice (Czech Republic),
August 2005

ANDANTE TRANQUILLO E SCHERZO
FOR STRING ORCHESTRA

(The Carl Nielsen Edition)
10. Andante tranquillo
11. Scherzo
Отчёт ЕАС
Exact Audio Copy V1.0 beta 3 from 29. August 2011
EAC extraction logfile from 31. March 2013, 22:18
Nielsen, Carl / Edition 05
Used drive : HL-DT-STDVDRAM GSA-T20N Adapter: 0 ID: 0
Read mode : Secure
Utilize accurate stream : Yes
Defeat audio cache : Yes
Make use of C2 pointers : No
Read offset correction : 667
Overread into Lead-In and Lead-Out : No
Fill up missing offset samples with silence : Yes
Delete leading and trailing silent blocks : No
Null samples used in CRC calculations : Yes
Used interface : Native Win32 interface for Win NT & 2000
Gap handling : Appended to previous track
Used output format : User Defined Encoder
Selected bitrate : 1024 kBit/s
Quality : High
Add ID3 tag : No
Command line compressor : C:\Program Files\Exact Audio Copy\Flac\flac.exe
Additional command line options : -8 -V -T "ARTIST=%artist%" -T "TITLE=%title%" -T "ALBUM=%albumtitle%" -T "DATE=%year%" -T "TRACKNUMBER=%tracknr%" -T "TOTALTRACKS=%numtracks%" -T "GENRE=%genre%" -T "ALBUMARTIST=%albumartist%" -T "ALBUM ARTIST=%albumartist%" -T "COMMENT=EAC Secure Mode, Test & Copy, AccurateRip, FLAC -8" %source%
TOC of the extracted CD
Track | Start | Length | Start sector | End sector
---------------------------------------------------------
1 | 0:00.00 | 10:44.19 | 0 | 48318
2 | 10:44.19 | 7:03.01 | 48319 | 80044
3 | 17:47.20 | 5:26.22 | 80045 | 104516
4 | 23:13.42 | 7:36.14 | 104517 | 138730
5 | 30:49.56 | 3:23.50 | 138731 | 154005
6 | 34:13.31 | 5:19.72 | 154006 | 178002
7 | 39:33.28 | 7:09.24 | 178003 | 210201
8 | 46:42.52 | 4:35.28 | 210202 | 230854
9 | 51:18.05 | 7:01.58 | 230855 | 262487
10 | 58:19.63 | 3:21.04 | 262488 | 277566
11 | 61:40.67 | 3:00.19 | 277567 | 291085
Track 1
Filename D:\Georgi My RIPS\Carl Nielsen - The Danish Symphonist 10 CD Collection\Cd5\01 - Concerto for Flute & Orchestra - I Allegro moderato.wav
Pre-gap length 0:00:02.00
Peak level 63.3 %
Extraction speed 3.4 X
Track quality 100.0 %
Test CRC 2BAD0F12
Copy CRC 2BAD0F12
Track not present in AccurateRip database
Copy OK
Track 2
Filename D:\Georgi My RIPS\Carl Nielsen - The Danish Symphonist 10 CD Collection\Cd5\02 - Concerto for Flute & Orchestra - II Allegro un poco.wav
Peak level 75.4 %
Extraction speed 3.9 X
Track quality 100.0 %
Test CRC 96D25101
Copy CRC 96D25101
Track not present in AccurateRip database
Copy OK
Track 3
Filename D:\Georgi My RIPS\Carl Nielsen - The Danish Symphonist 10 CD Collection\Cd5\03 - Concerto for Flute & Orchestra - III Allegro un poco.wav
Peak level 71.4 %
Extraction speed 4.1 X
Track quality 100.0 %
Test CRC 39956930
Copy CRC 39956930
Track not present in AccurateRip database
Copy OK
Track 4
Filename D:\Georgi My RIPS\Carl Nielsen - The Danish Symphonist 10 CD Collection\Cd5\04 - Pan and Syrinx, Op 49.wav
Peak level 99.9 %
Extraction speed 4.1 X
Track quality 99.9 %
Test CRC 00B4003F
Copy CRC 00B4003F
Track not present in AccurateRip database
Copy OK
Track 5
Filename D:\Georgi My RIPS\Carl Nielsen - The Danish Symphonist 10 CD Collection\Cd5\05 - Suite for String Orchestra, Op 1 - I Prelude.wav
Peak level 28.2 %
Extraction speed 4.5 X
Track quality 100.0 %
Test CRC 50B8F228
Copy CRC 50B8F228
Track not present in AccurateRip database
Copy OK
Track 6
Filename D:\Georgi My RIPS\Carl Nielsen - The Danish Symphonist 10 CD Collection\Cd5\06 - Suite for String Orchestra, Op 1 - II Intermezzo.wav
Peak level 23.6 %
Extraction speed 4.8 X
Track quality 100.0 %
Test CRC 09A972CF
Copy CRC 09A972CF
Track not present in AccurateRip database
Copy OK
Track 7
Filename D:\Georgi My RIPS\Carl Nielsen - The Danish Symphonist 10 CD Collection\Cd5\07 - Suite for String Orchestra, Op 1 - III Finale.wav
Peak level 35.4 %
Extraction speed 5.3 X
Track quality 100.0 %
Test CRC 300EB9AC
Copy CRC 300EB9AC
Track not present in AccurateRip database
Copy OK
Track 8
Filename D:\Georgi My RIPS\Carl Nielsen - The Danish Symphonist 10 CD Collection\Cd5\08 - At the Bier of a young Artist.wav
Peak level 20.5 %
Extraction speed 5.3 X
Track quality 100.0 %
Test CRC F4376D32
Copy CRC F4376D32
Track not present in AccurateRip database
Copy OK
Track 9
Filename D:\Georgi My RIPS\Carl Nielsen - The Danish Symphonist 10 CD Collection\Cd5\09 - Bohemian-Danish Folk Songs for String Orchestra.wav
Peak level 33.0 %
Extraction speed 5.8 X
Track quality 100.0 %
Test CRC 12F8EAA2
Copy CRC 12F8EAA2
Track not present in AccurateRip database
Copy OK
Track 10
Filename D:\Georgi My RIPS\Carl Nielsen - The Danish Symphonist 10 CD Collection\Cd5\10 - Andante Tranquillo e Scherzo for String & Orchestra - I.wav
Peak level 30.4 %
Extraction speed 5.3 X
Track quality 100.0 %
Test CRC 35B075B1
Copy CRC 35B075B1
Track not present in AccurateRip database
Copy OK
Track 11
Filename D:\Georgi My RIPS\Carl Nielsen - The Danish Symphonist 10 CD Collection\Cd5\11 - Andante Tranquillo e Scherzo for String & Orchestra - II.wav
Peak level 17.7 %
Extraction speed 4.4 X
Track quality 99.9 %
Test CRC 98514FEE
Copy CRC 98514FEE
Track not present in AccurateRip database
Copy OK
None of the tracks are present in the AccurateRip database
No errors occurred
End of status report
---- CUETools DB Plugin V2.1.3
[CTDB TOCID: iBFxeqySltBjQevcdZ4kjJw.OmA-] found, Submit result: iBFxeqySltBjQevcdZ4kjJw.OmA- has been confirmed
[a63c142d] (1/1) Accurately ripped
==== Log checksum C626AB07DB40DA7B31948443422EAFEE436F5A79E360C287040114497CA6110C ====
CD6: Carl Nielsen - Violin concerto / Romance for violin and orchestra / Violin sonata N0.1 (61:29)
Исполнители:
Malcolm Stewart – violin
Royal Liverpool Philharmonic Orchestra
Douglas Bostock
– conductor
Recorded in Liverpool, 2003
Треклист:
CONCERTO FOR VIOLIN
AND ORCHESTRA, OP.33

(The Carl Nielsen Edition)
1.I. Prealudium: Largo
2. Allegro cavalleresco
3.II. Poco adgio
4. Rondo: Allegretto scherzando
ROMANCE FOR VIOLIN
AND ORCHESTRA, OP.2

5. Andante con duolo
Исполнители:
Johannes Soe Hansen – violin
Frank Jarlsfelt – piano
Recorded in Copenhagen, 1994
VIOLIN SONATA N0. 1
IN A MAJOR, OP. 9

6.I. Allegro glorioso
7.II. Andante
8.III.Allegro pacevole e giovanile
Отчёт ЕАС
Exact Audio Copy V1.0 beta 3 from 29. August 2011
EAC extraction logfile from 31. March 2013, 23:40
Nielsen, Carl / Edition 06
Used drive : HL-DT-STDVDRAM GSA-T20N Adapter: 0 ID: 0
Read mode : Secure
Utilize accurate stream : Yes
Defeat audio cache : Yes
Make use of C2 pointers : No
Read offset correction : 667
Overread into Lead-In and Lead-Out : No
Fill up missing offset samples with silence : Yes
Delete leading and trailing silent blocks : No
Null samples used in CRC calculations : Yes
Used interface : Native Win32 interface for Win NT & 2000
Gap handling : Appended to previous track
Used output format : User Defined Encoder
Selected bitrate : 1024 kBit/s
Quality : High
Add ID3 tag : No
Command line compressor : C:\Program Files\Exact Audio Copy\Flac\flac.exe
Additional command line options : -8 -V -T "ARTIST=%artist%" -T "TITLE=%title%" -T "ALBUM=%albumtitle%" -T "DATE=%year%" -T "TRACKNUMBER=%tracknr%" -T "TOTALTRACKS=%numtracks%" -T "GENRE=%genre%" -T "ALBUMARTIST=%albumartist%" -T "ALBUM ARTIST=%albumartist%" -T "COMMENT=EAC Secure Mode, Test & Copy, AccurateRip, FLAC -8" %source%
TOC of the extracted CD
Track | Start | Length | Start sector | End sector
---------------------------------------------------------
1 | 0:00.00 | 6:20.50 | 0 | 28549
2 | 6:20.50 | 13:24.12 | 28550 | 88861
3 | 19:44.62 | 5:48.03 | 88862 | 114964
4 | 25:32.65 | 10:50.74 | 114965 | 163788
5 | 36:23.64 | 3:36.59 | 163789 | 180047
6 | 40:00.48 | 8:50.14 | 180048 | 219811
7 | 48:50.62 | 6:52.36 | 219812 | 250747
8 | 55:43.23 | 5:45.13 | 250748 | 276635
Track 1
Filename D:\Georgi My RIPS\Carl Nielsen - The Danish Symphonist 10 CD Collection\Cd6\01 - Concerto for Violin & Orchestra, Op 33 - I Praeludium Largo.wav
Pre-gap length 0:00:02.00
Peak level 58.0 %
Extraction speed 3.1 X
Track quality 100.0 %
Test CRC F15AD9DB
Copy CRC F15AD9DB
Track not present in AccurateRip database
Copy OK
Track 2
Filename D:\Georgi My RIPS\Carl Nielsen - The Danish Symphonist 10 CD Collection\Cd6\02 - Concerto for Violin & Orchestra, Op 33 - I Allegro Cavalleresco.wav
Peak level 100.0 %
Extraction speed 3.9 X
Track quality 100.0 %
Test CRC DDEF8102
Copy CRC DDEF8102
Track not present in AccurateRip database
Copy OK
Track 3
Filename D:\Georgi My RIPS\Carl Nielsen - The Danish Symphonist 10 CD Collection\Cd6\03 - Concerto for Violin & Orchestra, Op 33 - II Poco adagio.wav
Peak level 42.9 %
Extraction speed 4.3 X
Track quality 100.0 %
Test CRC C20E8BEB
Copy CRC C20E8BEB
Track not present in AccurateRip database
Copy OK
Track 4
Filename D:\Georgi My RIPS\Carl Nielsen - The Danish Symphonist 10 CD Collection\Cd6\04 - Concerto for Violin & Orchestra, Op 33 - II Rondo Allegretto scherzando.wav
Peak level 86.9 %
Extraction speed 4.9 X
Track quality 100.0 %
Test CRC 5654332F
Copy CRC 5654332F
Track not present in AccurateRip database
Copy OK
Track 5
Filename D:\Georgi My RIPS\Carl Nielsen - The Danish Symphonist 10 CD Collection\Cd6\05 - Romance for Violin & Orchestra, Op 2 - Andante con duolo.wav
Peak level 21.3 %
Extraction speed 3.9 X
Track quality 99.9 %
Test CRC C79CBF98
Copy CRC C79CBF98
Track not present in AccurateRip database
Copy OK
Track 6
Filename D:\Georgi My RIPS\Carl Nielsen - The Danish Symphonist 10 CD Collection\Cd6\06 - Violin Sonata No 1 in A, Op 9 - I Allegro glorioso.wav
Pre-gap length 0:00:01.00
Peak level 100.0 %
Extraction speed 5.0 X
Track quality 99.9 %
Test CRC 484AE9DF
Copy CRC 484AE9DF
Track not present in AccurateRip database
Copy OK
Track 7
Filename D:\Georgi My RIPS\Carl Nielsen - The Danish Symphonist 10 CD Collection\Cd6\07 - Violin Sonata No 1 in A, Op 9 - II Andante.wav
Peak level 68.2 %
Extraction speed 5.7 X
Track quality 100.0 %
Test CRC B3702D92
Copy CRC B3702D92
Track not present in AccurateRip database
Copy OK
Track 8
Filename D:\Georgi My RIPS\Carl Nielsen - The Danish Symphonist 10 CD Collection\Cd6\08 - Violin Sonata No 1 in A, Op 9 - III Allegro piacevole e giovanile.wav
Peak level 91.3 %
Extraction speed 5.8 X
Track quality 100.0 %
Test CRC 50AA6902
Copy CRC 50AA6902
Track not present in AccurateRip database
Copy OK
None of the tracks are present in the AccurateRip database
No errors occurred
End of status report
---- CUETools DB Plugin V2.1.3
[CTDB TOCID: 1hftZ0mn0zPBFXPVcetRpSzRN8Y-] found, Submit result: 1hftZ0mn0zPBFXPVcetRpSzRN8Y- has been confirmed
[a7cb497f] (1/1) Accurately ripped
==== Log checksum 646E98E6130A55E602EF8141BBD714595B436838B442A82747646864528C2D4A ====
CD7: Carl Nielsen - Clarinet concerto / Wind quintet / Serenata in vano (60:11)
Исполнители:
John Kruse – clarinet
Cecile Boffin – side drum
The Czech Chamber Philharmonic Orchestra
Pardubice

Douglas Bostock
– conductor
Recorded in Pardubice (Czech Republic),
date unknown

Треклист:
CONCERTO FOR CLARINET AND
ORCHESTRA, OP.57

1. Allegretto un poco
2. Poco adgio
3. Allegro un poco
4. Allegro vivace
Исполнители:
Scandinavian Chamber Players:
Lars Graugaard – flite
Ole-Henrik Dahl – oboe
Hans Christian Braein – clarinet
Jens Tofte-Hansen – bassoon
Henning Hansen – french horn
Per Egholm – alto saxophone
Carsten Tagmose – cello
Michel Dabelsteen – double bass
Recorded in November, 1996
WIND QUINTET, OP. 43
5.I.
6.II.
7.III.
8. Theme
9. Variation I
10. Variation II
11. Variation III
12. Variation IV
13. Variation V
14. Variation VI
15. Variation VII
16. Variation VIII
17. Variation IX
18. Variation X
19. Variation XI
20. Variation XII
21. SERENATA IN VANO
for clarinet, bassoon, horn,
cello and double bass
Отчёт ЕАС
Exact Audio Copy V1.0 beta 3 from 29. August 2011
EAC extraction logfile from 1. April 2013, 9:31
Nielsen, Carl / Edition 07
Used drive : HL-DT-STDVDRAM GSA-T20N Adapter: 0 ID: 0
Read mode : Secure
Utilize accurate stream : Yes
Defeat audio cache : Yes
Make use of C2 pointers : No
Read offset correction : 667
Overread into Lead-In and Lead-Out : No
Fill up missing offset samples with silence : Yes
Delete leading and trailing silent blocks : No
Null samples used in CRC calculations : Yes
Used interface : Native Win32 interface for Win NT & 2000
Gap handling : Appended to previous track
Used output format : User Defined Encoder
Selected bitrate : 1024 kBit/s
Quality : High
Add ID3 tag : No
Command line compressor : C:\Program Files\Exact Audio Copy\Flac\flac.exe
Additional command line options : -8 -V -T "ARTIST=%artist%" -T "TITLE=%title%" -T "ALBUM=%albumtitle%" -T "DATE=%year%" -T "TRACKNUMBER=%tracknr%" -T "TOTALTRACKS=%numtracks%" -T "GENRE=%genre%" -T "ALBUMARTIST=%albumartist%" -T "ALBUM ARTIST=%albumartist%" -T "COMMENT=EAC Secure Mode, Test & Copy, AccurateRip, FLAC -8" %source%
TOC of the extracted CD
Track | Start | Length | Start sector | End sector
---------------------------------------------------------
1 | 0:00.00 | 8:53.43 | 0 | 40017
2 | 8:53.43 | 4:52.47 | 40018 | 61964
3 | 13:46.15 | 7:12.10 | 61965 | 94374
4 | 20:58.25 | 4:10.74 | 94375 | 113198
5 | 25:09.24 | 8:50.03 | 113199 | 152951
6 | 33:59.27 | 4:48.14 | 152952 | 174565
7 | 38:47.41 | 2:10.31 | 174566 | 184346
8 | 40:57.72 | 0:49.63 | 184347 | 188084
9 | 41:47.60 | 0:44.26 | 188085 | 191410
10 | 42:32.11 | 0:33.71 | 191411 | 193956
11 | 43:06.07 | 0:41.31 | 193957 | 197062
12 | 43:47.38 | 0:26.31 | 197063 | 199043
13 | 44:13.69 | 0:39.04 | 199044 | 201972
14 | 44:52.73 | 0:44.66 | 201973 | 205338
15 | 45:37.64 | 0:47.31 | 205339 | 208894
16 | 46:25.20 | 0:54.36 | 208895 | 212980
17 | 47:19.56 | 1:15.46 | 212981 | 218651
18 | 48:35.27 | 0:46.33 | 218652 | 222134
19 | 49:21.60 | 1:02.69 | 222135 | 226853
20 | 50:24.54 | 1:23.51 | 226854 | 233129
21 | 51:48.30 | 8:17.61 | 233130 | 270465
Track 1
Filename D:\Georgi My RIPS\Carl Nielsen - The Danish Symphonist 10 CD Collection\Cd7\01 - Concerto for Clarinet & Orchestra, Op 57 - I Allegretto un poco.wav
Pre-gap length 0:00:02.00
Peak level 100.0 %
Extraction speed 3.2 X
Track quality 100.0 %
Test CRC FAAD51D9
Copy CRC FAAD51D9
Track not present in AccurateRip database
Copy OK
Track 2
Filename D:\Georgi My RIPS\Carl Nielsen - The Danish Symphonist 10 CD Collection\Cd7\02 - Concerto for Clarinet & Orchestra, Op 57 - II Poco adagio.wav
Peak level 97.5 %
Extraction speed 3.6 X
Track quality 100.0 %
Test CRC 81E3C7B5
Copy CRC 81E3C7B5
Track not present in AccurateRip database
Copy OK
Track 3
Filename D:\Georgi My RIPS\Carl Nielsen - The Danish Symphonist 10 CD Collection\Cd7\03 - Concerto for Clarinet & Orchestra, Op 57 - III Allegro un poco.wav
Peak level 80.6 %
Extraction speed 4.0 X
Track quality 100.0 %
Test CRC C64D1110
Copy CRC C64D1110
Track not present in AccurateRip database
Copy OK
Track 4
Filename D:\Georgi My RIPS\Carl Nielsen - The Danish Symphonist 10 CD Collection\Cd7\04 - Concerto for Clarinet & Orchestra, Op 57 - IV Allegro vivace.wav
Peak level 100.0 %
Extraction speed 3.5 X
Track quality 99.9 %
Test CRC 903C90CE
Copy CRC 903C90CE
Track not present in AccurateRip database
Copy OK
Track 5
Filename D:\Georgi My RIPS\Carl Nielsen - The Danish Symphonist 10 CD Collection\Cd7\05 - Wind Quartet, Op 43 - I.wav
Pre-gap length 0:00:01.00
Peak level 97.5 %
Extraction speed 4.8 X
Track quality 100.0 %
Test CRC EF249681
Copy CRC EF249681
Track not present in AccurateRip database
Copy OK
Track 6
Filename D:\Georgi My RIPS\Carl Nielsen - The Danish Symphonist 10 CD Collection\Cd7\06 - Wind Quartet, Op 43 - II.wav
Peak level 64.0 %
Extraction speed 4.1 X
Track quality 99.9 %
Test CRC 95B48004
Copy CRC 95B48004
Track not present in AccurateRip database
Copy OK
Track 7
Filename D:\Georgi My RIPS\Carl Nielsen - The Danish Symphonist 10 CD Collection\Cd7\07 - Wind Quartet, Op 43 - III.wav
Peak level 55.3 %
Extraction speed 4.2 X
Track quality 100.0 %
Test CRC 0EE04FB5
Copy CRC 0EE04FB5
Track not present in AccurateRip database
Copy OK
Track 8
Filename D:\Georgi My RIPS\Carl Nielsen - The Danish Symphonist 10 CD Collection\Cd7\08 - Wind Quartet, Op 43 - Theme.wav
Peak level 37.5 %
Extraction speed 3.2 X
Track quality 100.0 %
Test CRC 02BDF928
Copy CRC 02BDF928
Track not present in AccurateRip database
Copy OK
Track 9
Filename D:\Georgi My RIPS\Carl Nielsen - The Danish Symphonist 10 CD Collection\Cd7\09 - Wind Quartet, Op 43 - Var I.wav
Peak level 50.9 %
Extraction speed 2.9 X
Track quality 100.0 %
Test CRC DC132775
Copy CRC DC132775
Track not present in AccurateRip database
Copy OK
Track 10
Filename D:\Georgi My RIPS\Carl Nielsen - The Danish Symphonist 10 CD Collection\Cd7\10 - Wind Quartet, Op 43 - Var II.wav
Peak level 69.8 %
Extraction speed 2.7 X
Track quality 100.0 %
Test CRC 79A8D078
Copy CRC 79A8D078
Track not present in AccurateRip database
Copy OK
Track 11
Filename D:\Georgi My RIPS\Carl Nielsen - The Danish Symphonist 10 CD Collection\Cd7\11 - Wind Quartet, Op 43 - Var III.wav
Peak level 41.2 %
Extraction speed 2.8 X
Track quality 100.0 %
Test CRC 6916BB01
Copy CRC 6916BB01
Track not present in AccurateRip database
Copy OK
Track 12
Filename D:\Georgi My RIPS\Carl Nielsen - The Danish Symphonist 10 CD Collection\Cd7\12 - Wind Quartet, Op 43 - Var IV.wav
Peak level 64.3 %
Extraction speed 2.2 X
Track quality 100.0 %
Test CRC E4070D55
Copy CRC E4070D55
Track not present in AccurateRip database
Copy OK
Track 13
Filename D:\Georgi My RIPS\Carl Nielsen - The Danish Symphonist 10 CD Collection\Cd7\13 - Wind Quartet, Op 43 - Var V.wav
Peak level 48.5 %
Extraction speed 2.8 X
Track quality 100.0 %
Test CRC CF250D0F
Copy CRC CF250D0F
Track not present in AccurateRip database
Copy OK
Track 14
Filename D:\Georgi My RIPS\Carl Nielsen - The Danish Symphonist 10 CD Collection\Cd7\14 - Wind Quartet, Op 43 - Var VI.wav
Peak level 52.4 %
Extraction speed 3.2 X
Track quality 100.0 %
Test CRC F5051265
Copy CRC F5051265
Track not present in AccurateRip database
Copy OK
Track 15
Filename D:\Georgi My RIPS\Carl Nielsen - The Danish Symphonist 10 CD Collection\Cd7\15 - Wind Quartet, Op 43 - Var VII.wav
Peak level 26.5 %
Extraction speed 3.0 X
Track quality 100.0 %
Test CRC 21FF6279
Copy CRC 21FF6279
Track not present in AccurateRip database
Copy OK
Track 16
Filename D:\Georgi My RIPS\Carl Nielsen - The Danish Symphonist 10 CD Collection\Cd7\16 - Wind Quartet, Op 43 - Var VIII.wav
Peak level 42.8 %
Extraction speed 3.5 X
Track quality 100.0 %
Test CRC 12482F1A
Copy CRC 12482F1A
Track not present in AccurateRip database
Copy OK
Track 17
Filename D:\Georgi My RIPS\Carl Nielsen - The Danish Symphonist 10 CD Collection\Cd7\17 - Wind Quartet, Op 43 - Var IX.wav
Peak level 58.9 %
Extraction speed 3.8 X
Track quality 100.0 %
Test CRC F065E11A
Copy CRC F065E11A
Track not present in AccurateRip database
Copy OK
Track 18
Filename D:\Georgi My RIPS\Carl Nielsen - The Danish Symphonist 10 CD Collection\Cd7\18 - Wind Quartet, Op 43 - Var X.wav
Peak level 62.8 %
Extraction speed 3.1 X
Track quality 100.0 %
Test CRC C7309156
Copy CRC C7309156
Track not present in AccurateRip database
Copy OK
Track 19
Filename D:\Georgi My RIPS\Carl Nielsen - The Danish Symphonist 10 CD Collection\Cd7\19 - Wind Quartet, Op 43 - Var XI.wav
Peak level 71.6 %
Extraction speed 3.6 X
Track quality 100.0 %
Test CRC 48F105D3
Copy CRC 48F105D3
Track not present in AccurateRip database
Copy OK
Track 20
Filename D:\Georgi My RIPS\Carl Nielsen - The Danish Symphonist 10 CD Collection\Cd7\20 - Wind Quartet, Op 43 - Var XII.wav
Peak level 54.9 %
Extraction speed 2.8 X
Track quality 99.8 %
Test CRC 15F930B5
Copy CRC 15F930B5
Track not present in AccurateRip database
Copy OK
Track 21
Filename D:\Georgi My RIPS\Carl Nielsen - The Danish Symphonist 10 CD Collection\Cd7\21 - Serenata in Vano.wav
Peak level 99.9 %
Extraction speed 5.9 X
Track quality 100.0 %
Test CRC 43423B84
Copy CRC 43423B84
Track not present in AccurateRip database
Copy OK
None of the tracks are present in the AccurateRip database
No errors occurred
End of status report
---- CUETools DB Plugin V2.1.3
[CTDB TOCID: 0jf6vl7EQHFR_oGvdD7.sf5FCvE-] found, Submit result: 0jf6vl7EQHFR_oGvdD7.sf5FCvE- has been confirmed
[5df4c031] (1/1) Accurately ripped
==== Log checksum DBF21078DEDD1A13EA8D084462788190F0A635D051894C914BCF048C56B89916 ====
CD8: Carl Nielsen - Piano works (63:44)
Исполнители:
Annie Oland – piano
Recorded in 1992-1993
Треклист:
FIVE PIANO PIECES, OP.3
1. Folk Melody
2. Humoresque
3. Arabesque
4. Mignon
5. Elf Dance
SYMPHONIC SUITE, OP.8
6. Intonation: Grave
7. Quasi allegretto
8. Andante
9. Finale: Allegro
HUMORESQUE BAGATELLES, OP.11
10. Goddag! Goddag!
(Good morning! Good morning!)
11. Snurretoppen
(The Spinning Top)
12. En lille langsom Vals
(A Little Slow Vals)
13. Spraellemanden
(The Jumping Jack)
14. Dukke-March (Doll's March)
15. Spillevaerket
(The Musical Clock)
16. FESTIVE PRELUDE
17. DROMMEN OM "GLADE JUL"
(The Dream of "Silent Night")
18. CHACONNE, OP. 32
19. THEME WITH VARIATIONS, OP. 40
Отчёт ЕАС
Exact Audio Copy V1.0 beta 3 from 29. August 2011
EAC extraction logfile from 1. April 2013, 10:29
Carl Nielsen / Complete Piano Works 1
Used drive : HL-DT-STDVDRAM GSA-T20N Adapter: 0 ID: 0
Read mode : Secure
Utilize accurate stream : Yes
Defeat audio cache : Yes
Make use of C2 pointers : No
Read offset correction : 667
Overread into Lead-In and Lead-Out : No
Fill up missing offset samples with silence : Yes
Delete leading and trailing silent blocks : No
Null samples used in CRC calculations : Yes
Used interface : Native Win32 interface for Win NT & 2000
Gap handling : Appended to previous track
Used output format : User Defined Encoder
Selected bitrate : 1024 kBit/s
Quality : High
Add ID3 tag : No
Command line compressor : C:\Program Files\Exact Audio Copy\Flac\flac.exe
Additional command line options : -8 -V -T "ARTIST=%artist%" -T "TITLE=%title%" -T "ALBUM=%albumtitle%" -T "DATE=%year%" -T "TRACKNUMBER=%tracknr%" -T "TOTALTRACKS=%numtracks%" -T "GENRE=%genre%" -T "ALBUMARTIST=%albumartist%" -T "ALBUM ARTIST=%albumartist%" -T "COMMENT=EAC Secure Mode, Test & Copy, AccurateRip, FLAC -8" %source%
TOC of the extracted CD
Track | Start | Length | Start sector | End sector
---------------------------------------------------------
1 | 0:00.00 | 2:32.28 | 0 | 11427
2 | 2:32.28 | 1:35.44 | 11428 | 18596
3 | 4:07.72 | 1:25.18 | 18597 | 24989
4 | 5:33.15 | 0:43.74 | 24990 | 28288
5 | 6:17.14 | 1:26.53 | 28289 | 34791
6 | 7:43.67 | 2:50.56 | 34792 | 47597
7 | 10:34.48 | 3:21.16 | 47598 | 62688
8 | 13:55.64 | 7:16.61 | 62689 | 95449
9 | 21:12.50 | 4:25.61 | 95450 | 115385
10 | 25:38.36 | 0:53.39 | 115386 | 119399
11 | 26:32.00 | 0:55.56 | 119400 | 123580
12 | 27:27.56 | 1:25.11 | 123581 | 129966
13 | 28:52.67 | 0:43.48 | 129967 | 133239
14 | 29:36.40 | 1:15.54 | 133240 | 138918
15 | 30:52.19 | 1:04.23 | 138919 | 143741
16 | 31:56.42 | 1:55.04 | 143742 | 152370
17 | 33:51.46 | 2:18.41 | 152371 | 162761
18 | 36:10.12 | 10:26.18 | 162762 | 209729
19 | 46:36.30 | 17:03.71 | 209730 | 286525
Track 1
Filename D:\Georgi My RIPS\Carl Nielsen - The Danish Symphonist 10 CD Collection\Cd8\01 - Fem Klaverstykker - Folketone.wav
Pre-gap length 0:00:02.00
Peak level 34.0 %
Extraction speed 2.0 X
Track quality 99.9 %
Test CRC 1970B6CF
Copy CRC 1970B6CF
Track not present in AccurateRip database
Copy OK
Track 2
Filename D:\Georgi My RIPS\Carl Nielsen - The Danish Symphonist 10 CD Collection\Cd8\02 - Fem Klaverstykker - Humoreske.wav
Peak level 47.1 %
Extraction speed 1.7 X
Track quality 99.8 %
Test CRC 31B33145
Copy CRC 31B33145
Track not present in AccurateRip database
Copy OK
Track 3
Filename D:\Georgi My RIPS\Carl Nielsen - The Danish Symphonist 10 CD Collection\Cd8\03 - Fem Klaverstykker - Arabeske.wav
Peak level 55.4 %
Extraction speed 2.4 X
Track quality 100.0 %
Test CRC B52C8F50
Copy CRC B52C8F50
Track not present in AccurateRip database
Copy OK
Track 4
Filename D:\Georgi My RIPS\Carl Nielsen - The Danish Symphonist 10 CD Collection\Cd8\04 - Fem Klaverstykker - Mignon.wav
Peak level 99.9 %
Extraction speed 2.0 X
Track quality 100.0 %
Test CRC 5239FD07
Copy CRC 5239FD07
Track not present in AccurateRip database
Copy OK
Track 5
Filename D:\Georgi My RIPS\Carl Nielsen - The Danish Symphonist 10 CD Collection\Cd8\05 - Fem Klaverstykker - Alfedans.wav
Peak level 69.6 %
Extraction speed 2.6 X
Track quality 100.0 %
Test CRC 8153B2B3
Copy CRC 8153B2B3
Track not present in AccurateRip database
Copy OK
Track 6
Filename D:\Georgi My RIPS\Carl Nielsen - The Danish Symphonist 10 CD Collection\Cd8\06 - Symfonisk Suite - Intonation (Grave).wav
Peak level 83.0 %
Extraction speed 3.2 X
Track quality 100.0 %
Test CRC 322C93AF
Copy CRC 322C93AF
Track not present in AccurateRip database
Copy OK
Track 7
Filename D:\Georgi My RIPS\Carl Nielsen - The Danish Symphonist 10 CD Collection\Cd8\07 - Symfonisk Suite - (Quasi Allegretto).wav
Peak level 82.7 %
Extraction speed 3.4 X
Track quality 100.0 %
Test CRC A9A93F3B
Copy CRC A9A93F3B
Track not present in AccurateRip database
Copy OK
Track 8
Filename D:\Georgi My RIPS\Carl Nielsen - The Danish Symphonist 10 CD Collection\Cd8\08 - Symfonisk Suite - (Andante).wav
Peak level 79.2 %
Extraction speed 4.1 X
Track quality 100.0 %
Test CRC 3663D633
Copy CRC 3663D633
Track not present in AccurateRip database
Copy OK
Track 9
Filename D:\Georgi My RIPS\Carl Nielsen - The Danish Symphonist 10 CD Collection\Cd8\09 - Symfonisk Suite - Finale (Allegro).wav
Peak level 80.0 %
Extraction speed 4.2 X
Track quality 100.0 %
Test CRC 3B4B9D8F
Copy CRC 3B4B9D8F
Track not present in AccurateRip database
Copy OK
Track 10
Filename D:\Georgi My RIPS\Carl Nielsen - The Danish Symphonist 10 CD Collection\Cd8\10 - Humoreske-Bagateller - Goddag! Goddag!.wav
Peak level 28.2 %
Extraction speed 2.9 X
Track quality 100.0 %
Test CRC 62230653
Copy CRC 62230653
Track not present in AccurateRip database
Copy OK
Track 11
Filename D:\Georgi My RIPS\Carl Nielsen - The Danish Symphonist 10 CD Collection\Cd8\11 - Humoreske-Bagateller - Snurretoppen.wav
Peak level 48.6 %
Extraction speed 1.8 X
Track quality 99.8 %
Test CRC 69323DCB
Copy CRC 69323DCB
Track not present in AccurateRip database
Copy OK
Track 12
Filename D:\Georgi My RIPS\Carl Nielsen - The Danish Symphonist 10 CD Collection\Cd8\12 - Humoreske-Bagateller - En Langsom Vals.wav
Peak level 28.9 %
Extraction speed 3.5 X
Track quality 100.0 %
Test CRC 2A15F7B8
Copy CRC 2A15F7B8
Track not present in AccurateRip database
Copy OK
Track 13
Filename D:\Georgi My RIPS\Carl Nielsen - The Danish Symphonist 10 CD Collection\Cd8\13 - Humoreske-Bagateller - Spr?llemanden.wav
Peak level 38.4 %
Extraction speed 2.8 X
Track quality 100.0 %
Test CRC 20B2BCA8
Copy CRC 20B2BCA8
Track not present in AccurateRip database
Copy OK
Track 14
Filename D:\Georgi My RIPS\Carl Nielsen - The Danish Symphonist 10 CD Collection\Cd8\14 - Humoreske-Bagateller - Dukke-March.wav
Peak level 23.9 %
Extraction speed 3.4 X
Track quality 100.0 %
Test CRC 65E2E3DA
Copy CRC 65E2E3DA
Track not present in AccurateRip database
Copy OK
Track 15
Filename D:\Georgi My RIPS\Carl Nielsen - The Danish Symphonist 10 CD Collection\Cd8\15 - Humoreske-Bagateller - Spillev?rket.wav
Peak level 41.0 %
Extraction speed 3.1 X
Track quality 100.0 %
Test CRC 54AF74EF
Copy CRC 54AF74EF
Track not present in AccurateRip database
Copy OK
Track 16
Filename D:\Georgi My RIPS\Carl Nielsen - The Danish Symphonist 10 CD Collection\Cd8\16 - Festpr?ludium.wav
Peak level 78.9 %
Extraction speed 3.8 X
Track quality 100.0 %
Test CRC 1E3984D9
Copy CRC 1E3984D9
Track not present in AccurateRip database
Copy OK
Track 17
Filename D:\Georgi My RIPS\Carl Nielsen - The Danish Symphonist 10 CD Collection\Cd8\17 - Drommen om ''Glade Jul''.wav
Peak level 24.6 %
Extraction speed 4.3 X
Track quality 100.0 %
Test CRC 1321598D
Copy CRC 1321598D
Track not present in AccurateRip database
Copy OK
Track 18
Filename D:\Georgi My RIPS\Carl Nielsen - The Danish Symphonist 10 CD Collection\Cd8\18 - Chaconne.wav
Peak level 76.8 %
Extraction speed 5.4 X
Track quality 100.0 %
Test CRC 924226D3
Copy CRC 924226D3
Track not present in AccurateRip database
Copy OK
Track 19
Filename D:\Georgi My RIPS\Carl Nielsen - The Danish Symphonist 10 CD Collection\Cd8\19 - Tema med Variationer.wav
Peak level 82.6 %
Extraction speed 6.0 X
Track quality 100.0 %
Test CRC 5B723965
Copy CRC 5B723965
Track not present in AccurateRip database
Copy OK
None of the tracks are present in the AccurateRip database
No errors occurred
End of status report
---- CUETools DB Plugin V2.1.3
[CTDB TOCID: q5anHWzbMVx7r_NdGTzPKIpcbWQ-] found, Submit result: q5anHWzbMVx7r_NdGTzPKIpcbWQ- has been confirmed
[dce44d84] (1/1) Accurately ripped
==== Log checksum 08626BCD7D36C2F16C8593D68DB3EB259309B66885D9734261512A6BB060BDEF ====
CD9: Carl Nielsen - Piano works (62:35)
Исполнители:
Annie Oland – piano
Recorded in 1992-1993
Треклист:
SUITE, OP.45
1. Allegretto un pochettino
2. Poco moderato
3. Molto adagio e patetico
4. Allegrettp innocente
5. Allegretto vivo
6. Allegro non troppo
ma vigoroso
THREE PIANO PIECES,
OP.59 POSTH.(1928)

7. Impromptu
8. Adagio
9. Allegro non troppo
PIANO MUSIC FPR CHILDREN
AND ADULTS

10. Allegretto
11. Allegretto
12. Allegro scherzoso
13. Graziozo
14. Andantino
15. Allegro giocoso
16. Poco lamentoso
17. Marziale
18. Cantabile
19. Allegretto civettuolo
20. Lugubre
21. Andantino poco tiepido
22. Adagio
23. Andantino carino
24. Capriccioso
25. Adagio espressivo
26. Alla contadino
27. Largo con fantasia
28. Preludio: Andante
29. "Alla Bach"
30. Adgaio
31. Marcia di goffo
32. Allegretto pastoralle
33. Etude: Allegro
34. Adgio. Allegretto commondo
Отчёт ЕАС
Exact Audio Copy V1.0 beta 3 from 29. August 2011
EAC extraction logfile from 1. April 2013, 11:45
Anne Oland / Carl Nielsen - Complete Piano Works 2
Used drive : HL-DT-STDVDRAM GSA-T20N Adapter: 0 ID: 0
Read mode : Secure
Utilize accurate stream : Yes
Defeat audio cache : Yes
Make use of C2 pointers : No
Read offset correction : 667
Overread into Lead-In and Lead-Out : No
Fill up missing offset samples with silence : Yes
Delete leading and trailing silent blocks : No
Null samples used in CRC calculations : Yes
Used interface : Native Win32 interface for Win NT & 2000
Gap handling : Appended to previous track
Used output format : User Defined Encoder
Selected bitrate : 1024 kBit/s
Quality : High
Add ID3 tag : No
Command line compressor : C:\Program Files\Exact Audio Copy\Flac\flac.exe
Additional command line options : -8 -V -T "ARTIST=%artist%" -T "TITLE=%title%" -T "ALBUM=%albumtitle%" -T "DATE=%year%" -T "TRACKNUMBER=%tracknr%" -T "TOTALTRACKS=%numtracks%" -T "GENRE=%genre%" -T "ALBUMARTIST=%albumartist%" -T "ALBUM ARTIST=%albumartist%" -T "COMMENT=EAC Secure Mode, Test & Copy, AccurateRip, FLAC -8" %source%
TOC of the extracted CD
Track | Start | Length | Start sector | End sector
---------------------------------------------------------
1 | 0:00.00 | 3:47.04 | 0 | 17028
2 | 3:47.04 | 2:40.06 | 17029 | 29034
3 | 6:27.10 | 6:07.31 | 29035 | 56590
4 | 12:34.41 | 1:57.31 | 56591 | 65396
5 | 14:31.72 | 1:24.31 | 65397 | 71727
6 | 15:56.28 | 7:40.28 | 71728 | 106255
7 | 23:36.56 | 3:07.51 | 106256 | 120331
8 | 26:44.32 | 3:10.59 | 120332 | 134640
9 | 29:55.16 | 5:18.01 | 134641 | 158491
10 | 35:13.17 | 0:33.71 | 158492 | 161037
11 | 35:47.13 | 0:59.08 | 161038 | 165470
12 | 36:46.21 | 0:44.34 | 165471 | 168804
13 | 37:30.55 | 1:01.66 | 168805 | 173445
14 | 38:32.46 | 0:28.11 | 173446 | 175556
15 | 39:00.57 | 0:50.03 | 175557 | 179309
16 | 39:50.60 | 1:37.51 | 179310 | 186635
17 | 41:28.36 | 0:40.71 | 186636 | 189706
18 | 42:09.32 | 0:47.24 | 189707 | 193255
19 | 42:56.56 | 0:38.38 | 193256 | 196143
20 | 43:35.19 | 1:29.04 | 196144 | 202822
21 | 45:04.23 | 0:55.48 | 202823 | 206995
22 | 45:59.71 | 1:04.63 | 206996 | 211858
23 | 47:04.59 | 1:01.04 | 211859 | 216437
24 | 48:05.63 | 0:54.49 | 216438 | 220536
25 | 49:00.37 | 1:23.28 | 220537 | 226789
26 | 50:23.65 | 0:58.61 | 226790 | 231200
27 | 51:22.51 | 1:50.16 | 231201 | 239466
28 | 53:12.67 | 0:49.61 | 239467 | 243202
29 | 54:02.53 | 0:50.54 | 243203 | 247006
30 | 54:53.32 | 1:09.43 | 247007 | 252224
31 | 56:03.00 | 1:05.19 | 252225 | 257118
32 | 57:08.19 | 1:30.18 | 257119 | 263886
33 | 58:38.37 | 0:50.06 | 263887 | 267642
34 | 59:28.43 | 2:59.65 | 267643 | 281132
Track 1
Filename D:\Georgi My RIPS\Carl Nielsen - The Danish Symphonist 10 CD Collection\Cd9\01 - Suite Op.45 I. Allegretto un pocchettino.wav
Pre-gap length 0:00:02.00
Peak level 76.5 %
Extraction speed 2.3 X
Track quality 99.9 %
Test CRC D1116797
Copy CRC D1116797
Track not present in AccurateRip database
Copy OK
Track 2
Filename D:\Georgi My RIPS\Carl Nielsen - The Danish Symphonist 10 CD Collection\Cd9\02 - Suite Op.45 II. Poco moderato.wav
Peak level 56.4 %
Extraction speed 2.9 X
Track quality 100.0 %
Test CRC 889D1714
Copy CRC 889D1714
Track not present in AccurateRip database
Copy OK
Track 3
Filename D:\Georgi My RIPS\Carl Nielsen - The Danish Symphonist 10 CD Collection\Cd9\03 - Suite Op.45 III. Molto Adagio e patetico.wav
Peak level 79.1 %
Extraction speed 3.5 X
Track quality 100.0 %
Test CRC F2418398
Copy CRC F2418398
Track not present in AccurateRip database
Copy OK
Track 4
Filename D:\Georgi My RIPS\Carl Nielsen - The Danish Symphonist 10 CD Collection\Cd9\04 - Suite Op.45 IV. Allegretto innocente.wav
Peak level 31.3 %
Extraction speed 3.1 X
Track quality 100.0 %
Test CRC AE8F2EE8
Copy CRC AE8F2EE8
Track not present in AccurateRip database
Copy OK
Track 5
Filename D:\Georgi My RIPS\Carl Nielsen - The Danish Symphonist 10 CD Collection\Cd9\05 - Suite Op.45 V. Allegretto vivo.wav
Peak level 38.5 %
Extraction speed 3.0 X
Track quality 100.0 %
Test CRC B8FB7492
Copy CRC B8FB7492
Track not present in AccurateRip database
Copy OK
Track 6
Filename D:\Georgi My RIPS\Carl Nielsen - The Danish Symphonist 10 CD Collection\Cd9\06 - Suite Op.45 VI. Allgretto non troppo ma vigoroso.wav
Peak level 96.4 %
Extraction speed 4.2 X
Track quality 100.0 %
Test CRC 1BE98A9A
Copy CRC 1BE98A9A
Track not present in AccurateRip database
Copy OK
Track 7
Filename D:\Georgi My RIPS\Carl Nielsen - The Danish Symphonist 10 CD Collection\Cd9\07 - Three Piano Pieces op.59 Posth I. Impromptu.wav
Peak level 92.4 %
Extraction speed 4.0 X
Track quality 100.0 %
Test CRC 0BED2629
Copy CRC 0BED2629
Track not present in AccurateRip database
Copy OK
Track 8
Filename D:\Georgi My RIPS\Carl Nielsen - The Danish Symphonist 10 CD Collection\Cd9\08 - Three Piano Pieces op.59 Posth II. Adagio.wav
Peak level 70.4 %
Extraction speed 4.1 X
Track quality 100.0 %
Test CRC B77DF41D
Copy CRC B77DF41D
Track not present in AccurateRip database
Copy OK
Track 9
Filename D:\Georgi My RIPS\Carl Nielsen - The Danish Symphonist 10 CD Collection\Cd9\09 - Three Piano Pieces op.59 Posth III. Allegro non troppo.wav
Peak level 90.2 %
Extraction speed 4.7 X
Track quality 100.0 %
Test CRC 924BD77C
Copy CRC 924BD77C
Track not present in AccurateRip database
Copy OK
Track 10
Filename D:\Georgi My RIPS\Carl Nielsen - The Danish Symphonist 10 CD Collection\Cd9\10 - Piano Music for Children and Adult op.53 I. Allegretto.wav
Peak level 23.2 %
Extraction speed 2.5 X
Track quality 100.0 %
Test CRC CDC8F080
Copy CRC CDC8F080
Track not present in AccurateRip database
Copy OK
Track 11
Filename D:\Georgi My RIPS\Carl Nielsen - The Danish Symphonist 10 CD Collection\Cd9\11 - Piano Music for Children and Adult op.53 II. Allegretto.wav
Peak level 21.4 %
Extraction speed 2.1 X
Track quality 99.8 %
Test CRC 8B32463C
Copy CRC 8B32463C
Track not present in AccurateRip database
Copy OK
Track 12
Filename D:\Georgi My RIPS\Carl Nielsen - The Danish Symphonist 10 CD Collection\Cd9\12 - Piano Music for Children and Adult op.53 III. Allegro scherzoso.wav
Peak level 42.7 %
Extraction speed 1.7 X
Track quality 99.7 %
Test CRC 2FD6E027
Copy CRC 2FD6E027
Track not present in AccurateRip database
Copy OK
Track 13
Filename D:\Georgi My RIPS\Carl Nielsen - The Danish Symphonist 10 CD Collection\Cd9\13 - Piano Music for Children and Adult op.53 IV. Grazioso.wav
Peak level 34.7 %
Extraction speed 3.4 X
Track quality 100.0 %
Test CRC 3FD15120
Copy CRC 3FD15120
Track not present in AccurateRip database
Copy OK
Track 14
Filename D:\Georgi My RIPS\Carl Nielsen - The Danish Symphonist 10 CD Collection\Cd9\14 - Piano Music for Children and Adult op.53 V. Andantino.wav
Peak level 17.6 %
Extraction speed 2.1 X
Track quality 100.0 %
Test CRC 7C9BAF32
Copy CRC 7C9BAF32
Track not present in AccurateRip database
Copy OK
Track 15
Filename D:\Georgi My RIPS\Carl Nielsen - The Danish Symphonist 10 CD Collection\Cd9\15 - Piano Music for Children and Adult op.53 VI. Allegro giocoso.wav
Peak level 26.1 %
Extraction speed 3.0 X
Track quality 100.0 %
Test CRC 54B2270D
Copy CRC 54B2270D
Track not present in AccurateRip database
Copy OK
Track 16
Filename D:\Georgi My RIPS\Carl Nielsen - The Danish Symphonist 10 CD Collection\Cd9\16 - Piano Music for Children and Adult op.53 VII. Poco lamentoso.wav
Peak level 20.2 %
Extraction speed 4.1 X
Track quality 100.0 %
Test CRC EDF94721
Copy CRC EDF94721
Track not present in AccurateRip database
Copy OK
Track 17
Filename D:\Georgi My RIPS\Carl Nielsen - The Danish Symphonist 10 CD Collection\Cd9\17 - Piano Music for Children and Adult op.53 VIII. Marziale.wav
Peak level 25.3 %
Extraction speed 2.9 X
Track quality 100.0 %
Test CRC B0CE4457
Copy CRC B0CE4457
Track not present in AccurateRip database
Copy OK
Track 18
Filename D:\Georgi My RIPS\Carl Nielsen - The Danish Symphonist 10 CD Collection\Cd9\18 - Piano Music for Children and Adult op.53 IX. Cantabile.wav
Peak level 21.8 %
Extraction speed 3.0 X
Track quality 100.0 %
Test CRC CFCC9A2A
Copy CRC CFCC9A2A
Track not present in AccurateRip database
Copy OK
Track 19
Filename D:\Georgi My RIPS\Carl Nielsen - The Danish Symphonist 10 CD Collection\Cd9\19 - Piano Music for Children and Adult op.53 X. Allegretto civettuolo.wav
Peak level 28.4 %
Extraction speed 1.6 X
Track quality 99.7 %
Test CRC 5E109883
Copy CRC 5E109883
Track not present in AccurateRip database
Copy OK
Track 20
Filename D:\Georgi My RIPS\Carl Nielsen - The Danish Symphonist 10 CD Collection\Cd9\20 - Piano Music for Children and Adult op.53 XI. Lugubre.wav
Peak level 27.5 %
Extraction speed 4.1 X
Track quality 100.0 %
Test CRC 166BDB28
Copy CRC 166BDB28
Track not present in AccurateRip database
Copy OK
Track 21
Filename D:\Georgi My RIPS\Carl Nielsen - The Danish Symphonist 10 CD Collection\Cd9\21 - Piano Music for Children and Adult op.53 XII. Andantino poco tiepido.wav
Peak level 24.7 %
Extraction speed 3.3 X
Track quality 100.0 %
Test CRC BAD15C63
Copy CRC BAD15C63
Track not present in AccurateRip database
Copy OK
Track 22
Filename D:\Georgi My RIPS\Carl Nielsen - The Danish Symphonist 10 CD Collection\Cd9\22 - Piano Music for Children and Adult op.53 XIII. Adagio.wav
Peak level 35.5 %
Extraction speed 3.8 X
Track quality 100.0 %
Test CRC A3CF63DE
Copy CRC A3CF63DE
Track not present in AccurateRip database
Copy OK
Track 23
Filename D:\Georgi My RIPS\Carl Nielsen - The Danish Symphonist 10 CD Collection\Cd9\23 - Piano Music for Children and Adult op.53 XVI. Andantino carino.wav
Peak level 26.0 %
Extraction speed 2.3 X
Track quality 99.8 %
Test CRC B7EB3579
Copy CRC B7EB3579
Track not present in AccurateRip database
Copy OK
Track 24
Filename D:\Georgi My RIPS\Carl Nielsen - The Danish Symphonist 10 CD Collection\Cd9\24 - Piano Music for Children and Adult op.53 XV. Capriecioso.wav
Peak level 30.1 %
Extraction speed 3.3 X
Track quality 100.0 %
Test CRC AF4E4E63
Copy CRC AF4E4E63
Track not present in AccurateRip database
Copy OK
Track 25
Filename D:\Georgi My RIPS\Carl Nielsen - The Danish Symphonist 10 CD Collection\Cd9\25 - Piano Music for Children and Adult op.53 XVI. Adagio espressivo.wav
Peak level 16.3 %
Extraction speed 4.2 X
Track quality 100.0 %
Test CRC F00E6475
Copy CRC F00E6475
Track not present in AccurateRip database
Copy OK
Track 26
Filename D:\Georgi My RIPS\Carl Nielsen - The Danish Symphonist 10 CD Collection\Cd9\26 - Piano Music for Children and Adult op.53 XVII. Alla contadino.wav
Peak level 41.6 %
Extraction speed 3.7 X
Track quality 100.0 %
Test CRC 62918A6B
Copy CRC 62918A6B
Track not present in AccurateRip database
Copy OK
Track 27
Filename D:\Georgi My RIPS\Carl Nielsen - The Danish Symphonist 10 CD Collection\Cd9\27 - Piano Music for Children and Adult op.53 XVIII. Largo con fantasia.wav
Peak level 45.4 %
Extraction speed 3.3 X
Track quality 99.9 %
Test CRC 4364E6FF
Copy CRC 4364E6FF
Track not present in AccurateRip database
Copy OK
Track 28
Filename D:\Georgi My RIPS\Carl Nielsen - The Danish Symphonist 10 CD Collection\Cd9\28 - Piano Music for Children and Adult op.53 XIX. Preludio Andante.wav
Peak level 7.5 %
Extraction speed 2.1 X
Track quality 99.7 %
Test CRC F1EEB077
Copy CRC F1EEB077
Track not present in AccurateRip database
Copy OK
Track 29
Filename D:\Georgi My RIPS\Carl Nielsen - The Danish Symphonist 10 CD Collection\Cd9\29 - Piano Music for Children and Adult op.53 XX. ''Alla Bach''.wav
Peak level 27.4 %
Extraction speed 3.4 X
Track quality 100.0 %
Test CRC EA7DB1A3
Copy CRC EA7DB1A3
Track not present in AccurateRip database
Copy OK
Track 30
Filename D:\Georgi My RIPS\Carl Nielsen - The Danish Symphonist 10 CD Collection\Cd9\30 - Piano Music for Children and Adult op.53 XXI. Adagio.wav
Peak level 18.9 %
Extraction speed 3.8 X
Track quality 100.0 %
Test CRC E04C262A
Copy CRC E04C262A
Track not present in AccurateRip database
Copy OK
Track 31
Filename D:\Georgi My RIPS\Carl Nielsen - The Danish Symphonist 10 CD Collection\Cd9\31 - Piano Music for Children and Adult op.53 XXII. Mareia di goffo.wav
Peak level 48.7 %
Extraction speed 3.8 X
Track quality 100.0 %
Test CRC CACB4551
Copy CRC CACB4551
Track not present in AccurateRip database
Copy OK
Track 32
Filename D:\Georgi My RIPS\Carl Nielsen - The Danish Symphonist 10 CD Collection\Cd9\32 - Piano Music for Children and Adult op.53 XXIII. Allegretto pastorale.wav
Peak level 33.1 %
Extraction speed 4.3 X
Track quality 100.0 %
Test CRC 2AEC7226
Copy CRC 2AEC7226
Track not present in AccurateRip database
Copy OK
Track 33
Filename D:\Georgi My RIPS\Carl Nielsen - The Danish Symphonist 10 CD Collection\Cd9\33 - Piano Music for Children and Adult op.53 XXIV. Etude Allegro.wav
Peak level 32.4 %
Extraction speed 3.4 X
Track quality 100.0 %
Test CRC B8C60246
Copy CRC B8C60246
Track not present in AccurateRip database
Copy OK
Track 34
Filename D:\Georgi My RIPS\Carl Nielsen - The Danish Symphonist 10 CD Collection\Cd9\34 - Piano Music for Children and Adult op.53 XXV. Adagio - Allegretto commodo.wav
Peak level 35.6 %
Extraction speed 5.3 X
Track quality 100.0 %
Test CRC 66FC1CFC
Copy CRC 66FC1CFC
Track not present in AccurateRip database
Copy OK
None of the tracks are present in the AccurateRip database
No errors occurred
End of status report
---- CUETools DB Plugin V2.1.3
[CTDB TOCID: PhVdk3fiBwb855kOCes_.OAoEcg-] found, Submit result: PhVdk3fiBwb855kOCes_.OAoEcg- has been confirmed
[b599b7d8] (1/1) Accurately ripped
==== Log checksum 57E03CA27A31F0418A51EFA84633AEDABB392347E07163FB03D4DE8301C1B10B ====
CD10: Carl Nielsen - Lieder (47:16)
Исполнители:
Ulrik Cold – bass
Johannes Mikkelsen – piano
Recorded in Hanover,
25-28 November 1980, 11 April 1982

Треклист:
1. Du danske Mand
(You Danish Man) (Drachmann)
2. Se dig ud en Sommersdag
(Look Out One Summer's Day)
(Aakjaer)
3. Jens Vejmand
(Jens Roadman)
(Aakjaer)
4. Som dubest Brond gi'r
altid klarest Vand
(As the Deepest Well E'Er
Gives the Cleanest Water)
(Aakjaer)
5. Den danske Sang
(The Danish Song) (Hoffmann)
6. Pa det jaevne
(In the Lowly) (Kaalund)
7. Nu lyser Lov I Lunde
(Now Gleams the Foliage
in the Grove) (Jorgensen)
8. Danmark I tusind Aar
(Denmark for a Thousand
Years)(Rordam)
9. Der dukker af Disen
(Out of the Mist Emerges)
(Aakjaer)
10. Frihed er det bedste Guld
(Freedom is the Best Gold)
(Stangnos/Thurah)
MUSIC SET TO FIVE POEMS
BY J. P. JACOBSEN, 0P. 4

11. Solnedgang (Sunset)
12. I Seraillets Have
(The Garden of the Serglio)
13. Til Asali (To Asali)
14. Irmelin Rose (Irmelin Rose)
15. Har Dagen sanket al sin
Sorg ( When the Day has
Gathered All Her Sorrow)
SIX SONGS SET TO TEXTS
BY LUDVIG HOLSTEIN, OP. 10

16.I. Aebleblomst (Apple Blossom)
17.II. Erindringens So
(The Lake of Memory)
18.III.Sommersang (Summer Song)
19.IV. Sang bag Ploven
(Song behind the Plough)
20.V. I Aften(This Evening)
21.VI. Hilsen (Greeting)
Отчёт ЕАС
Exact Audio Copy V1.0 beta 3 from 29. August 2011
EAC extraction logfile from 1. April 2013, 12:34
Nielsen, Carl / Edition 10 - Songs
Used drive : HL-DT-STDVDRAM GSA-T20N Adapter: 0 ID: 0
Read mode : Secure
Utilize accurate stream : Yes
Defeat audio cache : Yes
Make use of C2 pointers : No
Read offset correction : 667
Overread into Lead-In and Lead-Out : No
Fill up missing offset samples with silence : Yes
Delete leading and trailing silent blocks : No
Null samples used in CRC calculations : Yes
Used interface : Native Win32 interface for Win NT & 2000
Gap handling : Appended to previous track
Used output format : User Defined Encoder
Selected bitrate : 1024 kBit/s
Quality : High
Add ID3 tag : No
Command line compressor : C:\Program Files\Exact Audio Copy\Flac\flac.exe
Additional command line options : -8 -V -T "ARTIST=%artist%" -T "TITLE=%title%" -T "ALBUM=%albumtitle%" -T "DATE=%year%" -T "TRACKNUMBER=%tracknr%" -T "TOTALTRACKS=%numtracks%" -T "GENRE=%genre%" -T "ALBUMARTIST=%albumartist%" -T "ALBUM ARTIST=%albumartist%" -T "COMMENT=EAC Secure Mode, Test & Copy, AccurateRip, FLAC -8" %source%
TOC of the extracted CD
Track | Start | Length | Start sector | End sector
---------------------------------------------------------
1 | 0:00.00 | 2:01.30 | 0 | 9104
2 | 2:01.30 | 2:08.71 | 9105 | 18775
3 | 4:10.26 | 3:26.12 | 18776 | 34237
4 | 7:36.38 | 1:55.32 | 34238 | 42894
5 | 9:31.70 | 2:19.50 | 42895 | 53369
6 | 11:51.45 | 1:51.48 | 53370 | 61742
7 | 13:43.18 | 1:51.50 | 61743 | 70117
8 | 15:34.68 | 1:47.04 | 70118 | 78146
9 | 17:21.72 | 2:05.04 | 78147 | 87525
10 | 19:27.01 | 2:01.66 | 87526 | 96666
11 | 21:28.67 | 1:58.20 | 96667 | 105536
12 | 23:27.12 | 1:28.14 | 105537 | 112150
13 | 24:55.26 | 1:12.10 | 112151 | 117560
14 | 26:07.36 | 2:16.12 | 117561 | 127772
15 | 28:23.48 | 3:12.07 | 127773 | 142179
16 | 31:35.55 | 2:00.18 | 142180 | 151197
17 | 33:35.73 | 3:44.38 | 151198 | 168035
18 | 37:20.36 | 2:24.56 | 168036 | 178891
19 | 39:45.17 | 1:36.31 | 178892 | 186122
20 | 41:21.48 | 3:50.63 | 186123 | 203435
21 | 45:12.36 | 1:59.39 | 203436 | 212399
Track 1
Filename D:\Georgi My RIPS\Carl Nielsen - The Danish Symphonist 10 CD Collection\Cd10\01 - Du danske Mand.wav
Pre-gap length 0:00:02.00
Peak level 72.5 %
Extraction speed 2.4 X
Track quality 100.0 %
Test CRC 3589AB46
Copy CRC 3589AB46
Track not present in AccurateRip database
Copy OK
Track 2
Filename D:\Georgi My RIPS\Carl Nielsen - The Danish Symphonist 10 CD Collection\Cd10\02 - Se dig ud en Sommerdag.wav
Peak level 90.2 %
Extraction speed 2.6 X
Track quality 100.0 %
Test CRC D1C27AA8
Copy CRC D1C27AA8
Track not present in AccurateRip database
Copy OK
Track 3
Filename D:\Georgi My RIPS\Carl Nielsen - The Danish Symphonist 10 CD Collection\Cd10\03 - Jens Veijmand.wav
Peak level 46.3 %
Extraction speed 2.5 X
Track quality 99.9 %
Test CRC 47D650BA
Copy CRC 47D650BA
Track not present in AccurateRip database
Copy OK
Track 4
Filename D:\Georgi My RIPS\Carl Nielsen - The Danish Symphonist 10 CD Collection\Cd10\04 - Som dybest Brond gi'r altid klarest Vand.wav
Peak level 73.7 %
Extraction speed 2.8 X
Track quality 100.0 %
Test CRC A11761C7
Copy CRC A11761C7
Track not present in AccurateRip database
Copy OK
Track 5
Filename D:\Georgi My RIPS\Carl Nielsen - The Danish Symphonist 10 CD Collection\Cd10\05 - Den danske Sang.wav
Peak level 68.1 %
Extraction speed 3.1 X
Track quality 100.0 %
Test CRC 9677BFF1
Copy CRC 9677BFF1
Track not present in AccurateRip database
Copy OK
Track 6
Filename D:\Georgi My RIPS\Carl Nielsen - The Danish Symphonist 10 CD Collection\Cd10\06 - Pa det j?vne.wav
Peak level 62.9 %
Extraction speed 3.1 X
Track quality 100.0 %
Test CRC CBEE2665
Copy CRC CBEE2665
Track not present in AccurateRip database
Copy OK
Track 7
Filename D:\Georgi My RIPS\Carl Nielsen - The Danish Symphonist 10 CD Collection\Cd10\07 - Nu Lyser Lov i Lunde.wav
Peak level 66.8 %
Extraction speed 3.2 X
Track quality 100.0 %
Test CRC D517E758
Copy CRC D517E758
Track not present in AccurateRip database
Copy OK
Track 8
Filename D:\Georgi My RIPS\Carl Nielsen - The Danish Symphonist 10 CD Collection\Cd10\08 - Danmark i tusind Aar.wav
Peak level 61.8 %
Extraction speed 3.2 X
Track quality 100.0 %
Test CRC 45EB29AF
Copy CRC 45EB29AF
Track not present in AccurateRip database
Copy OK
Track 9
Filename D:\Georgi My RIPS\Carl Nielsen - The Danish Symphonist 10 CD Collection\Cd10\09 - Der dukker af Disen.wav
Peak level 51.7 %
Extraction speed 3.4 X
Track quality 100.0 %
Test CRC 4A6B54D9
Copy CRC 4A6B54D9
Track not present in AccurateRip database
Copy OK
Track 10
Filename D:\Georgi My RIPS\Carl Nielsen - The Danish Symphonist 10 CD Collection\Cd10\10 - Frihed er det bedste Guld.wav
Peak level 72.9 %
Extraction speed 3.5 X
Track quality 100.0 %
Test CRC 2D63F0AB
Copy CRC 2D63F0AB
Track not present in AccurateRip database
Copy OK
Track 11
Filename D:\Georgi My RIPS\Carl Nielsen - The Danish Symphonist 10 CD Collection\Cd10\11 - Five Songs, Op 4 - Solnedgang.wav
Peak level 79.8 %
Extraction speed 3.6 X
Track quality 100.0 %
Test CRC 814E8D94
Copy CRC 814E8D94
Track not present in AccurateRip database
Copy OK
Track 12
Filename D:\Georgi My RIPS\Carl Nielsen - The Danish Symphonist 10 CD Collection\Cd10\12 - Five Songs, Op 4 - I Seraillets Have.wav
Peak level 99.9 %
Extraction speed 3.3 X
Track quality 100.0 %
Test CRC 32301189
Copy CRC 32301189
Track not present in AccurateRip database
Copy OK
Track 13
Filename D:\Georgi My RIPS\Carl Nielsen - The Danish Symphonist 10 CD Collection\Cd10\13 - Five Songs, Op 4 - Til Asali.wav
Peak level 82.5 %
Extraction speed 3.2 X
Track quality 100.0 %
Test CRC 988F9A0A
Copy CRC 988F9A0A
Track not present in AccurateRip database
Copy OK
Track 14
Filename D:\Georgi My RIPS\Carl Nielsen - The Danish Symphonist 10 CD Collection\Cd10\14 - Five Songs, Op 4 - Irmelin Rose.wav
Peak level 92.8 %
Extraction speed 3.9 X
Track quality 100.0 %
Test CRC 5F387DEF
Copy CRC 5F387DEF
Track not present in AccurateRip database
Copy OK
Track 15
Filename D:\Georgi My RIPS\Carl Nielsen - The Danish Symphonist 10 CD Collection\Cd10\15 - Five Songs, Op 4 - Har Dagen sanket al sin Sorg.wav
Peak level 68.5 %
Extraction speed 4.2 X
Track quality 100.0 %
Test CRC 291AD460
Copy CRC 291AD460
Track not present in AccurateRip database
Copy OK
Track 16
Filename D:\Georgi My RIPS\Carl Nielsen - The Danish Symphonist 10 CD Collection\Cd10\16 - Six Songs, Op 10 - ?bleblomst.wav
Peak level 85.7 %
Extraction speed 4.0 X
Track quality 100.0 %
Test CRC 371CED97
Copy CRC 371CED97
Track not present in AccurateRip database
Copy OK
Track 17
Filename D:\Georgi My RIPS\Carl Nielsen - The Danish Symphonist 10 CD Collection\Cd10\17 - Six Songs, Op 10 - Erindringens So.wav
Peak level 64.4 %
Extraction speed 4.6 X
Track quality 100.0 %
Test CRC 975C2D3F
Copy CRC 975C2D3F
Track not present in AccurateRip database
Copy OK
Track 18
Filename D:\Georgi My RIPS\Carl Nielsen - The Danish Symphonist 10 CD Collection\Cd10\18 - Six Songs, Op 10 - Sommersang.wav
Peak level 68.0 %
Extraction speed 3.4 X
Track quality 99.9 %
Test CRC 54C9E5E4
Copy CRC 54C9E5E4
Track not present in AccurateRip database
Copy OK
Track 19
Filename D:\Georgi My RIPS\Carl Nielsen - The Danish Symphonist 10 CD Collection\Cd10\19 - Six Songs, Op 10 - Sang bag Ploven.wav
Peak level 91.6 %
Extraction speed 4.1 X
Track quality 100.0 %
Test CRC CFC21DA9
Copy CRC CFC21DA9
Track not present in AccurateRip database
Copy OK
Track 20
Filename D:\Georgi My RIPS\Carl Nielsen - The Danish Symphonist 10 CD Collection\Cd10\20 - Six Songs, Op 10 - I Aften.wav
Peak level 77.8 %
Extraction speed 5.0 X
Track quality 100.0 %
Test CRC A7F7BDAF
Copy CRC A7F7BDAF
Track not present in AccurateRip database
Copy OK
Track 21
Filename D:\Georgi My RIPS\Carl Nielsen - The Danish Symphonist 10 CD Collection\Cd10\21 - Six Songs, Op 10 - Hilsen.wav
Peak level 67.6 %
Extraction speed 3.4 X
Track quality 99.9 %
Test CRC EAEF9743
Copy CRC EAEF9743
Track not present in AccurateRip database
Copy OK
None of the tracks are present in the AccurateRip database
No errors occurred
End of status report
---- CUETools DB Plugin V2.1.3
[CTDB TOCID: gBoiXGDEb_M4kxh7JKsWcKKyo_k-] found, Submit result: gBoiXGDEb_M4kxh7JKsWcKKyo_k- has been confirmed
[122cc143] (1/1) Accurately ripped
==== Log checksum 60E845CD88999088766A7F05607C748A5FF05B3981533CECF4F26E3143B55156 ====
Доп. информация: Раздача является совместной работой ggeorgi59 (рип и сканирование) и harpv (оформление раздачи).
Наши раздачи
Download
Для скачивания .torrent файлов необходима регистрация
Сайт не распространяет и не хранит электронные версии произведений, а лишь предоставляет доступ к создаваемому пользователями каталогу ссылок на торрент-файлы, которые содержат только списки хеш-сумм
[Профиль]  [ЛС] 

harpv

Стаж: 10 лет

Сообщений: 14

harpv · 04-Апр-13 13:02 (спустя 20 часов, ред. 14-Апр-13 16:57)

[Цитировать] 

Карл Нильсен (1865-1931) - классик датской музыки и поздний романтик.
Он учится у Нильсона Гаде в Копенгагенской кансерватории и по ее окончании уезжает в большое европейское путешествие - в Германии, Австрии, Италии и Франции.
Нильсен был почетным музыкальным директором Копенгагена и преподвал в Королевской датской консерватории.
В его произведениях можно найти как строгий контрапункт и политональность так и традиционные мелодические формы. Во многом это музыка уже новаторская, близкая 20 веку, но сохранившая все самое драгоценное, что есть в романтической музыке. Нильсен создает свой собственный музыкальный язык, который иногда граничит с атональностью, с полифонией ХVІ и ХVІІ века, с камерной музикой Брамса, с клавирными произведениями Грига и симфоническими произведениями Свендсена.
Творчество Нильсена весьма разнообразно. Он работал почти во всех современных ему музыкальных жанрах — от оперы до фортепианной миниатюры и песни. Им созданы шесть симфоний и две оперы — «Саул и Давид» и «Маскарад» (по пьесе датского драматурга XVIII века Хольберга); три концерта (для скрипки, флейты и кларнета с оркестром), ряд одночастных оркестровых произведений («Пан и Сиринкс», «Сон о саге», увертюра «Гелиос»), четыре струнных квартета, струнный и духовой квинтеты, фортепианные и другие камерно-инструментальные произведения. Самые известные произведения Нильсена – симфонии, особенно 4-я, «Неугасимая».
Большинство записей основаны на новом издании Карла Нильсена. С 1994 года работы Нильсена ревизированны, не только с точки зрения музикологии, но учитывая практику исполнения - все очевидные слабости были устранены или исправлены, а слушатели могут оценить результаты. Сейчас можно наслаждатся произведениями Карла Нильсена такими какими они должны быть.
Эстетическое кредо композитора выраженно в словах «музыка есть жизнь и подобно ей — неугасима».
[Профиль]  [ЛС] 

inkaarhaom

Стаж: 8 лет 5 месяцев

Сообщений: 19

inkaarhaom · 17-Июн-13 14:24 (спустя 2 месяца 13 дней, ред. 17-Июн-13 14:24)

[Цитировать] 

Booklet?
BACK covers?
[Профиль]  [ЛС] 

harpv

Стаж: 10 лет

Сообщений: 14

harpv · 18-Июн-13 07:07 (спустя 16 часов)

[Цитировать] 

inkaarhaom
The BACK covers of all discs are in the folder Scans.
[Профиль]  [ЛС] 
 
Ответить
Loading...
Error