(House, Latin, Euro House) Los Del Rio - Fiesta Macarena - 1996, FLAC (tracks+.cue), lossless

Страницы:  1

Ответить
Автор
Сообщение

Bulldozer 013

Стаж: 9 лет 11 месяцев

Сообщений: 204


Bulldozer 013 · 30-Окт-12 17:26 (5 лет 11 месяцев назад)

Los Del Rio / Fiesta Macarena
Жанр: House, Latin, Euro House
Страна-производитель диска: Japan
Год издания: 1996
Издатель (лейбл): BMG Japan
Номер по каталогу: BVCP-957, 74321-39782-2
Страна: Spain
Аудиокодек: FLAC (*.flac)
Тип рипа: tracks+.cue
Битрейт аудио: lossless
Продолжительность: 1:18:07
Источник (релизер): Собственный рип
Наличие сканов в содержимом раздачи: да, 600dpi PNG
Треклист:
01. La Nina (Del Panuelo Colorado) (The Party Radio Edit)
02. Tocalo Tocalo
03. Macarena (Bayside Boys Remix)
04. San Sereni
05. No Te Vayas Todavia (The Old School Meme Remix)
06. Estas Pillao
07. Pura Carroceria (Meme Dance Short Remix)
08. Tengo, Tengo
09. El Sueno De La Marisma
10. La Polvareda
11. La Nina (Del Panuelo Colorado) (The Afterhouse Meme Dub)
12. Macarena (Original Version)
13. Macarena (River Re-Mix 103 BPM)
14. Macarena (Bass Bumpers Remix , Radio Edit)
15. Macarena (Vocal Mix)
16. Macarena (Latino Mix)
17. Macarena (Batucada Mix)
Лог создания рипа
Exact Audio Copy V1.0 beta 1 from 15. November 2010
EAC extraction logfile from 10. October 2012, 14:02
Los Del Rio / Fiesta Macarena
Used drive : ASUS DRW-24B3ST Adapter: 3 ID: 0
Read mode : Secure
Utilize accurate stream : Yes
Defeat audio cache : Yes
Make use of C2 pointers : No
Read offset correction : 6
Overread into Lead-In and Lead-Out : No
Fill up missing offset samples with silence : Yes
Delete leading and trailing silent blocks : No
Null samples used in CRC calculations : Yes
Used interface : Native Win32 interface for Win NT & 2000
Gap handling : Appended to previous track
Used output format : Пользовательский кодировщик
Selected bitrate : 1024 kBit/s
Quality : High
Add ID3 tag : Yes
Command line compressor : C:\Program Files\Exact Audio Copy\FLAC\FLAC.EXE
Additional command line options : -8 -V -T "ARTIST=%a" -T "TITLE=%t" -T "ALBUM=%g" -T "DATE=%y" -T "TRACKNUMBER=%n" -T "GENRE=%m" -T "COMMENT=EAC FLAC -8" %s
TOC of the extracted CD
Track | Start | Length | Start sector | End sector
---------------------------------------------------------
1 | 0:00.37 | 4:09.20 | 37 | 18731
2 | 4:09.57 | 3:52.33 | 18732 | 36164
3 | 8:02.15 | 3:54.10 | 36165 | 53724
4 | 11:56.25 | 4:37.07 | 53725 | 74506
5 | 16:33.32 | 4:30.53 | 74507 | 94809
6 | 21:04.10 | 4:28.47 | 94810 | 114956
7 | 25:32.57 | 4:38.33 | 114957 | 135839
8 | 30:11.15 | 4:23.67 | 135840 | 155631
9 | 34:35.07 | 3:54.45 | 155632 | 173226
10 | 38:29.52 | 3:42.60 | 173227 | 189936
11 | 42:12.37 | 6:43.05 | 189937 | 220166
12 | 48:55.42 | 4:09.70 | 220167 | 238911
13 | 53:05.37 | 5:04.43 | 238912 | 261754
14 | 58:10.05 | 3:26.57 | 261755 | 277261
15 | 61:36.62 | 5:35.50 | 277262 | 302436
16 | 67:12.37 | 5:34.00 | 302437 | 327486
17 | 72:46.37 | 5:20.38 | 327487 | 351524
Track 1
Filename C:\Users\Администратор\Desktop\Audio\01. La Nina (Del Panuelo Colorado) (The Party Radio Edit).wav
Pre-gap length 0:00:02.37
Peak level 100.0 %
Extraction speed 3.8 X
Track quality 100.0 %
Test CRC 22A4EDC3
Copy CRC 22A4EDC3
Accurately ripped (confidence 1) [1D52B78C]
Copy OK
Track 2
Filename C:\Users\Администратор\Desktop\Audio\02. Tocalo Tocalo.wav
Pre-gap length 0:00:01.24
Peak level 100.0 %
Extraction speed 3.3 X
Track quality 99.9 %
Test CRC CFD6AF05
Copy CRC CFD6AF05
Accurately ripped (confidence 1) [7A8D0591]
Copy OK
Track 3
Filename C:\Users\Администратор\Desktop\Audio\03. Macarena (Bayside Boys Remix).wav
Peak level 100.0 %
Extraction speed 4.5 X
Track quality 100.0 %
Test CRC 4F4585B4
Copy CRC 4F4585B4
Accurately ripped (confidence 2) [57BA984D]
Copy OK
Track 4
Filename C:\Users\Администратор\Desktop\Audio\04. San Sereni.wav
Pre-gap length 0:00:01.37
Peak level 100.0 %
Extraction speed 4.9 X
Track quality 100.0 %
Test CRC 9B5DF3EA
Copy CRC 9B5DF3EA
Accurately ripped (confidence 1) [5831ACC5]
Copy OK
Track 5
Filename C:\Users\Администратор\Desktop\Audio\05. No Te Vayas Todavia (The Old School Meme Remix).wav
Pre-gap length 0:00:01.14
Peak level 99.9 %
Extraction speed 5.2 X
Track quality 100.0 %
Test CRC C4C77C9A
Copy CRC C4C77C9A
Accurately ripped (confidence 1) [174BDB9F]
Copy OK
Track 6
Filename C:\Users\Администратор\Desktop\Audio\06. Estas Pillao.wav
Pre-gap length 0:00:01.12
Peak level 100.0 %
Extraction speed 4.5 X
Track quality 99.9 %
Test CRC 2CD1FF91
Copy CRC 2CD1FF91
Accurately ripped (confidence 1) [30610295]
Copy OK
Track 7
Filename C:\Users\Администратор\Desktop\Audio\07. Pura Carroceria (Meme Dance Short Remix).wav
Pre-gap length 0:00:00.56
Peak level 100.0 %
Extraction speed 5.8 X
Track quality 100.0 %
Test CRC 3E1CEE45
Copy CRC 3E1CEE45
Accurately ripped (confidence 1) [3F3A0071]
Copy OK
Track 8
Filename C:\Users\Администратор\Desktop\Audio\08. Tengo, Tengo.wav
Pre-gap length 0:00:01.02
Peak level 100.0 %
Extraction speed 6.1 X
Track quality 100.0 %
Test CRC F19BBB8C
Copy CRC F19BBB8C
Accurately ripped (confidence 1) [FF38C25A]
Copy OK
Track 9
Filename C:\Users\Администратор\Desktop\Audio\09. El Sueno De La Marisma.wav
Pre-gap length 0:00:01.24
Peak level 100.0 %
Extraction speed 6.2 X
Track quality 100.0 %
Test CRC 870FBB5B
Copy CRC 870FBB5B
Accurately ripped (confidence 1) [583FAEFF]
Copy OK
Track 10
Filename C:\Users\Администратор\Desktop\Audio\10. La Polvareda.wav
Pre-gap length 0:00:01.31
Peak level 100.0 %
Extraction speed 5.0 X
Track quality 99.9 %
Test CRC 4D453657
Copy CRC 4D453657
Accurately ripped (confidence 1) [8E56CDC2]
Copy OK
Track 11
Filename C:\Users\Администратор\Desktop\Audio\11. La Nina (Del Panuelo Colorado) (The Afterhouse Meme Dub).wav
Pre-gap length 0:00:01.11
Peak level 100.0 %
Extraction speed 7.0 X
Track quality 100.0 %
Test CRC 8C8C709C
Copy CRC 8C8C709C
Accurately ripped (confidence 1) [62681CBF]
Copy OK
Track 12
Filename C:\Users\Администратор\Desktop\Audio\12. Macarena (Original Version).wav
Pre-gap length 0:00:01.11
Peak level 100.0 %
Extraction speed 6.9 X
Track quality 100.0 %
Test CRC C4063042
Copy CRC C4063042
Accurately ripped (confidence 1) [9E03DD3D]
Copy OK
Track 13
Filename C:\Users\Администратор\Desktop\Audio\13. Macarena (River Re-Mix 103 BPM).wav
Pre-gap length 0:00:01.11
Peak level 97.6 %
Extraction speed 7.3 X
Track quality 100.0 %
Test CRC A5859286
Copy CRC A5859286
Accurately ripped (confidence 1) [0B9641F9]
Copy OK
Track 14
Filename C:\Users\Администратор\Desktop\Audio\14. Macarena (Bass Bumpers Remix , Radio Edit).wav
Pre-gap length 0:00:00.54
Peak level 100.0 %
Extraction speed 7.1 X
Track quality 100.0 %
Test CRC DAF0B7C5
Copy CRC DAF0B7C5
Accurately ripped (confidence 1) [2351F1D6]
Copy OK
Track 15
Filename C:\Users\Администратор\Desktop\Audio\15. Macarena (Vocal Mix).wav
Pre-gap length 0:00:00.74
Peak level 100.0 %
Extraction speed 7.8 X
Track quality 100.0 %
Test CRC 97E92634
Copy CRC 97E92634
Accurately ripped (confidence 1) [545A9B6E]
Copy OK
Track 16
Filename C:\Users\Администратор\Desktop\Audio\16. Macarena (Latino Mix).wav
Pre-gap length 0:00:00.74
Peak level 94.8 %
Extraction speed 8.1 X
Track quality 100.0 %
Test CRC B736329B
Copy CRC B736329B
Accurately ripped (confidence 1) [17775225]
Copy OK
Track 17
Filename C:\Users\Администратор\Desktop\Audio\17. Macarena (Batucada Mix).wav
Pre-gap length 0:00:00.74
Peak level 100.0 %
Extraction speed 8.2 X
Track quality 100.0 %
Test CRC C4AC8047
Copy CRC C4AC8047
Accurately ripped (confidence 1) [9368EB40]
Copy OK
All tracks accurately ripped
No errors occurred
End of status report
==== Log checksum 7190A227A8F8EFDCCBED1A1CBF95964B1D72DEBAE05C9D6200D36258E38F5A6C ====
Содержание индексной карты (.CUE)
REM GENRE Dance
REM DATE 1996
REM DISCID 04124F11
REM COMMENT "ExactAudioCopy v1.0b1"
PERFORMER "Los Del Rio"
TITLE "Fiesta Macarena"
FILE "01. La Nina (Del Panuelo Colorado) (The Party Radio Edit).wav" WAVE
TRACK 01 AUDIO
TITLE "La Nina (Del Panuelo Colorado) (The Party Radio Edit)"
PERFORMER "Los Del Rio"
PREGAP 00:00:37
INDEX 01 00:00:00
TRACK 02 AUDIO
TITLE "Tocalo Tocalo"
PERFORMER "Los Del Rio"
INDEX 00 04:07:71
FILE "02. Tocalo Tocalo.wav" WAVE
INDEX 01 00:00:00
FILE "03. Macarena (Bayside Boys Remix).wav" WAVE
TRACK 03 AUDIO
TITLE "Macarena (Bayside Boys Remix)"
PERFORMER "Los Del Rio"
INDEX 01 00:00:00
TRACK 04 AUDIO
TITLE "San Sereni"
PERFORMER "Los Del Rio"
INDEX 00 03:52:48
FILE "04. San Sereni.wav" WAVE
INDEX 01 00:00:00
TRACK 05 AUDIO
TITLE "No Te Vayas Todavia (The Old School Meme Remix)"
PERFORMER "Los Del Rio"
INDEX 00 04:35:68
FILE "05. No Te Vayas Todavia (The Old School Meme Remix).wav" WAVE
INDEX 01 00:00:00
TRACK 06 AUDIO
TITLE "Estas Pillao"
PERFORMER "Los Del Rio"
INDEX 00 04:29:41
FILE "06. Estas Pillao.wav" WAVE
INDEX 01 00:00:00
TRACK 07 AUDIO
TITLE "Pura Carroceria (Meme Dance Short Remix)"
PERFORMER "Los Del Rio"
INDEX 00 04:27:66
FILE "07. Pura Carroceria (Meme Dance Short Remix).wav" WAVE
INDEX 01 00:00:00
TRACK 08 AUDIO
TITLE "Tengo, Tengo"
PERFORMER "Los Del Rio"
INDEX 00 04:37:31
FILE "08. Tengo, Tengo.wav" WAVE
INDEX 01 00:00:00
TRACK 09 AUDIO
TITLE "El Sueno De La Marisma"
PERFORMER "Los Del Rio"
INDEX 00 04:22:43
FILE "09. El Sueno De La Marisma.wav" WAVE
INDEX 01 00:00:00
TRACK 10 AUDIO
TITLE "La Polvareda"
PERFORMER "Los Del Rio"
INDEX 00 03:53:14
FILE "10. La Polvareda.wav" WAVE
INDEX 01 00:00:00
TRACK 11 AUDIO
TITLE "La Nina (Del Panuelo Colorado) (The Afterhouse Meme Dub)"
PERFORMER "Los Del Rio"
INDEX 00 03:41:49
FILE "11. La Nina (Del Panuelo Colorado) (The Afterhouse Meme Dub).wav" WAVE
INDEX 01 00:00:00
TRACK 12 AUDIO
TITLE "Macarena (Original Version) "
PERFORMER "Los Del Rio"
INDEX 00 06:41:69
FILE "12. Macarena (Original Version).wav" WAVE
INDEX 01 00:00:00
TRACK 13 AUDIO
TITLE "Macarena (River Re-Mix 103 BPM)"
PERFORMER "Los Del Rio"
INDEX 00 04:08:59
FILE "13. Macarena (River Re-Mix 103 BPM).wav" WAVE
INDEX 01 00:00:00
TRACK 14 AUDIO
TITLE "Macarena (Bass Bumpers Remix / Radio Edit)"
PERFORMER "Los Del Rio"
INDEX 00 05:03:64
FILE "14. Macarena (Bass Bumpers Remix , Radio Edit).wav" WAVE
INDEX 01 00:00:00
TRACK 15 AUDIO
TITLE "Macarena (Vocal Mix)"
PERFORMER "Los Del Rio"
INDEX 00 03:25:58
FILE "15. Macarena (Vocal Mix).wav" WAVE
INDEX 01 00:00:00
TRACK 16 AUDIO
TITLE "Macarena (Latino Mix)"
PERFORMER "Los Del Rio"
INDEX 00 05:34:51
FILE "16. Macarena (Latino Mix).wav" WAVE
INDEX 01 00:00:00
TRACK 17 AUDIO
TITLE "Macarena (Batucada Mix)"
PERFORMER "Los Del Rio"
INDEX 00 05:33:01
FILE "17. Macarena (Batucada Mix).wav" WAVE
INDEX 01 00:00:00
Download
Для скачивания .torrent файлов необходима регистрация
Сайт не распространяет и не хранит электронные версии произведений, а лишь предоставляет доступ к создаваемому пользователями каталогу ссылок на торрент-файлы, которые содержат только списки хеш-сумм
[Профиль]  [ЛС] 

ZloyPerchik

Стаж: 8 лет 1 месяц

Сообщений: 452

ZloyPerchik · 30-Окт-12 19:02 (спустя 1 час 35 мин.)

[Цитировать] 

Спасибо, теперь столько версий "макарен" - на любой вкус и цвет А вот никто не встречал "новогодней" версии с колоколами (по радио в 90-е слышал)?
[Профиль]  [ЛС] 

Bulldozer 013

Стаж: 9 лет 11 месяцев

Сообщений: 204


Bulldozer 013 · 08-Ноя-12 20:37 (спустя 9 дней)

[Цитировать] 

Masha_New
ZloyPerchik
Пожалуйста.
Про новогоднюю, к сожалению, не слышал.
Даже по треклистам на дискогсе ничего такого новогодне-рождественского в названиях ремиксов...
[Профиль]  [ЛС] 

Electrician1974

Стаж: 6 лет 9 месяцев

Сообщений: 111

Electrician1974 · 28-Ноя-12 22:39 (спустя 20 дней)

[Цитировать] 

Спасибо, Macarena от Bass Bumpers - это шедевр!!!
[Профиль]  [ЛС] 

MSISasha

Стаж: 9 лет 3 месяца

Сообщений: 480

MSISasha · 30-Ноя-12 00:09 (спустя 1 день 1 час)

[Цитировать] 

Bulldozer 013 писал(а):
Про новогоднюю, к сожалению, не слышал.
Даже по треклистам на дискогсе ничего такого новогодне-рождественского в названиях ремиксов...
http://www.youtube.com/watch?v=m6z7L9fB_AE
[Профиль]  [ЛС] 

Bulldozer 013

Стаж: 9 лет 11 месяцев

Сообщений: 204


Bulldozer 013 · 30-Ноя-12 11:47 (спустя 11 часов)

[Цитировать] 

Есть такой сингл! Называется Macarena Christmas. Имеется в свободной продаже на дискогсе.
[Профиль]  [ЛС] 

ZloyPerchik

Стаж: 8 лет 1 месяц

Сообщений: 452

ZloyPerchik · 30-Ноя-12 17:56 (спустя 6 часов)

[Цитировать] 

Точно! Уфф, значит не приглючило
Bulldozer 013 писал(а):
56589182Есть такой сингл! Называется Macarena Christmas. Имеется в свободной продаже на дискогсе.
[Профиль]  [ЛС] 

Norco-77

Top Seed 02* 80r

Стаж: 10 лет 8 месяцев

Сообщений: 1459

Norco-77 · 04-Дек-12 01:36 (спустя 3 дня, ред. 04-Дек-12 01:36)

[Цитировать] 

Electrician1974 писал(а):
56567117Спасибо, Macarena от Bass Bumpers - это шедевр!!!
Los Del Rio ‎– Macarena (The Bass Bumpers Remixes)
[Профиль]  [ЛС] 

[email protected]@TOR-

Top Seed 04* 320r

Стаж: 9 лет 7 месяцев

Сообщений: 1403

[email protected]@TOR- · 04-Дек-12 21:09 (спустя 19 часов)

[Цитировать] 

Norco-77 писал(а):
56653962
Electrician1974 писал(а):
56567117Спасибо, Macarena от Bass Bumpers - это шедевр!!!
Los Del Rio ‎– Macarena (The Bass Bumpers Remixes)
Спасибо за ссылку!
[Профиль]  [ЛС] 

Ksanich1988

Стаж: 4 года 11 месяцев

Сообщений: 4


Ksanich1988 · 10-Май-18 21:09 (спустя 5 лет 5 месяцев)

[Цитировать] 

А Acapella есть у кого нибудь? Обыскался уже...
[Профиль]  [ЛС] 
 
Ответить
Loading...
Error