(Latin, Pop) Julio Iglesias - Volumen 1 - 2011, FLAC (image+.cue), lossless

Страницы:  1

Ответить
Автор
Сообщение

Paoblo

Стаж: 7 лет 11 месяцев

Сообщений: 100


Paoblo · 07-Апр-12 15:16 (6 лет 1 месяц назад, ред. 08-Апр-12 16:10)

Julio Iglesias / Volumen 1
Жанр: Latin, Pop
Страна-производитель диска: Испания
Год издания: 2011
Издатель (лейбл): Sony Music
Номер по каталогу: 88697988832
Страна: Испания
Аудиокодек: FLAC (*.flac)
Тип рипа: image+.cue
Битрейт аудио: lossless
Продолжительность: 2:14:59 (1:03:16 + 1:11:43)
Источник (релизер): Audio CD (Собственная коллекция)
Наличие сканов в содержимом раздачи: да
Треклист
CD1
01. Hey [Spanish Version] [0:05:06.57]
02. De Nina A Mujer [0:03:06.26]
03. Amor, Amor, Amor [0:03:22.04]
04. Nathalie [0:03:53.62]
05. Por El Amor De Una Mujer [Remastered Version] [0:03:53.33]
06. Un Canto A Galicia [0:03:51.81]
07. Corazon Partio [Remastered Version] [0:04:51.30]
08. To All The Girls I've Loved Before [Remastered Version] [0:03:33.96]
09. El Dia Que Me Quieras [Remastered Version] [0:03:03.54]
10. Bamboleo [0:04:49.06]
11. When I Need You [Remastered Version] [0:04:17.86]
12. La Carretera [0:04:54.29]
13. La Cumparsita [Remastered Version] [0:02:34.61]
14. My Love [Remastered Version] [0:05:36.57]
15. El Amor [0:03:01.82]
16. Crazy [Remastered Version] [0:03:19.73]
CD2
01. Lo Mejor De Tu Vida [0:04:46.29]
02. Voy A Perder La Cabeza Por Tu Amor [Remastered Version] [0:04:56.22]
03. Me Va, Me Va [0:04:41.52]
04. Manuela [Remastered Version] [0:03:31.73]
05. No Soy De Aqui [Remastered Version] [0:03:41.08]
06. Caruso [Remastered Version] [0:05:50.26]
07. Derroche [Remastered Version] [0:03:36.45]
08. All Of You [Remastered Version] [0:04:00.88]
09. Uno [Remastered Version] [0:04:46.45]
10. Baila Morena [0:04:10.58]
11. Always On My Mind [0:03:33.70]
12. Quijote [0:03:43.16]
13. Popurri Mexicano [0:07:39.05]
14. Fragile [Remastered Version] [0:04:22.58]
15. Me Olvide De Vivir [0:04:48.06]
16. Crazy In Love [Remastered Version] [0:03:35.00]
Лог создания рипа
EAC-Log CD1
Exact Audio Copy V1.0 beta 1 from 15. November 2010
EAC extraction logfile from 7. April 2012, 12:24
Julio Iglesias / Julio Iglesias, Volumen 1 (CD1)
Used drive : TSSTcorpCDDVDW SH-S222L Adapter: 4 ID: 0
Read mode : Secure
Utilize accurate stream : Yes
Defeat audio cache : Yes
Make use of C2 pointers : No
Read offset correction : 6
Overread into Lead-In and Lead-Out : No
Fill up missing offset samples with silence : Yes
Delete leading and trailing silent blocks : No
Null samples used in CRC calculations : Yes
Used interface : Native Win32 interface for Win NT & 2000
Used output format : Internal WAV Routines
Sample format : 44.100 Hz; 16 Bit; Stereo
TOC of the extracted CD
Track | Start | Length | Start sector | End sector
---------------------------------------------------------
1 | 0:00.00 | 5:06.43 | 0 | 22992
2 | 5:06.43 | 3:06.20 | 22993 | 36962
3 | 8:12.63 | 3:22.03 | 36963 | 52115
4 | 11:34.66 | 3:53.47 | 52116 | 69637
5 | 15:28.38 | 3:53.25 | 69638 | 87137
6 | 19:21.63 | 3:51.61 | 87138 | 104523
7 | 23:13.49 | 4:51.23 | 104524 | 126371
8 | 28:04.72 | 3:33.72 | 126372 | 142418
9 | 31:38.69 | 3:03.41 | 142419 | 156184
10 | 34:42.35 | 4:49.05 | 156185 | 177864
11 | 39:31.40 | 4:17.65 | 177865 | 197204
12 | 43:49.30 | 4:54.22 | 197205 | 219276
13 | 48:43.52 | 2:34.46 | 219277 | 230872
14 | 51:18.23 | 5:36.43 | 230873 | 256115
15 | 56:54.66 | 3:01.62 | 256116 | 269752
16 | 59:56.53 | 3:19.55 | 269753 | 284732
Range status and errors
Selected range
Filename D:\Temp\1\Julio Iglesias - Julio Iglesias, Volumen 1 (CD1).wav
Peak level 100.0 %
Extraction speed 0.3 X
Range quality 100.0 %
Test CRC AA708634
Copy CRC AA708634
Copy OK
No errors occurred
AccurateRip summary
Track 1 not present in database
Track 2 not present in database
Track 3 not present in database
Track 4 not present in database
Track 5 not present in database
Track 6 not present in database
Track 7 not present in database
Track 8 not present in database
Track 9 not present in database
Track 10 not present in database
Track 11 not present in database
Track 12 not present in database
Track 13 not present in database
Track 14 not present in database
Track 15 not present in database
Track 16 not present in database
None of the tracks are present in the AccurateRip database
End of status report
==== Log checksum DBF87B715046B4EC8C3E5F9B6BCA725AD0F84B4C81BF29D3E6E97E5308D1C196 ====
EAC-Log CD2
Exact Audio Copy V1.0 beta 1 from 15. November 2010
EAC extraction logfile from 7. April 2012, 12:44
Julio Iglesias / Julio Iglesias, Volumen 1 (CD2)
Used drive : TSSTcorpCDDVDW SH-S222L Adapter: 4 ID: 0
Read mode : Secure
Utilize accurate stream : Yes
Defeat audio cache : Yes
Make use of C2 pointers : No
Read offset correction : 6
Overread into Lead-In and Lead-Out : No
Fill up missing offset samples with silence : Yes
Delete leading and trailing silent blocks : No
Null samples used in CRC calculations : Yes
Used interface : Native Win32 interface for Win NT & 2000
Used output format : Internal WAV Routines
Sample format : 44.100 Hz; 16 Bit; Stereo
TOC of the extracted CD
Track | Start | Length | Start sector | End sector
---------------------------------------------------------
1 | 0:00.00 | 4:46.22 | 0 | 21471
2 | 4:46.22 | 4:56.17 | 21472 | 43688
3 | 9:42.39 | 4:41.39 | 43689 | 64802
4 | 14:24.03 | 3:31.55 | 64803 | 80682
5 | 17:55.58 | 3:41.06 | 80683 | 97263
6 | 21:36.64 | 5:50.20 | 97264 | 123533
7 | 27:27.09 | 3:36.34 | 123534 | 139767
8 | 31:03.43 | 4:00.66 | 139768 | 157833
9 | 35:04.34 | 4:46.34 | 157834 | 179317
10 | 39:50.68 | 4:10.44 | 179318 | 198111
11 | 44:01.37 | 3:33.53 | 198112 | 214139
12 | 47:35.15 | 3:43.12 | 214140 | 230876
13 | 51:18.27 | 7:39.04 | 230877 | 265305
14 | 58:57.31 | 4:22.44 | 265306 | 284999
15 | 63:20.00 | 4:48.05 | 285000 | 306604
16 | 68:08.05 | 3:35.00 | 306605 | 322729
Range status and errors
Selected range
Filename D:\Temp\2\Julio Iglesias - Julio Iglesias, Volumen 1 (CD2).wav
Peak level 100.0 %
Extraction speed 0.4 X
Range quality 100.0 %
Test CRC FC41BF7D
Copy CRC FC41BF7D
Copy OK
No errors occurred
AccurateRip summary
Track 1 not present in database
Track 2 not present in database
Track 3 not present in database
Track 4 not present in database
Track 5 not present in database
Track 6 not present in database
Track 7 not present in database
Track 8 not present in database
Track 9 not present in database
Track 10 not present in database
Track 11 not present in database
Track 12 not present in database
Track 13 not present in database
Track 14 not present in database
Track 15 not present in database
Track 16 not present in database
None of the tracks are present in the AccurateRip database
End of status report
==== Log checksum BA43FE744CC1A2FA6405B9B4D3B15A9C9396FBB435047ABB74C1F38213F15125 ====
Содержание индексной карты (.CUE)

CUE CD1
REM GENRE "Latin, Pop"
REM DATE 2011
REM DISCID E80ED410
REM COMMENT "ExactAudioCopy v1.0b1"
CATALOG 88697988832
PERFORMER "Julio Iglesias"
TITLE "Volumen 1 (CD1)"
FILE "Julio Iglesias - Volumen 1 (CD1) - (2011).flac" WAVE
TRACK 01 AUDIO
TITLE "Hey [Spanish Version]"
PERFORMER "Julio Iglesias"
INDEX 01 00:00:00
TRACK 02 AUDIO
TITLE "De Nina A Mujer"
PERFORMER "Julio Iglesias"
INDEX 01 05:06:43
TRACK 03 AUDIO
TITLE "Amor, Amor, Amor"
PERFORMER "Julio Iglesias"
INDEX 00 08:12:30
INDEX 01 08:12:63
TRACK 04 AUDIO
TITLE "Nathalie"
PERFORMER "Julio Iglesias"
INDEX 00 11:34:19
INDEX 01 11:34:66
TRACK 05 AUDIO
TITLE "Por El Amor De Una Mujer [Remastered Version]"
PERFORMER "Julio Iglesias"
INDEX 01 15:28:38
TRACK 06 AUDIO
TITLE "Un Canto A Galicia"
PERFORMER "Julio Iglesias"
INDEX 01 19:21:63
TRACK 07 AUDIO
TITLE "Corazon Partio [Remastered Version]"
PERFORMER "Julio Iglesias"
INDEX 00 23:13:19
INDEX 01 23:13:49
TRACK 08 AUDIO
TITLE "To All The Girls I've Loved Before [Remastered Version]"
PERFORMER "Julio Iglesias"
INDEX 01 28:04:72
TRACK 09 AUDIO
TITLE "El Dia Que Me Quieras [Remastered Version]"
PERFORMER "Julio Iglesias"
INDEX 01 31:38:69
TRACK 10 AUDIO
TITLE "Bamboleo"
PERFORMER "Julio Iglesias"
INDEX 01 34:42:35
TRACK 11 AUDIO
TITLE "When I Need You [Remastered Version]"
PERFORMER "Julio Iglesias"
INDEX 01 39:31:40
TRACK 12 AUDIO
TITLE "La Carretera"
PERFORMER "Julio Iglesias"
INDEX 01 43:49:30
TRACK 13 AUDIO
TITLE "La Cumparsita [Remastered Version]"
PERFORMER "Julio Iglesias"
INDEX 01 48:43:52
TRACK 14 AUDIO
TITLE "My Love [Remastered Version]"
PERFORMER "Julio Iglesias"
INDEX 01 51:18:23
TRACK 15 AUDIO
TITLE "El Amor"
PERFORMER "Julio Iglesias"
INDEX 01 56:54:66
TRACK 16 AUDIO
TITLE "Crazy [Remastered Version]"
PERFORMER "Julio Iglesias"
INDEX 01 59:56:53
CUE CD2
REM GENRE "Latin, Pop"
REM DATE 2011
REM DISCID FB10CF10
REM COMMENT "ExactAudioCopy v1.0b1"
CATALOG 88697988832
PERFORMER "Julio Iglesias"
TITLE "Volumen 1 (CD2)"
FILE "Julio Iglesias - Volumen 1 (CD2) - (2011).flac" WAVE
TRACK 01 AUDIO
TITLE "Lo Mejor De Tu Vida"
PERFORMER "Julio Iglesias"
INDEX 01 00:00:00
TRACK 02 AUDIO
TITLE "Voy A Perder La Cabeza Por Tu Amor [Remastered Version]"
PERFORMER "Julio Iglesias"
INDEX 01 04:46:22
TRACK 03 AUDIO
TITLE "Me Va, Me Va"
PERFORMER "Julio Iglesias"
INDEX 01 09:42:39
TRACK 04 AUDIO
TITLE "Manuela [Remastered Version]"
PERFORMER "Julio Iglesias"
INDEX 01 14:24:03
TRACK 05 AUDIO
TITLE "No Soy De Aqui [Remastered Version]"
PERFORMER "Julio Iglesias"
INDEX 01 17:55:58
TRACK 06 AUDIO
TITLE "Caruso [Remastered Version]"
PERFORMER "Julio Iglesias"
INDEX 01 21:36:64
TRACK 07 AUDIO
TITLE "Derroche [Remastered Version]"
PERFORMER "Julio Iglesias"
INDEX 01 27:27:09
TRACK 08 AUDIO
TITLE "All Of You [Remastered Version]"
PERFORMER "Julio Iglesias"
INDEX 01 31:03:43
TRACK 09 AUDIO
TITLE "Uno [Remastered Version]"
PERFORMER "Julio Iglesias"
INDEX 01 35:04:34
TRACK 10 AUDIO
TITLE "Baila Morena"
PERFORMER "Julio Iglesias"
INDEX 01 39:50:68
TRACK 11 AUDIO
TITLE "Always On My Mind"
PERFORMER "Julio Iglesias"
INDEX 01 44:01:37
TRACK 12 AUDIO
TITLE "Quijote"
PERFORMER "Julio Iglesias"
INDEX 01 47:35:15
TRACK 13 AUDIO
TITLE "Popurri Mexicano"
PERFORMER "Julio Iglesias"
INDEX 01 51:18:27
TRACK 14 AUDIO
TITLE "Fragile [Remastered Version]"
PERFORMER "Julio Iglesias"
INDEX 01 58:57:31
TRACK 15 AUDIO
TITLE "Me Olvide De Vivir"
PERFORMER "Julio Iglesias"
INDEX 01 63:20:00
TRACK 16 AUDIO
TITLE "Crazy In Love [Remastered Version]"
PERFORMER "Julio Iglesias"
INDEX 01 68:08:05
Скриншот спектра частот
CD 1:

CD 2:
Доп. информация: http://www.amazon.de/gp/product/B005WHSNH8/ref=oh_o02_s00_i00_details
Download
Для скачивания .torrent файлов необходима регистрация
Сайт не распространяет и не хранит электронные версии произведений, а лишь предоставляет доступ к создаваемому пользователями каталогу ссылок на торрент-файлы, которые содержат только списки хеш-сумм
[Профиль]  [ЛС] 

dekabr4

Стаж: 8 лет 10 месяцев

Сообщений: 352


dekabr4 · 24-Окт-14 10:24 (спустя 2 года 6 месяцев)

[Цитировать] 

Очень любовнице нравится ХУЛИО торчит от него как моль под нафтолином .Скачиваю для нее Релизу RESPEKT
[Профиль]  [ЛС] 

Tayheba

Стаж: 8 лет 2 месяца

Сообщений: 3


Tayheba · 05-Дек-14 22:00 (спустя 1 месяц 12 дней)

[Цитировать] 

Огромное спасибо релизеру! Это один из лучших рипов, звук шикарный!!!! Этот рип делали Вы????
[Профиль]  [ЛС] 

Paoblo

Стаж: 7 лет 11 месяцев

Сообщений: 100


Paoblo · 25-Янв-15 14:44 (спустя 1 месяц 19 дней)

[Цитировать] 

Tayheba писал(а):
66083228Огромное спасибо релизеру! Это один из лучших рипов, звук шикарный!!!! Этот рип делали Вы????
Да.
[Профиль]  [ЛС] 
 
Ответить
Loading...
Error