(Latin / Latin Pop / Tango) Dyango - Tango - 1989, FLAC (image+.cue) lossless

Страницы:  1

Ответить
Автор
Сообщение

alexkhaa

Top Seed 02* 80r

Стаж: 9 лет 2 месяца

Сообщений: 193

alexkhaa · 16-Ноя-10 21:49 (7 лет 8 месяцев назад)

Dyango
Tango

Жанр: Latin / Latin Pop / Tango
Страна-производитель диска: USA
Год издания диска: 1989
Издатель (лейбл): Capitol Rec. / EMI Music
Номер по каталогу: H2Y42081
Аудио кодек: FLAC (*.flac)
Тип рипа: image+.cue
Битрейт аудио: lossless
Продолжительность: 38:46
Источник (релизер): рип с родного диска
Наличие сканов в содержимом раздачи: да
Треклист:
01. Cada dia te extrano mas 3:33
02. Naranjo en flor 4:16
03. Los mareados 2:43
04. Tabaco 4:25
05. Maria 3:56
06. Sur 4:03
07. Fuimos 4:58
08. Chau, no va mas 3:47
09. El ultimo cafe 3:20
10. Garua
* * *
Лог создания рипа
Exact Audio Copy V0.99 prebeta 5 from 4. May 2009
Отчёт EAC об извлечении, выполненном 14. ноября 2010, 12:54
Dyango / Tango
Дисковод: PIONEER DVD-RW DVR-217F Adapter: 0 ID: 1
Режим чтения : Достоверность
Использование точного потока : Да
Отключение кэша аудио : Да
Использование указателей C2 : Нет
Коррекция смещения при чтении : 96
Способность читать области Lead-in и Lead-out : Нет
Заполнение пропущенных сэмплов тишиной : Да
Удаление блоков с тишиной в начале и конце : Нет
При вычислениях CRC использовались нулевые сэмплы : Да
Интерфейс : Установленный внешний ASPI-интерфейс
Выходной формат : Пользовательский кодировщик
Выбранный битрейт : 128 kBit/s
Качество : Высокий
Добавление ID3-тэга : Нет
Утилита сжатия : C:\Program Files\FLAC\FLAC frontend.exe
Дополнительные параметры : -8 -V %s
TOC извлечённого CD
Трек | Старт | Длительность | Начальный сектор | Конечный сектор
---------------------------------------------------------------------
1 | 0:00.00 | 3:32.12 | 0 | 15911
2 | 3:32.12 | 4:14.25 | 15912 | 34986
3 | 7:46.37 | 2:43.00 | 34987 | 47211
4 | 10:29.37 | 4:24.73 | 47212 | 67084
5 | 14:54.35 | 3:55.02 | 67085 | 84711
6 | 18:49.37 | 4:02.13 | 84712 | 102874
7 | 22:51.50 | 4:56.65 | 102875 | 125139
8 | 27:48.40 | 3:46.30 | 125140 | 142119
9 | 31:34.70 | 3:18.72 | 142120 | 157041
10 | 34:53.67 | 3:45.50 | 157042 | 173966
Характеристики диапазона извлечения и сообщения об ошибках
Выбранный диапазон
Имя файла C:\Torrent\Dyango - Tango\Dyango - Tango.wav
Пиковый уровень 83.1 %
Качество диапазона 100.0 %
CRC теста A9370BD5
CRC копии A9370BD5
Копирование... OK
Ошибок не произошло
AccurateRip: сводка
Трек 1 нет в базе данных
Трек 2 нет в базе данных
Трек 3 нет в базе данных
Трек 4 нет в базе данных
Трек 5 нет в базе данных
Трек 6 нет в базе данных
Трек 7 нет в базе данных
Трек 8 нет в базе данных
Трек 9 нет в базе данных
Трек 10 нет в базе данных
Ни одного трека нет в базе AccurateRip
Конец отчёта
Официальный сайт Dyango
Download
Для скачивания .torrent файлов необходима регистрация
Сайт не распространяет и не хранит электронные версии произведений, а лишь предоставляет доступ к создаваемому пользователями каталогу ссылок на торрент-файлы, которые содержат только списки хеш-сумм
[Профиль]  [ЛС] 

napgok

Стаж: 9 лет 4 месяца

Сообщений: 8


napgok · 09-Апр-11 19:58 (спустя 4 месяца 22 дня)

[Цитировать] 

Спасибо, что делитесь с нами отличным музыкальным вкусом! =)
[Профиль]  [ЛС] 
 
Ответить
Loading...
Error