(Classical) Claude Debussy, Maurice Ravel - Orchestral Works (La Mer, Trois Nocturnes, Images, Printemps Petite, La Boоte а joujoux / Bolero, Ma Mere l'Oye, Rapsodie espagnole, Daphnis et Chloe) (Jean Martinon) - 2002, FLAC (image+.cue), lossless

Страницы:  1

Ответить
Автор
Сообщение

Poincare

Стаж: 11 лет 5 месяцев

Сообщений: 1090


Poincare · 29-Сен-10 16:31 (7 лет 10 месяцев назад, ред. 29-Сен-10 16:37)

Claude Debussy
Maurice Ravel
Orchestral Works
Жанр: Classical
Страна-производитель диска: EU
Год издания диска: 2002
Издатель (лейбл): EMI Classics
Номер по каталогу: 7243 5 75526 2 2
Дата записи: 1974-1975
Аудио кодек: FLAC
Тип рипа: image+.cue
Битрейт аудио: lossless
Продолжительность: 73:35+69:39+72:24+74:14+75:36+74:28+56:25+52:04
Источник: Amigo
Наличие сканов в содержимом раздачи: да
Треклист:
CD1
Claude Debussy
La Mer
1. De l'aube a midi sur la mer
2. Jeux de vagues
3. Dialogue du vent et de la mer
Trois Nocturnes
4. Nuages
5. Fetes
6. Sirenes
7. Prelude a l'apres-midi d'un faune
8. Marche ecossaise
9. Berceuse heroique
Musiques pour Le Roi Lear
10. Fanfare
11. Le Sommeil de Lear
CD2
Claude Debussy
1. Jeux
Images
2. Gigues
3. Iberia a) Par les rues et par les chemins
4. Iberia b) Iberia - Les parfums de la nuit
5. Iberia c) Iberia - Le matin d'un jour de fete
6. Rondes de Printemps
Printemps
7. 1st part
8. 2nd part
CD3
Claude Debussy
Children's Corner Suite
1. Doctor Gradus ad Parnassum
2. Jimbo's Lullaby
3. Serenade for the doll
4. The snow is dancing
5. The little shepherd
6. Golliwog's cakewalk
Petite Suite
7. En Bateau
8. Cortиge
9. Menuet
10. Ballet
Danse sacre & Danse profane
11. Danse sacre
12. Danse profane
La Boоte а joujoux
13. Le magasin de jouets
14. Le champs de bataille
15. La bergerie а vendre
16. Aprиs fortune faite
CD4
Claude Debussy
Fantaisie pour Piano & Orchestre
1. Andante-allegro
2. Lento e molto espressivo
3. Allegro-molto
4. La plus que lente
5. Premiere Rapsodie pour Orchestre avec Clarinette principale
6. Rapsodie pour Orchestre et Saxophone solo
7. Khamma (Legende danse)
8. Danse (Tarantelle styrienne)
CD5
Maurice Ravel
1. Bolero
2. Une Barque sur l'ocean (Miroirs - No.3)
Ma Mere l'Oye
3. I Prelude (Tres lent)
4. II Premier tableau - Danse du Rouet et scene
5. III Deuxieme tableau - Pavane de la Belle au bois dormant
6. IV Interlude
7. V Troisieme tableau: Les entretiens de la Belle et de la Bкte
8. VI Interlude
9. VII Quatrieme tableau - Petit Poucet
10. VIII Interlude
11. IX Cinquieme tableau - Laideronnette, Imperatrice des Pagodes
12. X Interlude
13. XI Sixieme tableau - Le jardin ferique
14. Alborada del gracioso (Miroirs - No.4)
Rapsodie espagnole
15. I Prelude а la nuit
16. II Malagueсa
17. III Habanera
18. IV Feria
CD6
Maurice Ravel
1. Sheherazade - Ouverture de feerie

2. La Valse
Le Tombeau de Couperin
3. Prelude
4. Forlane
5. Menuet
6. Regaudon
7. Menuet antique
8. Pavane pour une Infante defunte
Valses nobles et sentimentales
9. Modere
10. Assez lent
11. Modere
12. Assez anime
13. Presque lent
14. Assez vif
15. Moin vif
16. Epilogue. lent
CD7
Maurice Ravel
Daphnis et Chloe
Part I
1. I Introduction
2. II Danse Religieuse
3. III Scene
4. IV Danse generale
5. V Scene
6. VI Danse grotesque de Dorcon
7. VII Danse legere et gracieuse de Daphins
8. VIII Scene
9. IX Nocturne
10. X Danse lente et mysterieuse de Nymphes
11. XI Interlude
Part II
12. I Introduction
13. II Danses Guerrieres et diverses
14. III Danse supliante de Chloe
Part III
15. I Introduction
16. II Lever du jour
17. III Pantomime
18. IV Danse general- Bacchanale
CD8
Maurice Ravel
Concerto for the left hand
1. Lento -
2. Piu lento -
3. Allegro
Piano Concerto in G major
4. Allegramente
5. Adagio assai
6. Presto
7. Tzigane - Lento, quasi cadenza - Moderato
Исполнители:
Aldo Ciccolini, piano
Itzhak Perlman, violin
Jean-Marie Loneix, saxophone
Guy Dangain, clarinet
Cheurs de l'Ortf
Orchestre National de l'Ortf
Orchestre de Paris

Conductor: Jean Martinon
Лог создания рипа
CD1
Exact Audio Copy V0.99 prebeta 5 from 4. May 2009
Archivo Log de extracciones desde 20. Septiembre 2010, 20:06
Debussy / Orchestral Works 1 (Jean Martinon) (Disk 1)
Usar unidad : HL-DT-STDVDRRW GSA-H30L Adapter: 0 ID: 1
Modo de Lectura : Seguro
Utilizar Corriente Exacta : Sí
Descartar Audio caché : Sí
Utilizar los punteros C2 : No
Corrección de Desplazamiento de Lectura : 102
Sobreleer tanto en Lead-In como en Lead-Out : No
Rellenar las muestras faltantes con silencios : Sí
Eliminar silencios inicial y final : No
Se han usado muestras nulas en los cálculos CRC : Sí
Interfaz usada : Interfaz propio de Win32 para Windowns NT y 2000
Formato de Salida utilizado : Rutinas WAV Internas
Formato de Muestreo : 44.100 Hz; 16 Bit; Estéreo
TOC del CD extraido
Pista | Inicio | Duración | Sector inicial | Sector final
-------------------------------------------------------------
1 | 0:00.00 | 9:08.70 | 0 | 41169
2 | 9:08.70 | 7:04.62 | 41170 | 73031
3 | 16:13.57 | 8:20.03 | 73032 | 110534
4 | 24:33.60 | 7:37.20 | 110535 | 144829
5 | 32:11.05 | 6:41.45 | 144830 | 174949
6 | 38:52.50 | 8:21.40 | 174950 | 212564
7 | 47:14.15 | 10:36.42 | 212565 | 260306
8 | 57:50.57 | 6:30.70 | 260307 | 289626
9 | 64:21.52 | 4:53.73 | 289627 | 311674
10 | 69:15.50 | 1:47.67 | 311675 | 319766
11 | 71:03.42 | 3:10.13 | 319767 | 334029
Gama de estados y errores
Seleccionar gama
Nombre de Archivo D:\Debussy - Orchestral Works 1 (Jean Martinon) (Disk 1).wav
Nivel Pico 95.3 %
Gama de Calidad 100.0 %
Copiar CRC C8012286
Copia OK
Sin Errores
CD2
Exact Audio Copy V0.99 prebeta 5 from 4. May 2009
Archivo Log de extracciones desde 21. Septiembre 2010, 10:44
Debussy / Orchestral Works 1 (Jean Martinon) (Disk 2)
Usar unidad : HL-DT-STDVDRRW GSA-H30L Adapter: 0 ID: 1
Modo de Lectura : Seguro
Utilizar Corriente Exacta : Sí
Descartar Audio caché : Sí
Utilizar los punteros C2 : No
Corrección de Desplazamiento de Lectura : 102
Sobreleer tanto en Lead-In como en Lead-Out : No
Rellenar las muestras faltantes con silencios : Sí
Eliminar silencios inicial y final : No
Se han usado muestras nulas en los cálculos CRC : Sí
Interfaz usada : Interfaz propio de Win32 para Windowns NT y 2000
Formato de Salida utilizado : Rutinas WAV Internas
Formato de Muestreo : 44.100 Hz; 16 Bit; Estéreo
TOC del CD extraido
Pista | Inicio | Duración | Sector inicial | Sector final
-------------------------------------------------------------
1 | 0:00.00 | 18:22.50 | 0 | 82699
2 | 18:22.50 | 7:12.72 | 82700 | 115171
3 | 25:35.47 | 7:20.65 | 115172 | 148236
4 | 32:56.37 | 9:06.33 | 148237 | 189219
5 | 42:02.70 | 4:25.05 | 189220 | 209099
6 | 46:28.00 | 7:36.62 | 209100 | 243361
7 | 54:04.62 | 9:31.13 | 243362 | 286199
8 | 63:36.00 | 6:29.22 | 286200 | 315396
Gama de estados y errores
Seleccionar gama
Nombre de Archivo D:\Debussy - Orchestral Works 1 (Jean Martinon) (Disk 2).wav
Nivel Pico 98.7 %
Gama de Calidad 99.9 %
Copiar CRC 3678D70A
Copia OK
Sin Errores
CD3
Exact Audio Copy V0.99 prebeta 5 from 4. May 2009
Archivo Log de extracciones desde 21. Septiembre 2010, 11:31
Claude Debussy / Orchestral Works (Jean Martinon, Orchestre National de l' ORTF) [CD 3]
Usar unidad : HL-DT-STDVDRRW GSA-H30L Adapter: 0 ID: 1
Modo de Lectura : Seguro
Utilizar Corriente Exacta : Sí
Descartar Audio caché : Sí
Utilizar los punteros C2 : No
Corrección de Desplazamiento de Lectura : 102
Sobreleer tanto en Lead-In como en Lead-Out : No
Rellenar las muestras faltantes con silencios : Sí
Eliminar silencios inicial y final : No
Se han usado muestras nulas en los cálculos CRC : Sí
Interfaz usada : Interfaz propio de Win32 para Windowns NT y 2000
Formato de Salida utilizado : Rutinas WAV Internas
Formato de Muestreo : 44.100 Hz; 16 Bit; Estéreo
TOC del CD extraido
Pista | Inicio | Duración | Sector inicial | Sector final
-------------------------------------------------------------
1 | 0:00.00 | 2:40.42 | 0 | 12041
2 | 2:40.42 | 3:57.53 | 12042 | 29869
3 | 6:38.20 | 2:46.52 | 29870 | 42371
4 | 9:24.72 | 2:57.05 | 42372 | 55651
5 | 12:22.02 | 2:46.25 | 55652 | 68126
6 | 15:08.27 | 2:57.20 | 68127 | 81421
7 | 18:05.47 | 4:06.55 | 81422 | 99926
8 | 22:12.27 | 3:17.60 | 99927 | 114761
9 | 25:30.12 | 3:01.20 | 114762 | 128356
10 | 28:31.32 | 3:17.18 | 128357 | 143149
11 | 31:48.50 | 4:39.15 | 143150 | 164089
12 | 36:27.65 | 4:42.62 | 164090 | 185301
13 | 41:10.52 | 13:08.20 | 185302 | 244421
14 | 54:18.72 | 9:16.45 | 244422 | 286166
15 | 63:35.42 | 6:20.43 | 286167 | 314709
16 | 69:56.10 | 2:56.22 | 314710 | 327931
Gama de estados y errores
Seleccionar gama
Nombre de Archivo D:\Debussy - Orchestral Works 1 (Jean Martinon) (Disk 3).wav
Nivel Pico 98.3 %
Gama de Calidad 100.0 %
Copiar CRC FBBD541B
Copia OK
Sin Errores
CD4
Exact Audio Copy V0.99 prebeta 5 from 4. May 2009
Archivo Log de extracciones desde 21. Septiembre 2010, 11:57
Claude Debussy / Orchestral Works (Jean Martinon, Orchestre National de l' ORTF) [CD 4]
Usar unidad : HL-DT-STDVDRRW GSA-H30L Adapter: 0 ID: 1
Modo de Lectura : Seguro
Utilizar Corriente Exacta : Sí
Descartar Audio caché : Sí
Utilizar los punteros C2 : No
Corrección de Desplazamiento de Lectura : 102
Sobreleer tanto en Lead-In como en Lead-Out : No
Rellenar las muestras faltantes con silencios : Sí
Eliminar silencios inicial y final : No
Se han usado muestras nulas en los cálculos CRC : Sí
Interfaz usada : Interfaz propio de Win32 para Windowns NT y 2000
Formato de Salida utilizado : Rutinas WAV Internas
Formato de Muestreo : 44.100 Hz; 16 Bit; Estéreo
TOC del CD extraido
Pista | Inicio | Duración | Sector inicial | Sector final
-------------------------------------------------------------
1 | 0:00.00 | 8:03.12 | 0 | 36236
2 | 8:03.12 | 8:30.30 | 36237 | 74516
3 | 16:33.42 | 7:27.05 | 74517 | 108046
4 | 24:00.47 | 6:07.05 | 108047 | 135576
5 | 30:07.52 | 8:18.08 | 135577 | 172934
6 | 38:25.60 | 10:09.62 | 172935 | 218671
7 | 48:35.47 | 20:32.05 | 218672 | 311076
8 | 69:07.52 | 5:44.58 | 311077 | 336934
Gama de estados y errores
Seleccionar gama
Nombre de Archivo D:\Debussy - Orchestral Works 1 (Jean Martinon) (Disk 4).wav
Nivel Pico 90.1 %
Gama de Calidad 99.9 %
Copiar CRC 7927D243
Copia OK
Sin Errores
CD5
Exact Audio Copy V0.99 prebeta 5 from 4. May 2009
Archivo Log de extracciones desde 21. Septiembre 2010, 12:43
Orchestre de Paris with Jean Martinon / Ravel Orchestral Works
Usar unidad : HL-DT-STDVDRRW GSA-H30L Adapter: 0 ID: 1
Modo de Lectura : Seguro
Utilizar Corriente Exacta : Sí
Descartar Audio caché : Sí
Utilizar los punteros C2 : No
Corrección de Desplazamiento de Lectura : 102
Sobreleer tanto en Lead-In como en Lead-Out : No
Rellenar las muestras faltantes con silencios : Sí
Eliminar silencios inicial y final : No
Se han usado muestras nulas en los cálculos CRC : Sí
Interfaz usada : Interfaz propio de Win32 para Windowns NT y 2000
Formato de Salida utilizado : Rutinas WAV Internas
Formato de Muestreo : 44.100 Hz; 16 Bit; Estéreo
TOC del CD extraido
Pista | Inicio | Duración | Sector inicial | Sector final
-------------------------------------------------------------
1 | 0:00.33 | 15:02.50 | 33 | 67732
2 | 15:03.08 | 7:25.32 | 67733 | 101139
3 | 22:28.40 | 3:20.68 | 101140 | 116207
4 | 25:49.33 | 3:38.72 | 116208 | 132629
5 | 29:28.30 | 1:41.33 | 132630 | 140237
6 | 31:09.63 | 0:56.02 | 140238 | 144439
7 | 32:05.65 | 4:07.05 | 144440 | 162969
8 | 36:12.70 | 0:43.70 | 162970 | 166264
9 | 36:56.65 | 3:39.35 | 166265 | 182724
10 | 40:36.25 | 1:31.43 | 182725 | 189592
11 | 42:07.68 | 3:41.32 | 189593 | 206199
12 | 45:49.25 | 1:25.70 | 206200 | 212644
13 | 47:15.20 | 4:14.60 | 212645 | 231754
14 | 51:30.05 | 7:59.00 | 231755 | 267679
15 | 59:29.05 | 4:32.55 | 267680 | 288134
16 | 64:01.60 | 2:15.45 | 288135 | 298304
17 | 66:17.30 | 2:50.73 | 298305 | 311127
18 | 69:08.28 | 6:28.40 | 311128 | 340267
Gama de estados y errores
Seleccionar gama
Nombre de Archivo D:\Debussy - Orchestral Works 1 (Jean Martinon) (Disk 5).wav
Nivel Pico 99.0 %
Gama de Calidad 100.0 %
Copiar CRC B92DDA84
Copia OK
Sin Errores
CD6
Exact Audio Copy V0.99 prebeta 5 from 4. May 2009
Archivo Log de extracciones desde 21. Septiembre 2010, 13:25
Ravel, Maurice (1875-1937) / Ravel - Orchestral Works (Martinon/Orchestre de Paris)
Usar unidad : HL-DT-STDVDRRW GSA-H30L Adapter: 0 ID: 1
Modo de Lectura : Seguro
Utilizar Corriente Exacta : Sí
Descartar Audio caché : Sí
Utilizar los punteros C2 : No
Corrección de Desplazamiento de Lectura : 102
Sobreleer tanto en Lead-In como en Lead-Out : No
Rellenar las muestras faltantes con silencios : Sí
Eliminar silencios inicial y final : No
Se han usado muestras nulas en los cálculos CRC : Sí
Interfaz usada : Interfaz propio de Win32 para Windowns NT y 2000
Formato de Salida utilizado : Rutinas WAV Internas
Formato de Muestreo : 44.100 Hz; 16 Bit; Estéreo
TOC del CD extraido
Pista | Inicio | Duración | Sector inicial | Sector final
-------------------------------------------------------------
1 | 0:00.33 | 13:52.52 | 33 | 62484
2 | 13:53.10 | 12:41.70 | 62485 | 119629
3 | 26:35.05 | 3:23.28 | 119630 | 134882
4 | 29:58.33 | 5:57.20 | 134883 | 161677
5 | 35:55.53 | 5:31.47 | 161678 | 186549
6 | 41:27.25 | 3:12.53 | 186550 | 201002
7 | 44:40.03 | 6:25.00 | 201003 | 229877
8 | 51:05.03 | 6:39.00 | 229878 | 259802
9 | 57:44.03 | 1:24.52 | 259803 | 266154
10 | 59:08.55 | 2:50.60 | 266155 | 278964
11 | 61:59.40 | 1:29.48 | 278965 | 285687
12 | 63:29.13 | 1:27.30 | 285688 | 292242
13 | 64:56.43 | 1:20.35 | 292243 | 298277
14 | 66:17.03 | 0:55.45 | 298278 | 302447
15 | 67:12.48 | 3:02.65 | 302448 | 316162
16 | 70:15.38 | 4:12.72 | 316163 | 335134
Gama de estados y errores
Seleccionar gama
Nombre de Archivo D:\Debussy - Orchestral Works 1 (Jean Martinon) (Disk 6).wav
Nivel Pico 98.4 %
Gama de Calidad 100.0 %
Copiar CRC BF4D11E7
Copia OK
Sin Errores
CD7
Exact Audio Copy V0.99 prebeta 5 from 4. May 2009
Archivo Log de extracciones desde 21. Septiembre 2010, 14:24
Ravel, Maurice / Debussy, Ravel Orchestral Works Disc 7
Usar unidad : HL-DT-STDVDRRW GSA-H30L Adapter: 0 ID: 1
Modo de Lectura : Seguro
Utilizar Corriente Exacta : Sí
Descartar Audio caché : Sí
Utilizar los punteros C2 : No
Corrección de Desplazamiento de Lectura : 102
Sobreleer tanto en Lead-In como en Lead-Out : No
Rellenar las muestras faltantes con silencios : Sí
Eliminar silencios inicial y final : No
Se han usado muestras nulas en los cálculos CRC : Sí
Interfaz usada : Interfaz propio de Win32 para Windowns NT y 2000
Formato de Salida utilizado : Rutinas WAV Internas
Formato de Muestreo : 44.100 Hz; 16 Bit; Estéreo
TOC del CD extraido
Pista | Inicio | Duración | Sector inicial | Sector final
-------------------------------------------------------------
1 | 0:00.00 | 2:48.60 | 0 | 12659
2 | 2:48.60 | 5:24.40 | 12660 | 36999
3 | 8:13.25 | 2:00.50 | 37000 | 46049
4 | 10:14.00 | 0:50.10 | 46050 | 49809
5 | 11:04.10 | 0:44.42 | 49810 | 53151
6 | 11:48.52 | 1:49.70 | 53152 | 61396
7 | 13:38.47 | 4:33.65 | 61397 | 81936
8 | 18:12.37 | 3:35.50 | 81937 | 98111
9 | 21:48.12 | 1:38.73 | 98112 | 105534
10 | 23:27.10 | 3:14.35 | 105535 | 120119
11 | 26:41.45 | 2:20.40 | 120120 | 130659
12 | 29:02.10 | 0:12.72 | 130660 | 131631
13 | 29:15.07 | 5:00.20 | 131632 | 154151
14 | 34:15.27 | 5:12.05 | 154152 | 177556
15 | 39:27.32 | 0:17.60 | 177557 | 178891
16 | 39:45.17 | 5:39.65 | 178892 | 204381
17 | 45:25.07 | 5:53.70 | 204382 | 230926
18 | 51:19.02 | 5:04.00 | 230927 | 253726
Gama de estados y errores
Seleccionar gama
Nombre de Archivo D:\Debussy - Orchestral Works 1 (Jean Martinon) (Disk 7).wav
Nivel Pico 98.8 %
Gama de Calidad 100.0 %
Copiar CRC ACD5992F
Copia OK
Sin Errores
CD8
Exact Audio Copy V0.99 prebeta 5 from 4. May 2009
Archivo Log de extracciones desde 21. Septiembre 2010, 15:14
Ravel, Maurice (1875-1937) / Ravel - Orchestral Works (Martinon/Orchestre de Paris)
Usar unidad : HL-DT-STDVDRRW GSA-H30L Adapter: 0 ID: 1
Modo de Lectura : Seguro
Utilizar Corriente Exacta : Sí
Descartar Audio caché : Sí
Utilizar los punteros C2 : No
Corrección de Desplazamiento de Lectura : 102
Sobreleer tanto en Lead-In como en Lead-Out : No
Rellenar las muestras faltantes con silencios : Sí
Eliminar silencios inicial y final : No
Se han usado muestras nulas en los cálculos CRC : Sí
Interfaz usada : Interfaz propio de Win32 para Windowns NT y 2000
Formato de Salida utilizado : Rutinas WAV Internas
Formato de Muestreo : 44.100 Hz; 16 Bit; Estéreo
TOC del CD extraido
Pista | Inicio | Duración | Sector inicial | Sector final
-------------------------------------------------------------
1 | 0:00.32 | 8:22.65 | 32 | 37746
2 | 8:23.22 | 5:03.20 | 37747 | 60491
3 | 13:26.42 | 5:06.18 | 60492 | 83459
4 | 18:32.60 | 8:33.60 | 83460 | 121994
5 | 27:06.45 | 10:56.10 | 121995 | 171204
6 | 38:02.55 | 4:08.72 | 171205 | 189876
7 | 42:11.52 | 9:53.10 | 189877 | 234361
Gama de estados y errores
Seleccionar gama
Nombre de Archivo D:\Debussy - Orchestral Works 1 (Jean Martinon) (Disk 8).wav
Nivel Pico 98.7 %
Gama de Calidad 100.0 %
Copiar CRC E7F09DE3
Copia OK
Sin Errores
Download
Для скачивания .torrent файлов необходима регистрация
Сайт не распространяет и не хранит электронные версии произведений, а лишь предоставляет доступ к создаваемому пользователями каталогу ссылок на торрент-файлы, которые содержат только списки хеш-сумм
[Профиль]  [ЛС] 
 
Ответить
Loading...
Error