Дикие сердцем / Wild at Heart (Дэвид Линч / David Lynch) [1990, США, триллер, мелодрама, криминал, Blu-ray disc 1080p] MVO + Original Eng + Sub Eng

Страницы:  1

Ответить
Автор
Сообщение

LEV:)

Top Seed 02* 80r

Стаж: 8 лет 10 месяцев

Сообщений: 647

LEV:) · 22-Сен-10 17:34 (8 лет 2 месяца назад, ред. 24-Сен-10 18:12)

Дикие сердцем / Wild at Heart
Страна: США
Жанр: триллер, мелодрама, криминал
Год выпуска: 1990
Продолжительность: 02:05:12
Перевод: Профессиональный (Многоголосый закадровый)
Русские субтитры: нет
Оригинальная аудиодорожка: английский
Субтитры: Английский, Китайский, Датский, Голландский,
Финский, Немецкий, Греческий, Итальянский, Японский, Корейский,
Норвежский, Польский, Португальский, Испанский, Шведский, Тайский, Турецкий.

Режиссер: Дэвид Линч / David Lynch
В ролях: Николас Кейдж, Лора Дерн, Уиллем Дефо, Дж. Э. Фримен, Криспин Гловер, Дайан Лэдд, Кэлвин Локхарт, Изабелла Росселлини, Гарри Дин Стэнтон, Грейс Забриски
Описание: Сейлор и Лула спасаются от безжалостной команды наемных убийц, нанятых безумной матерью Лулы Мариэттой. В погоню за беглецами вначале пускается дружок Мариэтты, частный детектив Джонни, а когда Джонни возвращается ни с чем, Мариэтта призывает на помощь своего бывшего любовника, гангстера Сантоса...
Чувственный фильм культового режиссера Дэвида Линча, удостоенный главного приза за лучший фильм Каннского фестиваля в 1990г. — «Золотой пальмовой ветви», — по-настоящему роскошное зрелище. Именно этот успех стал определяющим обстоятельством в присуждении Линчу неофициального звания «лучший режиссер американского кино» при проведении опроса критиков разных стран.

Тип релиза: Blu-ray disc
Контейнер: BDMV
Видео: MPEG-4 AVC Video 30992 kbps 1920x1080p / 23.976 fps / 16:9 / High Profile 4.1
Аудио: Английский DTS-HD MA 5.1 48 kHz / 24-bit / 4276 kbps / (DTS Core: 5.1 / 48 kHz / 1509 kbps / 24-bit)
Аудио 2: Немецкий DTS 5.1 48 kHz / 24-bit / 768 kbps
Аудио 3: Итальянский DTS 2.0 / 48 kHz / 24-bit / 768 kbps
Аудио 4: Японский DTS 2.0 / 48 kHz / 24-bit /768 kbps
Аудио 5: Португальский DTS 2.0 / 48 kHz / 24-bit / 768 kbps
Аудио 6: Русский DTS 2.0 / 48 kHz / 24-bit / 768 kbps
Аудио 7: Испанский DTS 2.0 / 48 kHz / 24-bit / 768 kbps
Знаете ли вы, что...

• Многие актёры (Шерилин Фенн, Грэйс Забриски, Дэвид Патрик Келли и др.) «пришли» в фильм из сериала «Твин Пикс», который Линч снимал примерно в то же самое время.
• Пиджак из змеиной кожи, который носил герой Николаса Кейджа, принадлежал самому Кейджу. После съёмок он подарил его Лоре Дерн.
• Кейдж пел в фильме своим голосом.
• Для некоторых сцен фильма Дэвид Линч написал музыку сам.
• Дайан Лэдд (Мариетта) и Лора Дерн (Лула) по сценарию играющие мать и дочь, на самом деле являются таковыми.
BD INFO

Disc Title: Wild at Heart 1990 1080p Blu-ray AVC DTS-HD MA 5.1
Disc Size: 41 637 173 487 bytes
Protection: AACS
BD-Java: Yes
BDInfo: 0.5.2
Notes:
BDINFO HOME AND REPORTS SUBMISSION:
Cinema Squid
http://www.cinemasquid.com/Tools.aspx
INCLUDES FORUMS REPORT FOR:
Unofficial Blu-ray Audio and Video Specifications Thread
http://www.avsforum.com/avs-vb/showthread.php?t=760714
http://forum.blu-ray.com/showthread.php?t=3338
********************
PLAYLIST: 00800.MPLS
********************
<--- BEGIN FORUMS PASTE --->
Код:
Total   Video
Title                                                           Codec   Length  Movie Size      Disc Size       Bitrate Bitrate Main Audio Track                          Secondary Audio Track
-----                                                           ------  ------- --------------  --------------  ------- ------- ------------------                        ---------------------
00800.MPLS                                                      AVC     2:05:12 41 000 945 664  41 637 173 487  43,66   30,99   DTS-HD Master 5.1 4276Kbps (48kHz/24-bit)
Код:
DISC INFO:
Disc Title:     Wild at Heart 1990 1080p Blu-ray AVC DTS-HD MA 5.1
Disc Size:      41 637 173 487 bytes
Protection:     AACS
BD-Java:        Yes
BDInfo:         0.5.2
PLAYLIST REPORT:
Name:                   00800.MPLS
Size:                   41 000 945 664 bytes
Length:                 2:05:12 (h:m:s)
Total Bitrate:          43,66 Mbps
Description:
VIDEO:
Codec                   Bitrate             Description
-----                   -------             -----------
MPEG-4 AVC Video        30992 kbps          1080p / 23,976 fps / 16:9 / High Profile 4.1
AUDIO:
Codec                           Language        Bitrate         Description
-----                           --------        -------         -----------
DTS-HD Master Audio             English         4276 kbps       5.1 / 48 kHz / 4276 kbps / 24-bit (DTS Core: 5.1 / 48 kHz / 1509 kbps / 24-bit)
DTS Audio                       German          768 kbps        5.1 / 48 kHz / 768 kbps / 24-bit
DTS Audio                       Italian         768 kbps        2.0 / 48 kHz / 768 kbps / 24-bit
DTS Audio                       Japanese        768 kbps        2.0 / 48 kHz / 768 kbps / 24-bit
DTS Audio                       Portuguese      768 kbps        2.0 / 48 kHz / 768 kbps / 24-bit
DTS Audio                       Russian         768 kbps        2.0 / 48 kHz / 768 kbps / 24-bit
DTS Audio                       Spanish         768 kbps        2.0 / 48 kHz / 768 kbps / 24-bit
DTS Audio                       Spanish         768 kbps        2.0 / 48 kHz / 768 kbps / 24-bit
SUBTITLES:
Codec                           Language        Bitrate         Description
-----                           --------        -------         -----------
Presentation Graphics           English         28,971 kbps
Presentation Graphics           Chinese         19,216 kbps
Presentation Graphics           Danish          23,053 kbps
Presentation Graphics           Dutch           22,654 kbps
Presentation Graphics           Finnish         23,379 kbps
Presentation Graphics           German          26,234 kbps
Presentation Graphics           German          0,238 kbps
Presentation Graphics           Greek           25,690 kbps
Presentation Graphics           Italian         23,210 kbps
Presentation Graphics           Italian         0,192 kbps
Presentation Graphics           Japanese        18,403 kbps
Presentation Graphics           Japanese        0,130 kbps
Presentation Graphics           Korean          14,428 kbps
Presentation Graphics           Norwegian       22,748 kbps
Presentation Graphics           Polish          22,021 kbps
Presentation Graphics           Portuguese      22,890 kbps
Presentation Graphics           Portuguese      23,018 kbps
Presentation Graphics           Spanish         23,358 kbps
Presentation Graphics           Spanish         25,259 kbps
Presentation Graphics           Spanish         0,066 kbps
Presentation Graphics           Spanish         0,060 kbps
Presentation Graphics           Swedish         21,314 kbps
Presentation Graphics           Thai            22,134 kbps
Presentation Graphics           Turkish         26,791 kbps
FILES:
Name            Time In         Length          Size            Total Bitrate
----            -------         ------          ----            -------------
00010.M2TS      0:00:00.000     2:05:12.505     41 000 945 664  43 662
CHAPTERS:
Number          Time In         Length          Avg Video Rate  Max 1-Sec Rate  Max 1-Sec Time  Max 5-Sec Rate  Max 5-Sec Time  Max 10Sec Rate  Max 10Sec Time  Avg Frame Size  Max Frame Size  Max Frame Time
------          -------         ------          --------------  --------------  --------------  --------------  --------------  --------------  --------------  --------------  --------------  --------------
1               0:00:00.000     0:05:07.307     27 865 kbps     36 097 kbps     00:04:26.432    34 331 kbps     00:04:22.345    34 047 kbps     00:04:17.340    145 256 bytes   314 506 bytes   00:03:01.181
2               0:05:07.307     0:10:10.359     30 531 kbps     35 300 kbps     00:10:24.832    34 093 kbps     00:10:20.828    33 960 kbps     00:10:15.906    159 174 bytes   302 930 bytes   00:07:43.171
3               0:15:17.666     0:08:01.063     30 773 kbps     35 246 kbps     00:16:38.664    34 014 kbps     00:19:39.386    33 911 kbps     00:15:26.467    160 438 bytes   283 802 bytes   00:15:58.374
4               0:23:18.730     0:04:40.113     30 895 kbps     36 926 kbps     00:23:41.628    34 018 kbps     00:24:26.923    33 919 kbps     00:24:21.918    161 074 bytes   290 957 bytes   00:27:17.886
5               0:27:58.843     0:06:19.837     32 770 kbps     35 453 kbps     00:34:16.054    34 081 kbps     00:31:10.869    33 955 kbps     00:31:05.989    170 849 bytes   374 363 bytes   00:28:10.980
6               0:34:18.681     0:05:19.652     31 346 kbps     36 307 kbps     00:34:47.376    34 247 kbps     00:34:43.372    34 045 kbps     00:34:38.409    163 426 bytes   327 711 bytes   00:34:49.670
7               0:39:38.334     0:09:57.722     29 267 kbps     35 422 kbps     00:39:39.794    34 022 kbps     00:43:19.305    33 888 kbps     00:43:14.300    152 587 bytes   350 301 bytes   00:46:38.337
8               0:49:36.056     0:05:24.824     28 927 kbps     34 263 kbps     00:52:44.619    33 792 kbps     00:52:13.004    33 732 kbps     00:52:12.754    150 811 bytes   340 188 bytes   00:52:43.785
9               0:55:00.880     0:09:04.961     32 348 kbps     35 785 kbps     00:56:40.063    34 207 kbps     00:56:35.975    34 053 kbps     00:56:30.887    168 645 bytes   273 506 bytes   00:56:40.647
10              1:04:05.842     0:06:23.049     27 530 kbps     32 388 kbps     01:04:07.301    31 943 kbps     01:04:05.842    31 487 kbps     01:04:05.842    143 530 bytes   269 930 bytes   01:06:40.413
11              1:10:28.891     0:05:17.775     31 140 kbps     35 526 kbps     01:10:34.063    34 178 kbps     01:10:30.059    33 924 kbps     01:11:42.589    162 351 bytes   300 118 bytes   01:13:24.650
12              1:15:46.667     0:09:15.638     33 484 kbps     34 984 kbps     01:22:28.985    34 022 kbps     01:22:03.460    33 917 kbps     01:22:07.130    174 573 bytes   293 784 bytes   01:25:02.305
13              1:25:02.305     0:06:20.671     31 818 kbps     35 573 kbps     01:30:01.896    34 113 kbps     01:29:57.892    33 935 kbps     01:30:01.896    165 883 bytes   355 859 bytes   01:30:37.640
14              1:31:22.977     0:04:28.601     31 974 kbps     34 845 kbps     01:31:36.407    34 052 kbps     01:32:31.337    33 936 kbps     01:32:26.290    166 697 bytes   311 724 bytes   01:34:27.370
15              1:35:51.579     0:04:48.621     30 198 kbps     34 822 kbps     01:36:54.308    33 991 kbps     01:36:42.797    33 919 kbps     01:36:45.090    157 440 bytes   289 359 bytes   01:40:39.408
16              1:40:40.200     0:09:35.032     31 887 kbps     35 297 kbps     01:41:26.997    34 053 kbps     01:41:12.524    33 948 kbps     01:46:21.333    166 246 bytes   395 385 bytes   01:40:47.416
17              1:50:15.233     0:10:59.700     33 039 kbps     35 840 kbps     01:58:33.689    34 190 kbps     01:58:29.685    33 970 kbps     01:51:37.857    172 253 bytes   374 448 bytes   01:52:21.234
18              2:01:14.934     0:03:57.570     27 732 kbps     34 658 kbps     02:04:10.901    33 991 kbps     02:04:06.939    33 882 kbps     02:02:05.443    144 606 bytes   340 359 bytes   02:02:16.245
STREAM DIAGNOSTICS:
File            PID             Type            Codec           Language                Seconds                 Bitrate                 Bytes           Packets
----            ---             ----            -----           --------                --------------          --------------          -------------   -----
00010.M2TS      4113 (0x1011)   0x1B            AVC                                     7512,338                30 992                  29 103 096 598  158 273 999
00010.M2TS      4352 (0x1100)   0x82            DTS             jpn (Japanese)          7512,338                768                     721 201 152     4 225 788
00010.M2TS      4353 (0x1101)   0x86            DTS-HD MA       eng (English)           7512,338                4 276                   4 015 691 296   22 993 576
00010.M2TS      4354 (0x1102)   0x82            DTS             ita (Italian)           7512,338                768                     721 201 152     4 225 788
00010.M2TS      4355 (0x1103)   0x82            DTS             deu (German)            7512,338                768                     721 201 152     4 225 788
00010.M2TS      4356 (0x1104)   0x82            DTS             spa (Spanish)           7512,338                768                     721 201 152     4 225 788
00010.M2TS      4357 (0x1105)   0x82            DTS             por (Portuguese)        7512,338                768                     721 201 152     4 225 788
00010.M2TS      4358 (0x1106)   0x82            DTS             spa (Spanish)           7512,338                768                     721 201 152     4 225 788
00010.M2TS      4359 (0x1107)   0x82            DTS             rus (Russian)           7512,338                768                     721 201 152     4 225 788
00010.M2TS      4608 (0x1200)   0x90            PGS             jpn (Japanese)          7512,338                18                      17 281 499      100 547
00010.M2TS      4609 (0x1201)   0x90            PGS             eng (English)           7512,338                29                      27 205 731      156 963
00010.M2TS      4610 (0x1202)   0x90            PGS             ita (Italian)           7512,338                23                      21 796 116      125 991
00010.M2TS      4611 (0x1203)   0x90            PGS             deu (German)            7512,338                26                      24 635 564      141 356
00010.M2TS      4612 (0x1204)   0x90            PGS             spa (Spanish)           7512,338                23                      21 934 262      126 734
00010.M2TS      4613 (0x1205)   0x90            PGS             por (Portuguese)        7512,338                23                      21 495 213      124 471
00010.M2TS      4614 (0x1206)   0x90            PGS             spa (Spanish)           7512,338                25                      23 720 035      137 373
00010.M2TS      4615 (0x1207)   0x90            PGS             dan (Danish)            7512,338                23                      21 648 668      125 124
00010.M2TS      4616 (0x1208)   0x90            PGS             nld (Dutch)             7512,338                23                      21 273 366      122 298
00010.M2TS      4617 (0x1209)   0x90            PGS             fin (Finnish)           7512,338                23                      21 954 361      126 758
00010.M2TS      4618 (0x120A)   0x90            PGS             ell (Greek)             7512,338                26                      24 124 380      138 582
00010.M2TS      4619 (0x120B)   0x90            PGS             kor (Korean)            7512,338                14                      13 548 590      80 399
00010.M2TS      4620 (0x120C)   0x90            PGS             nor (Norwegian)         7512,338                23                      21 361 516      123 352
00010.M2TS      4621 (0x120D)   0x90            PGS             pol (Polish)            7512,338                22                      20 678 720      119 794
00010.M2TS      4622 (0x120E)   0x90            PGS             por (Portuguese)        7512,338                23                      21 615 700      125 019
00010.M2TS      4623 (0x120F)   0x90            PGS             swe (Swedish)           7512,338                21                      20 014 786      116 271
00010.M2TS      4624 (0x1210)   0x90            PGS             tha (Thai)              7512,338                22                      20 784 854      121 533
00010.M2TS      4625 (0x1211)   0x90            PGS             tur (Turkish)           7512,338                27                      25 158 849      145 191
00010.M2TS      4626 (0x1212)   0x90            PGS             zho (Chinese)           7512,338                19                      18 044 696      105 390
00010.M2TS      4627 (0x1213)   0x90            PGS             jpn (Japanese)          7512,338                0                       122 138         722
00010.M2TS      4628 (0x1214)   0x90            PGS             ita (Italian)           7512,338                0                       180 542         1 036
00010.M2TS      4629 (0x1215)   0x90            PGS             deu (German)            7512,338                0                       223 382         1 275
00010.M2TS      4630 (0x1216)   0x90            PGS             spa (Spanish)           7512,338                0                       62 242          356
00010.M2TS      4631 (0x1217)   0x90            PGS             spa (Spanish)           7512,338                0                       56 211          325
<---- END FORUMS PASTE ---->
QUICK SUMMARY:
Disc Title: Wild at Heart 1990 1080p Blu-ray AVC DTS-HD MA 5.1
Disc Size: 41 637 173 487 bytes
Protection: AACS
BD-Java: Yes
Playlist: 00800.MPLS
Size: 41 000 945 664 bytes
Length: 2:05:12
Total Bitrate: 43,66 Mbps
Video: MPEG-4 AVC Video / 30992 kbps / 1080p / 23,976 fps / 16:9 / High Profile 4.1
Audio: English / DTS-HD Master Audio / 5.1 / 48 kHz / 4276 kbps / 24-bit (DTS Core: 5.1 / 48 kHz / 1509 kbps / 24-bit)
Audio: German / DTS Audio / 5.1 / 48 kHz / 768 kbps / 24-bit
Audio: Italian / DTS Audio / 2.0 / 48 kHz / 768 kbps / 24-bit
Audio: Japanese / DTS Audio / 2.0 / 48 kHz / 768 kbps / 24-bit
Audio: Portuguese / DTS Audio / 2.0 / 48 kHz / 768 kbps / 24-bit
Audio: Russian / DTS Audio / 2.0 / 48 kHz / 768 kbps / 24-bit
Audio: Spanish / DTS Audio / 2.0 / 48 kHz / 768 kbps / 24-bit
Audio: Spanish / DTS Audio / 2.0 / 48 kHz / 768 kbps / 24-bit
Subtitle: English / 28,971 kbps
Subtitle: Chinese / 19,216 kbps
Subtitle: Danish / 23,053 kbps
Subtitle: Dutch / 22,654 kbps
Subtitle: Finnish / 23,379 kbps
Subtitle: German / 26,234 kbps
Subtitle: German / 0,238 kbps
Subtitle: Greek / 25,690 kbps
Subtitle: Italian / 23,210 kbps
Subtitle: Italian / 0,192 kbps
Subtitle: Japanese / 18,403 kbps
Subtitle: Japanese / 0,130 kbps
Subtitle: Korean / 14,428 kbps
Subtitle: Norwegian / 22,748 kbps
Subtitle: Polish / 22,021 kbps
Subtitle: Portuguese / 22,890 kbps
Subtitle: Portuguese / 23,018 kbps
Subtitle: Spanish / 23,358 kbps
Subtitle: Spanish / 25,259 kbps
Subtitle: Spanish / 0,066 kbps
Subtitle: Spanish / 0,060 kbps
Subtitle: Swedish / 21,314 kbps
Subtitle: Thai / 22,134 kbps
Subtitle: Turkish / 26,791 kbps
********************
PLAYLIST: 00801.MPLS
********************
<--- BEGIN FORUMS PASTE --->
Код:
Total   Video
Title                                                           Codec   Length  Movie Size      Disc Size       Bitrate Bitrate Main Audio Track                          Secondary Audio Track
-----                                                           ------  ------- --------------  --------------  ------- ------- ------------------                        ---------------------
00801.MPLS                                                      AVC     2:05:12 41 000 945 664  41 637 173 487  43,66   30,99   DTS-HD Master 5.1 4276Kbps (48kHz/24-bit)
Код:
DISC INFO:
Disc Title:     Wild at Heart 1990 1080p Blu-ray AVC DTS-HD MA 5.1
Disc Size:      41 637 173 487 bytes
Protection:     AACS
BD-Java:        Yes
BDInfo:         0.5.2
PLAYLIST REPORT:
Name:                   00801.MPLS
Size:                   41 000 945 664 bytes
Length:                 2:05:12 (h:m:s)
Total Bitrate:          43,66 Mbps
Description:
VIDEO:
Codec                   Bitrate             Description
-----                   -------             -----------
MPEG-4 AVC Video        30992 kbps          1080p / 23,976 fps / 16:9 / High Profile 4.1
AUDIO:
Codec                           Language        Bitrate         Description
-----                           --------        -------         -----------
DTS-HD Master Audio             English         4276 kbps       5.1 / 48 kHz / 4276 kbps / 24-bit (DTS Core: 5.1 / 48 kHz / 1509 kbps / 24-bit)
DTS Audio                       German          768 kbps        5.1 / 48 kHz / 768 kbps / 24-bit
DTS Audio                       Italian         768 kbps        2.0 / 48 kHz / 768 kbps / 24-bit
DTS Audio                       Japanese        768 kbps        2.0 / 48 kHz / 768 kbps / 24-bit
DTS Audio                       Portuguese      768 kbps        2.0 / 48 kHz / 768 kbps / 24-bit
DTS Audio                       Russian         768 kbps        2.0 / 48 kHz / 768 kbps / 24-bit
DTS Audio                       Spanish         768 kbps        2.0 / 48 kHz / 768 kbps / 24-bit
DTS Audio                       Spanish         768 kbps        2.0 / 48 kHz / 768 kbps / 24-bit
SUBTITLES:
Codec                           Language        Bitrate         Description
-----                           --------        -------         -----------
Presentation Graphics           English         28,971 kbps
Presentation Graphics           Chinese         19,216 kbps
Presentation Graphics           Danish          23,053 kbps
Presentation Graphics           Dutch           22,654 kbps
Presentation Graphics           Finnish         23,379 kbps
Presentation Graphics           German          26,234 kbps
Presentation Graphics           German          0,238 kbps
Presentation Graphics           Greek           25,690 kbps
Presentation Graphics           Italian         23,210 kbps
Presentation Graphics           Italian         0,192 kbps
Presentation Graphics           Japanese        18,403 kbps
Presentation Graphics           Japanese        0,130 kbps
Presentation Graphics           Korean          14,428 kbps
Presentation Graphics           Norwegian       22,748 kbps
Presentation Graphics           Polish          22,021 kbps
Presentation Graphics           Portuguese      22,890 kbps
Presentation Graphics           Portuguese      23,018 kbps
Presentation Graphics           Spanish         23,358 kbps
Presentation Graphics           Spanish         25,259 kbps
Presentation Graphics           Spanish         0,066 kbps
Presentation Graphics           Spanish         0,060 kbps
Presentation Graphics           Swedish         21,314 kbps
Presentation Graphics           Thai            22,134 kbps
Presentation Graphics           Turkish         26,791 kbps
FILES:
Name            Time In         Length          Size            Total Bitrate
----            -------         ------          ----            -------------
00010.M2TS      0:00:00.000     2:05:12.505     41 000 945 664  43 662
CHAPTERS:
Number          Time In         Length          Avg Video Rate  Max 1-Sec Rate  Max 1-Sec Time  Max 5-Sec Rate  Max 5-Sec Time  Max 10Sec Rate  Max 10Sec Time  Avg Frame Size  Max Frame Size  Max Frame Time
------          -------         ------          --------------  --------------  --------------  --------------  --------------  --------------  --------------  --------------  --------------  --------------
1               0:00:00.000     2:05:12.505     30 992 kbps     36 926 kbps     00:23:41.628    34 331 kbps     00:04:22.345    34 053 kbps     00:56:30.887    161 576 bytes   395 385 bytes   01:40:47.416
STREAM DIAGNOSTICS:
File            PID             Type            Codec           Language                Seconds                 Bitrate                 Bytes           Packets
----            ---             ----            -----           --------                --------------          --------------          -------------   -----
00010.M2TS      4113 (0x1011)   0x1B            AVC                                     7512,338                30 992                  29 103 096 598  158 273 999
00010.M2TS      4352 (0x1100)   0x82            DTS             jpn (Japanese)          7512,338                768                     721 201 152     4 225 788
00010.M2TS      4353 (0x1101)   0x86            DTS-HD MA       eng (English)           7512,338                4 276                   4 015 691 296   22 993 576
00010.M2TS      4354 (0x1102)   0x82            DTS             ita (Italian)           7512,338                768                     721 201 152     4 225 788
00010.M2TS      4355 (0x1103)   0x82            DTS             deu (German)            7512,338                768                     721 201 152     4 225 788
00010.M2TS      4356 (0x1104)   0x82            DTS             spa (Spanish)           7512,338                768                     721 201 152     4 225 788
00010.M2TS      4357 (0x1105)   0x82            DTS             por (Portuguese)        7512,338                768                     721 201 152     4 225 788
00010.M2TS      4358 (0x1106)   0x82            DTS             spa (Spanish)           7512,338                768                     721 201 152     4 225 788
00010.M2TS      4359 (0x1107)   0x82            DTS             rus (Russian)           7512,338                768                     721 201 152     4 225 788
00010.M2TS      4608 (0x1200)   0x90            PGS             jpn (Japanese)          7512,338                18                      17 281 499      100 547
00010.M2TS      4609 (0x1201)   0x90            PGS             eng (English)           7512,338                29                      27 205 731      156 963
00010.M2TS      4610 (0x1202)   0x90            PGS             ita (Italian)           7512,338                23                      21 796 116      125 991
00010.M2TS      4611 (0x1203)   0x90            PGS             deu (German)            7512,338                26                      24 635 564      141 356
00010.M2TS      4612 (0x1204)   0x90            PGS             spa (Spanish)           7512,338                23                      21 934 262      126 734
00010.M2TS      4613 (0x1205)   0x90            PGS             por (Portuguese)        7512,338                23                      21 495 213      124 471
00010.M2TS      4614 (0x1206)   0x90            PGS             spa (Spanish)           7512,338                25                      23 720 035      137 373
00010.M2TS      4615 (0x1207)   0x90            PGS             dan (Danish)            7512,338                23                      21 648 668      125 124
00010.M2TS      4616 (0x1208)   0x90            PGS             nld (Dutch)             7512,338                23                      21 273 366      122 298
00010.M2TS      4617 (0x1209)   0x90            PGS             fin (Finnish)           7512,338                23                      21 954 361      126 758
00010.M2TS      4618 (0x120A)   0x90            PGS             ell (Greek)             7512,338                26                      24 124 380      138 582
00010.M2TS      4619 (0x120B)   0x90            PGS             kor (Korean)            7512,338                14                      13 548 590      80 399
00010.M2TS      4620 (0x120C)   0x90            PGS             nor (Norwegian)         7512,338                23                      21 361 516      123 352
00010.M2TS      4621 (0x120D)   0x90            PGS             pol (Polish)            7512,338                22                      20 678 720      119 794
00010.M2TS      4622 (0x120E)   0x90            PGS             por (Portuguese)        7512,338                23                      21 615 700      125 019
00010.M2TS      4623 (0x120F)   0x90            PGS             swe (Swedish)           7512,338                21                      20 014 786      116 271
00010.M2TS      4624 (0x1210)   0x90            PGS             tha (Thai)              7512,338                22                      20 784 854      121 533
00010.M2TS      4625 (0x1211)   0x90            PGS             tur (Turkish)           7512,338                27                      25 158 849      145 191
00010.M2TS      4626 (0x1212)   0x90            PGS             zho (Chinese)           7512,338                19                      18 044 696      105 390
00010.M2TS      4627 (0x1213)   0x90            PGS             jpn (Japanese)          7512,338                0                       122 138         722
00010.M2TS      4628 (0x1214)   0x90            PGS             ita (Italian)           7512,338                0                       180 542         1 036
00010.M2TS      4629 (0x1215)   0x90            PGS             deu (German)            7512,338                0                       223 382         1 275
00010.M2TS      4630 (0x1216)   0x90            PGS             spa (Spanish)           7512,338                0                       62 242          356
00010.M2TS      4631 (0x1217)   0x90            PGS             spa (Spanish)           7512,338                0                       56 211          325
<---- END FORUMS PASTE ---->
QUICK SUMMARY:
Disc Title: Wild at Heart 1990 1080p Blu-ray AVC DTS-HD MA 5.1
Disc Size: 41 637 173 487 bytes
Protection: AACS
BD-Java: Yes
Playlist: 00801.MPLS
Size: 41 000 945 664 bytes
Length: 2:05:12
Total Bitrate: 43,66 Mbps
Video: MPEG-4 AVC Video / 30992 kbps / 1080p / 23,976 fps / 16:9 / High Profile 4.1
Audio: English / DTS-HD Master Audio / 5.1 / 48 kHz / 4276 kbps / 24-bit (DTS Core: 5.1 / 48 kHz / 1509 kbps / 24-bit)
Audio: German / DTS Audio / 5.1 / 48 kHz / 768 kbps / 24-bit
Audio: Italian / DTS Audio / 2.0 / 48 kHz / 768 kbps / 24-bit
Audio: Japanese / DTS Audio / 2.0 / 48 kHz / 768 kbps / 24-bit
Audio: Portuguese / DTS Audio / 2.0 / 48 kHz / 768 kbps / 24-bit
Audio: Russian / DTS Audio / 2.0 / 48 kHz / 768 kbps / 24-bit
Audio: Spanish / DTS Audio / 2.0 / 48 kHz / 768 kbps / 24-bit
Audio: Spanish / DTS Audio / 2.0 / 48 kHz / 768 kbps / 24-bit
Subtitle: English / 28,971 kbps
Subtitle: Chinese / 19,216 kbps
Subtitle: Danish / 23,053 kbps
Subtitle: Dutch / 22,654 kbps
Subtitle: Finnish / 23,379 kbps
Subtitle: German / 26,234 kbps
Subtitle: German / 0,238 kbps
Subtitle: Greek / 25,690 kbps
Subtitle: Italian / 23,210 kbps
Subtitle: Italian / 0,192 kbps
Subtitle: Japanese / 18,403 kbps
Subtitle: Japanese / 0,130 kbps
Subtitle: Korean / 14,428 kbps
Subtitle: Norwegian / 22,748 kbps
Subtitle: Polish / 22,021 kbps
Subtitle: Portuguese / 22,890 kbps
Subtitle: Portuguese / 23,018 kbps
Subtitle: Spanish / 23,358 kbps
Subtitle: Spanish / 25,259 kbps
Subtitle: Spanish / 0,066 kbps
Subtitle: Spanish / 0,060 kbps
Subtitle: Swedish / 21,314 kbps
Subtitle: Thai / 22,134 kbps
Subtitle: Turkish / 26,791 kbps
********************
PLAYLIST: 00021.MPLS
********************
<--- BEGIN FORUMS PASTE --->
Код:
Total   Video
Title                                                           Codec   Length  Movie Size      Disc Size       Bitrate Bitrate Main Audio Track                          Secondary Audio Track
-----                                                           ------  ------- --------------  --------------  ------- ------- ------------------                        ---------------------
00021.MPLS                                                      VC-1    0:01:05 144 457 728     41 637 173 487  17,72   16,22   DD AC3 5.1 640Kbps
Код:
DISC INFO:
Disc Title:     Wild at Heart 1990 1080p Blu-ray AVC DTS-HD MA 5.1
Disc Size:      41 637 173 487 bytes
Protection:     AACS
BD-Java:        Yes
BDInfo:         0.5.2
PLAYLIST REPORT:
Name:                   00021.MPLS
Size:                   144 457 728 bytes
Length:                 0:01:05 (h:m:s)
Total Bitrate:          17,72 Mbps
Description:
VIDEO:
Codec                   Bitrate             Description
-----                   -------             -----------
VC-1 Video              16217 kbps          1080p / 23,976 fps / 16:9 / Advanced Profile 3
AUDIO:
Codec                           Language        Bitrate         Description
-----                           --------        -------         -----------
Dolby Digital Audio             English         640 kbps        5.1 / 48 kHz / 640 kbps
FILES:
Name            Time In         Length          Size            Total Bitrate
----            -------         ------          ----            -------------
00012.M2TS      0:00:00.000     0:01:05.231     144 457 728     17 716
CHAPTERS:
Number          Time In         Length          Avg Video Rate  Max 1-Sec Rate  Max 1-Sec Time  Max 5-Sec Rate  Max 5-Sec Time  Max 10Sec Rate  Max 10Sec Time  Avg Frame Size  Max Frame Size  Max Frame Time
------          -------         ------          --------------  --------------  --------------  --------------  --------------  --------------  --------------  --------------  --------------  --------------
1               0:00:00.000     0:01:05.231     16 217 kbps     37 323 kbps     00:00:06.256    22 604 kbps     00:00:05.672    19 692 kbps     00:00:05.505    84 546 bytes    386 639 bytes   00:01:04.314
STREAM DIAGNOSTICS:
File            PID             Type            Codec           Language                Seconds                 Bitrate                 Bytes           Packets
----            ---             ----            -----           --------                --------------          --------------          -------------   -----
00012.M2TS      4113 (0x1011)   0xEA            VC-1                                    65,148                  16 237                  132 230 155     719 576
00012.M2TS      4352 (0x1100)   0x81            AC3             eng (English)           65,148                  641                     5 219 840       30 585
<---- END FORUMS PASTE ---->
QUICK SUMMARY:
Disc Title: Wild at Heart 1990 1080p Blu-ray AVC DTS-HD MA 5.1
Disc Size: 41 637 173 487 bytes
Protection: AACS
BD-Java: Yes
Playlist: 00021.MPLS
Size: 144 457 728 bytes
Length: 0:01:05
Total Bitrate: 17,72 Mbps
Video: VC-1 Video / 16217 kbps / 1080p / 23,976 fps / 16:9 / Advanced Profile 3
Audio: English / Dolby Digital Audio / 5.1 / 48 kHz / 640 kbps
********************
PLAYLIST: 00022.MPLS
********************
<--- BEGIN FORUMS PASTE --->
Код:
Total   Video
Title                                                           Codec   Length  Movie Size      Disc Size       Bitrate Bitrate Main Audio Track                          Secondary Audio Track
-----                                                           ------  ------- --------------  --------------  ------- ------- ------------------                        ---------------------
00022.MPLS                                                      VC-1    0:01:00 130 142 208     41 637 173 487  17,33   15,85   DD AC3 5.1 640Kbps
Код:
DISC INFO:
Disc Title:     Wild at Heart 1990 1080p Blu-ray AVC DTS-HD MA 5.1
Disc Size:      41 637 173 487 bytes
Protection:     AACS
BD-Java:        Yes
BDInfo:         0.5.2
PLAYLIST REPORT:
Name:                   00022.MPLS
Size:                   130 142 208 bytes
Length:                 0:01:00 (h:m:s)
Total Bitrate:          17,33 Mbps
Description:
VIDEO:
Codec                   Bitrate             Description
-----                   -------             -----------
VC-1 Video              15851 kbps          1080p / 23,976 fps / 16:9 / Advanced Profile 3
AUDIO:
Codec                           Language        Bitrate         Description
-----                           --------        -------         -----------
Dolby Digital Audio             English         640 kbps        5.1 / 48 kHz / 640 kbps
FILES:
Name            Time In         Length          Size            Total Bitrate
----            -------         ------          ----            -------------
00013.M2TS      0:00:00.000     0:01:00.060     130 142 208     17 335
CHAPTERS:
Number          Time In         Length          Avg Video Rate  Max 1-Sec Rate  Max 1-Sec Time  Max 5-Sec Rate  Max 5-Sec Time  Max 10Sec Rate  Max 10Sec Time  Avg Frame Size  Max Frame Size  Max Frame Time
------          -------         ------          --------------  --------------  --------------  --------------  --------------  --------------  --------------  --------------  --------------  --------------
1               0:00:00.000     0:01:00.060     15 851 kbps     29 322 kbps     00:00:58.516    20 897 kbps     00:00:28.278    18 463 kbps     00:00:27.777    82 641 bytes    387 303 bytes   00:00:59.059
STREAM DIAGNOSTICS:
File            PID             Type            Codec           Language                Seconds                 Bitrate                 Bytes           Packets
----            ---             ----            -----           --------                --------------          --------------          -------------   -----
00013.M2TS      4113 (0x1011)   0xEA            VC-1                                    59,935                  15 884                  119 002 543     647 630
00013.M2TS      4352 (0x1100)   0x81            AC3             eng (English)           59,935                  641                     4 805 120       28 155
<---- END FORUMS PASTE ---->
QUICK SUMMARY:
Disc Title: Wild at Heart 1990 1080p Blu-ray AVC DTS-HD MA 5.1
Disc Size: 41 637 173 487 bytes
Protection: AACS
BD-Java: Yes
Playlist: 00022.MPLS
Size: 130 142 208 bytes
Length: 0:01:00
Total Bitrate: 17,33 Mbps
Video: VC-1 Video / 15851 kbps / 1080p / 23,976 fps / 16:9 / Advanced Profile 3
Audio: English / Dolby Digital Audio / 5.1 / 48 kHz / 640 kbps
********************
PLAYLIST: 00073.MPLS
********************
<--- BEGIN FORUMS PASTE --->
Код:
Total   Video
Title                                                           Codec   Length  Movie Size      Disc Size       Bitrate Bitrate Main Audio Track                          Secondary Audio Track
-----                                                           ------  ------- --------------  --------------  ------- ------- ------------------                        ---------------------
00073.MPLS                                                      VC-1    0:00:33 67 301 376      41 637 173 487  16,14   14,70   DD AC3 5.1 640Kbps
Код:
DISC INFO:
Disc Title:     Wild at Heart 1990 1080p Blu-ray AVC DTS-HD MA 5.1
Disc Size:      41 637 173 487 bytes
Protection:     AACS
BD-Java:        Yes
BDInfo:         0.5.2
PLAYLIST REPORT:
Name:                   00073.MPLS
Size:                   67 301 376 bytes
Length:                 0:00:33 (h:m:s)
Total Bitrate:          16,14 Mbps
Description:
VIDEO:
Codec                   Bitrate             Description
-----                   -------             -----------
VC-1 Video              14700 kbps          1080p / 23,976 fps / 16:9 / Advanced Profile 3
AUDIO:
Codec                           Language        Bitrate         Description
-----                           --------        -------         -----------
Dolby Digital Audio             English         640 kbps        5.1 / 48 kHz / 640 kbps
FILES:
Name            Time In         Length          Size            Total Bitrate
----            -------         ------          ----            -------------
00144.M2TS      0:00:00.000     0:00:33.366     67 301 376      16 136
CHAPTERS:
Number          Time In         Length          Avg Video Rate  Max 1-Sec Rate  Max 1-Sec Time  Max 5-Sec Rate  Max 5-Sec Time  Max 10Sec Rate  Max 10Sec Time  Avg Frame Size  Max Frame Size  Max Frame Time
------          -------         ------          --------------  --------------  --------------  --------------  --------------  --------------  --------------  --------------  --------------  --------------
1               0:00:00.000     0:00:33.366     14 700 kbps     27 184 kbps     00:00:03.503    19 938 kbps     00:00:02.794    19 110 kbps     00:00:03.503    78 906 bytes    331 770 bytes   00:00:12.429
STREAM DIAGNOSTICS:
File            PID             Type            Codec           Language                Seconds                 Bitrate                 Bytes           Packets
----            ---             ----            -----           --------                --------------          --------------          -------------   -----
00144.M2TS      4113 (0x1011)   0xEA            VC-1                                    33,242                  14 755                  61 309 765      333 724
00144.M2TS      4352 (0x1100)   0x81            AC3             eng (English)           33,242                  643                     2 670 080       15 645
<---- END FORUMS PASTE ---->
QUICK SUMMARY:
Disc Title: Wild at Heart 1990 1080p Blu-ray AVC DTS-HD MA 5.1
Disc Size: 41 637 173 487 bytes
Protection: AACS
BD-Java: Yes
Playlist: 00073.MPLS
Size: 67 301 376 bytes
Length: 0:00:33
Total Bitrate: 16,14 Mbps
Video: VC-1 Video / 14700 kbps / 1080p / 23,976 fps / 16:9 / Advanced Profile 3
Audio: English / Dolby Digital Audio / 5.1 / 48 kHz / 640 kbps
********************
PLAYLIST: 00011.MPLS
********************
<--- BEGIN FORUMS PASTE --->
Код:
Total   Video
Title                                                           Codec   Length  Movie Size      Disc Size       Bitrate Bitrate Main Audio Track                          Secondary Audio Track
-----                                                           ------  ------- --------------  --------------  ------- ------- ------------------                        ---------------------
00011.MPLS                                                      VC-1    0:00:23 64 106 496      41 637 173 487  21,69   20,02   DD AC3 5.1 640Kbps
Код:
DISC INFO:
Disc Title:     Wild at Heart 1990 1080p Blu-ray AVC DTS-HD MA 5.1
Disc Size:      41 637 173 487 bytes
Protection:     AACS
BD-Java:        Yes
BDInfo:         0.5.2
PLAYLIST REPORT:
Name:                   00011.MPLS
Size:                   64 106 496 bytes
Length:                 0:00:23 (h:m:s)
Total Bitrate:          21,69 Mbps
Description:
VIDEO:
Codec                   Bitrate             Description
-----                   -------             -----------
VC-1 Video              20019 kbps          1080p / 23,976 fps / 16:9 / Advanced Profile 3
AUDIO:
Codec                           Language        Bitrate         Description
-----                           --------        -------         -----------
Dolby Digital Audio             English         640 kbps        5.1 / 48 kHz / 640 kbps
FILES:
Name            Time In         Length          Size            Total Bitrate
----            -------         ------          ----            -------------
00000.M2TS      0:00:00.000     0:00:23.648     64 106 496      21 686
CHAPTERS:
Number          Time In         Length          Avg Video Rate  Max 1-Sec Rate  Max 1-Sec Time  Max 5-Sec Rate  Max 5-Sec Time  Max 10Sec Rate  Max 10Sec Time  Avg Frame Size  Max Frame Size  Max Frame Time
------          -------         ------          --------------  --------------  --------------  --------------  --------------  --------------  --------------  --------------  --------------  --------------
1               0:00:00.000     0:00:23.648     20 019 kbps     43 839 kbps     00:00:07.966    36 473 kbps     00:00:07.048    32 577 kbps     00:00:04.713    108 781 bytes   471 987 bytes   00:00:08.591
STREAM DIAGNOSTICS:
File            PID             Type            Codec           Language                Seconds                 Bitrate                 Bytes           Packets
----            ---             ----            -----           --------                --------------          --------------          -------------   -----
00000.M2TS      4113 (0x1011)   0xEA            VC-1                                    23,565                  20 090                  59 176 948      321 957
00000.M2TS      4352 (0x1100)   0x81            AC3             eng (English)           23,565                  643                     1 894 400       11 100
<---- END FORUMS PASTE ---->
QUICK SUMMARY:
Disc Title: Wild at Heart 1990 1080p Blu-ray AVC DTS-HD MA 5.1
Disc Size: 41 637 173 487 bytes
Protection: AACS
BD-Java: Yes
Playlist: 00011.MPLS
Size: 64 106 496 bytes
Length: 0:00:23
Total Bitrate: 21,69 Mbps
Video: VC-1 Video / 20019 kbps / 1080p / 23,976 fps / 16:9 / Advanced Profile 3
Audio: English / Dolby Digital Audio / 5.1 / 48 kHz / 640 kbps
********************
PLAYLIST: 00012.MPLS
********************
<--- BEGIN FORUMS PASTE --->
Код:
Total   Video
Title                                                           Codec   Length  Movie Size      Disc Size       Bitrate Bitrate Main Audio Track                          Secondary Audio Track
-----                                                           ------  ------- --------------  --------------  ------- ------- ------------------                        ---------------------
00012.MPLS                                                      VC-1    0:00:14 31 291 392      41 637 173 487  17,86   16,58   DD AC3 5.1 448Kbps
Код:
DISC INFO:
Disc Title:     Wild at Heart 1990 1080p Blu-ray AVC DTS-HD MA 5.1
Disc Size:      41 637 173 487 bytes
Protection:     AACS
BD-Java:        Yes
BDInfo:         0.5.2
PLAYLIST REPORT:
Name:                   00012.MPLS
Size:                   31 291 392 bytes
Length:                 0:00:14 (h:m:s)
Total Bitrate:          17,86 Mbps
Description:
VIDEO:
Codec                   Bitrate             Description
-----                   -------             -----------
VC-1 Video              16583 kbps          1080p / 23,976 fps / 16:9 / Advanced Profile 3
AUDIO:
Codec                           Language        Bitrate         Description
-----                           --------        -------         -----------
Dolby Digital Audio             English         448 kbps        5.1 / 48 kHz / 448 kbps
FILES:
Name            Time In         Length          Size            Total Bitrate
----            -------         ------          ----            -------------
00001.M2TS      0:00:00.000     0:00:14.014     31 291 392      17 863
CHAPTERS:
Number          Time In         Length          Avg Video Rate  Max 1-Sec Rate  Max 1-Sec Time  Max 5-Sec Rate  Max 5-Sec Time  Max 10Sec Rate  Max 10Sec Time  Avg Frame Size  Max Frame Size  Max Frame Time
------          -------         ------          --------------  --------------  --------------  --------------  --------------  --------------  --------------  --------------  --------------  --------------
1               0:00:00.000     0:00:14.014     16 583 kbps     34 287 kbps     00:00:02.502    23 404 kbps     00:00:02.544    21 711 kbps     00:00:01.668    92 218 bytes    403 709 bytes   00:00:03.461
STREAM DIAGNOSTICS:
File            PID             Type            Codec           Language                Seconds                 Bitrate                 Bytes           Packets
----            ---             ----            -----           --------                --------------          --------------          -------------   -----
00001.M2TS      4113 (0x1011)   0xEA            VC-1                                    13,931                  16 682                  29 048 641      158 078
00001.M2TS      4352 (0x1100)   0x81            AC3             eng (English)           13,931                  451                     784 896         4 380
<---- END FORUMS PASTE ---->
QUICK SUMMARY:
Disc Title: Wild at Heart 1990 1080p Blu-ray AVC DTS-HD MA 5.1
Disc Size: 41 637 173 487 bytes
Protection: AACS
BD-Java: Yes
Playlist: 00012.MPLS
Size: 31 291 392 bytes
Length: 0:00:14
Total Bitrate: 17,86 Mbps
Video: VC-1 Video / 16583 kbps / 1080p / 23,976 fps / 16:9 / Advanced Profile 3
Audio: English / Dolby Digital Audio / 5.1 / 48 kHz / 448 kbps
********************
PLAYLIST: 00200.MPLS
********************
<--- BEGIN FORUMS PASTE --->
Код:
Total   Video
Title                                                           Codec   Length  Movie Size      Disc Size       Bitrate Bitrate Main Audio Track                          Secondary Audio Track
-----                                                           ------  ------- --------------  --------------  ------- ------- ------------------                        ---------------------
00200.MPLS                                                      VC-1    0:00:12 23 758 848      41 637 173 487  15,82   13,75   DD AC3 2.0 448Kbps
Код:
DISC INFO:
Disc Title:     Wild at Heart 1990 1080p Blu-ray AVC DTS-HD MA 5.1
Disc Size:      41 637 173 487 bytes
Protection:     AACS
BD-Java:        Yes
BDInfo:         0.5.2
PLAYLIST REPORT:
Name:                   00200.MPLS
Size:                   23 758 848 bytes
Length:                 0:00:12 (h:m:s)
Total Bitrate:          15,82 Mbps
Description:
VIDEO:
Codec                   Bitrate             Description
-----                   -------             -----------
VC-1 Video              13751 kbps          1080p / 23,976 fps / 16:9 / Advanced Profile 3
AUDIO:
Codec                           Language        Bitrate         Description
-----                           --------        -------         -----------
Dolby Digital Audio             English         448 kbps        2.0 / 48 kHz / 448 kbps
SUBTITLES:
Codec                           Language        Bitrate         Description
-----                           --------        -------         -----------
Presentation Graphics           English         39,989 kbps
Presentation Graphics           Chinese         32,644 kbps
Presentation Graphics           Danish          36,801 kbps
Presentation Graphics           Dutch           40,831 kbps
Presentation Graphics           Finnish         37,692 kbps
Presentation Graphics           German          45,378 kbps
Presentation Graphics           Greek           52,655 kbps
Presentation Graphics           Italian         48,599 kbps
Presentation Graphics           Japanese        44,900 kbps
Presentation Graphics           Korean          32,410 kbps
Presentation Graphics           Norwegian       35,416 kbps
Presentation Graphics           Polish          43,018 kbps
Presentation Graphics           Portuguese      38,618 kbps
Presentation Graphics           Portuguese      45,512 kbps
Presentation Graphics           Russian         39,590 kbps
Presentation Graphics           Spanish         46,189 kbps
Presentation Graphics           Spanish         41,187 kbps
Presentation Graphics           Swedish         36,059 kbps
Presentation Graphics           Thai            40,746 kbps
Presentation Graphics           Turkish         47,977 kbps
FILES:
Name            Time In         Length          Size            Total Bitrate
----            -------         ------          ----            -------------
00200.M2TS      0:00:00.000     0:00:12.012     23 758 848      15 823
CHAPTERS:
Number          Time In         Length          Avg Video Rate  Max 1-Sec Rate  Max 1-Sec Time  Max 5-Sec Rate  Max 5-Sec Time  Max 10Sec Rate  Max 10Sec Time  Avg Frame Size  Max Frame Size  Max Frame Time
------          -------         ------          --------------  --------------  --------------  --------------  --------------  --------------  --------------  --------------  --------------  --------------
1               0:00:00.000     0:00:12.012     13 751 kbps     41 407 kbps     00:00:07.632    29 627 kbps     00:00:06.464    15 827 kbps     00:00:01.459    71 941 bytes    545 998 bytes   00:00:08.466
STREAM DIAGNOSTICS:
File            PID             Type            Codec           Language                Seconds                 Bitrate                 Bytes           Packets
----            ---             ----            -----           --------                --------------          --------------          -------------   -----
00200.M2TS      4113 (0x1011)   0xEA            VC-1                                    11,887                  13 896                  20 646 950      112 397
00200.M2TS      4352 (0x1100)   0x81            AC3             eng (English)           11,887                  453                     673 792         3 760
00200.M2TS      4608 (0x1200)   0x90            PGS             jpn (Japanese)          11,887                  45                      67 417          387
00200.M2TS      4609 (0x1201)   0x90            PGS             eng (English)           11,887                  40                      60 044          340
00200.M2TS      4610 (0x1202)   0x90            PGS             ita (Italian)           11,887                  49                      72 971          418
00200.M2TS      4611 (0x1203)   0x90            PGS             deu (German)            11,887                  46                      68 135          390
00200.M2TS      4612 (0x1204)   0x90            PGS             spa (Spanish)           11,887                  47                      69 353          398
00200.M2TS      4613 (0x1205)   0x90            PGS             por (Portuguese)        11,887                  39                      57 985          337
00200.M2TS      4614 (0x1206)   0x90            PGS             spa (Spanish)           11,887                  42                      61 842          357
00200.M2TS      4615 (0x1207)   0x90            PGS             rus (Russian)           11,887                  40                      59 445          344
00200.M2TS      4616 (0x1208)   0x90            PGS             dan (Danish)            11,887                  37                      55 257          322
00200.M2TS      4617 (0x1209)   0x90            PGS             nld (Dutch)             11,887                  41                      61 308          355
00200.M2TS      4618 (0x120A)   0x90            PGS             fin (Finnish)           11,887                  38                      56 595          329
00200.M2TS      4619 (0x120B)   0x90            PGS             ell (Greek)             11,887                  53                      79 061          451
00200.M2TS      4620 (0x120C)   0x90            PGS             kor (Korean)            11,887                  33                      48 664          286
00200.M2TS      4621 (0x120D)   0x90            PGS             nor (Norwegian)         11,887                  36                      53 177          310
00200.M2TS      4622 (0x120E)   0x90            PGS             pol (Polish)            11,887                  43                      64 592          372
00200.M2TS      4623 (0x120F)   0x90            PGS             por (Portuguese)        11,887                  46                      68 336          392
00200.M2TS      4624 (0x1210)   0x90            PGS             swe (Swedish)           11,887                  36                      54 142          314
00200.M2TS      4625 (0x1211)   0x90            PGS             tha (Thai)              11,887                  41                      61 180          353
00200.M2TS      4626 (0x1212)   0x90            PGS             tur (Turkish)           11,887                  48                      72 038          411
00200.M2TS      4627 (0x1213)   0x90            PGS             zho (Chinese)           11,887                  33                      49 015          287
<---- END FORUMS PASTE ---->
QUICK SUMMARY:
Disc Title: Wild at Heart 1990 1080p Blu-ray AVC DTS-HD MA 5.1
Disc Size: 41 637 173 487 bytes
Protection: AACS
BD-Java: Yes
Playlist: 00200.MPLS
Size: 23 758 848 bytes
Length: 0:00:12
Total Bitrate: 15,82 Mbps
Video: VC-1 Video / 13751 kbps / 1080p / 23,976 fps / 16:9 / Advanced Profile 3
Audio: English / Dolby Digital Audio / 2.0 / 48 kHz / 448 kbps
Subtitle: English / 39,989 kbps
Subtitle: Chinese / 32,644 kbps
Subtitle: Danish / 36,801 kbps
Subtitle: Dutch / 40,831 kbps
Subtitle: Finnish / 37,692 kbps
Subtitle: German / 45,378 kbps
Subtitle: Greek / 52,655 kbps
Subtitle: Italian / 48,599 kbps
Subtitle: Japanese / 44,900 kbps
Subtitle: Korean / 32,410 kbps
Subtitle: Norwegian / 35,416 kbps
Subtitle: Polish / 43,018 kbps
Subtitle: Portuguese / 38,618 kbps
Subtitle: Portuguese / 45,512 kbps
Subtitle: Russian / 39,590 kbps
Subtitle: Spanish / 46,189 kbps
Subtitle: Spanish / 41,187 kbps
Subtitle: Swedish / 36,059 kbps
Subtitle: Thai / 40,746 kbps
Subtitle: Turkish / 47,977 kbps
Скриншоты меню
Скриншоты
Download
Для скачивания .torrent файлов необходима регистрация
Сайт не распространяет и не хранит электронные версии произведений, а лишь предоставляет доступ к создаваемому пользователями каталогу ссылок на торрент-файлы, которые содержат только списки хеш-сумм
[Профиль]  [ЛС] 

140480

Стаж: 9 лет 3 месяца

Сообщений: 17

140480 · 22-Сен-10 18:06 (спустя 32 мин.)

[Цитировать] 

ИСПРАВЬ ЗДЕСЬ НЕ ДУБЛЯШ А Русский DTS 2.0 (768 kbps) (Многоголосый закадровый)
[Профиль]  [ЛС] 

Freux

Top Seed 01* 40r

Стаж: 11 лет 2 месяца

Сообщений: 1248

Freux · 22-Сен-10 20:34 (спустя 2 часа 28 мин.)

[Цитировать] 

Спасибо, Линча отрываю с руками!
[Профиль]  [ЛС] 

22afolina68

Стаж: 9 лет 8 месяцев

Сообщений: 202

22afolina68 · 31-Май-11 01:15 (спустя 8 месяцев)

[Цитировать] 

Был бы признателен за Remux! Ведь есть же;
русский авторский (одноголосый закадровый) А.Михалев, AC-3, 2ch, 192 Kbps, 48.0 KHz, 2.0 DD
Russian -48 kHz, AC3 Dolby Digital, 6 ch, ~384 Kbps - MVO
Фильм надо смотреть с Михалевым!
[Профиль]  [ЛС] 

Kazuma67

Стаж: 8 лет 9 месяцев

Сообщений: 178

Kazuma67 · 28-Июн-12 17:33 (спустя 1 год)

[Цитировать] 

Большущая просьба оставшимся на раздаче сидерам - поддайте газку пожалуйста плиззз!!!
За неделю упорного круглосуточного скачивания результат - всего лишь 21%.....
И ещё просьба к тем, кто уже скачал - не уходите с раздачи, уж очень хоцца Кейджа докачать!!!
[Профиль]  [ЛС] 

Thrillazzz

Стаж: 10 лет 10 месяцев

Сообщений: 241


Thrillazzz · 01-Июл-12 14:50 (спустя 2 дня 21 час)

[Цитировать] 

22afolina68 писал(а):
Был бы признателен за Remux! Ведь есть же;
русский авторский (одноголосый закадровый) А.Михалев, AC-3, 2ch, 192 Kbps, 48.0 KHz, 2.0 DD
Russian -48 kHz, AC3 Dolby Digital, 6 ch, ~384 Kbps - MVO
Фильм надо смотреть с Михалевым!
Перевод Михалева хоть и не плохой, но дорожка с ним очень уж сомнительного качества, это надо выделять голос и накладывать на оригинал, хотя в любом случае она хотя бы стерео, так как тут Русский DTS 2.0 / 48 kHz / 24-bit / 768 kbps вообще в моно
А вот то, что нету под BD AC3 Dolby Digital, 6 ch, ~384 Kbps - MVO с этого DVD http://rutracker.org/forum/viewtopic.php?t=3221883 действительно очень жаль, там и перевод хороший, да и 5.1 вроде бы настоящий, во всяком случае в плане качества однозначно лучшая дорога с русской озвучкой, так как лицензионная AC3 Dolby Digital, 2 ch, ~192.00 kbps avg от Universal Pictures Rus тоже кошмарная по качеству ((
[Профиль]  [ЛС] 

TopGearRacer

Стаж: 8 лет 9 месяцев

Сообщений: 214

TopGearRacer · 09-Дек-12 12:01 (спустя 5 месяцев 7 дней)

[Цитировать] 

Друзья, поделитесь, пожалуйста русскими субтитрами!
[Профиль]  [ЛС] 

dbibi

Top Seed 01* 40r

Стаж: 9 лет 10 месяцев

Сообщений: 926

dbibi · 01-Дек-14 21:48 (спустя 1 год 11 месяцев)

[Цитировать] 

140480 писал(а):
38304182ИСПРАВЬ ЗДЕСЬ НЕ ДУБЛЯШ А Русский DTS 2.0 (768 kbps) (Многоголосый закадровый)
дубляш
ДУБЛЯШ
Д У Б Л Я Ш
[Профиль]  [ЛС] 

hsunnyboy

Стаж: 6 лет 3 месяца

Сообщений: 7


hsunnyboy · 17-Янв-17 05:33 (спустя 2 года 1 месяц)

[Цитировать] 

Seed, please?
[Профиль]  [ЛС] 

Indigo-child

Top Seed 02* 80r

Стаж: 3 года 3 месяца

Сообщений: 260

Indigo-child · 29-Янв-17 11:30 (спустя 12 дней)

[Цитировать] 

dbibi писал(а):
66040384
140480 писал(а):
38304182ИСПРАВЬ ЗДЕСЬ НЕ ДУБЛЯШ А Русский DTS 2.0 (768 kbps) (Многоголосый закадровый)
дубляш
ДУБЛЯШ
Д У Б Л Я Ш
Гуляш.
[Профиль]  [ЛС] 

dbibi

Top Seed 01* 40r

Стаж: 9 лет 10 месяцев

Сообщений: 926

dbibi · 23-Фев-18 13:47 (спустя 1 год, ред. 23-Фев-18 13:47)

[Цитировать] 

TopGearRacer писал(а):
56742893Друзья, поделитесь, пожалуйста русскими субтитрами!
Вот
[Профиль]  [ЛС] 
 
Ответить
Loading...
Error