(Complete works - Полное собрание сочинений) Bach Edition / И.С. Бах - Полное собрание сочинений, [Brilliant Classics], 160 CD - 2006, FLAC (tracks), lossless

Страницы :   Пред.  1, 2, 3

Ответить
Автор
Сообщение

Edgar Grey

Стаж: 9 лет 8 месяцев

Сообщений: 44


Edgar Grey · 17-Авг-13 05:59 (5 лет назад)

[Цитировать] 

Может ли кто-нибудь из знатоков подсказать, какое произведение Баха используется в качестве вступления к песне Lost Memory группы Artension?
Ссылка на фрагмент песни:
[Профиль]  [ЛС] 

snb

Стаж: 10 лет 11 месяцев

Сообщений: 484


snb · 12-Мар-14 07:42 (спустя 6 месяцев)

[Цитировать] 

Я правильно понимаю, что ни одного .cue к этой раздаче так никому найти и не удалось?
[Профиль]  [ЛС] 

samopal records

VIP (Заслуженный)

Стаж: 8 лет 5 месяцев

Сообщений: 4854

samopal records · 15-Мар-14 16:19 (спустя 3 дня)

[Цитировать] 

Мне сегодня сын скинул ссылку на торрент-файл полного собрания сочинений И. С. Баха - 172 CD.
Цитата:
Полное собрание сочинений Иоганна Себастьяна Баха под руководством Гельмута Риллинга. Во всём мире признаётся единственным авторитетным изданием произведений композитора.
роект реализован в сотрудничестве с Международной академией Баха под художественным руководством маэстро Гельмута Риллинга, чей гений и безошибочное умение распознавать возникающие музыкальные таланты, позволили записать более 175 часов шедевров. Ограниченное специальное издание!
Полное собрание произведений (Hänssler 172 CD)
Ради интереса загрузил - вяло, но качается... Список композиций (текстовый формат) в стандартное окно редактора темы не помещается...
С уважением, s. r.
[Профиль]  [ЛС] 

Аndy

Moderator

Стаж: 10 лет

Сообщений: 43531

Аndy · 17-Мар-14 17:52 (спустя 2 дня 1 час)

[Цитировать] 

samopal records писал(а):
63292167Ради интереса загрузил - вяло, но качается... Список композиций (текстовый формат) в стандартное окно редактора темы не помещается...
с отличиями от http://rutracker.org/forum/viewtopic.php?t=114305 ?
[Профиль]  [ЛС] 

samopal records

VIP (Заслуженный)

Стаж: 8 лет 5 месяцев

Сообщений: 4854

samopal records · 18-Мар-14 07:53 (спустя 14 часов)

[Цитировать] 

Аndy
Похоже (по размеру и трэклисту) то же самое...
[Профиль]  [ЛС] 

RavDaSaf

Top Bonus 03* 1TB

Стаж: 9 лет 3 месяца

Сообщений: 213

RavDaSaf · 20-Мар-14 15:38 (спустя 2 дня 7 часов)

[Цитировать] 

samopal records, Аndy, то, о чём вы говорите - реализация того, о чём я говорил здесь.
samopal records писал(а):
63292167Ради интереса загрузил - вяло, но качается...
Отредактированный Hänssler уже лежит на ннме, руторе, кинозале и спарке. Скорость раздачи до 100 Мбит/с.
[Профиль]  [ЛС] 

Аndy

Moderator

Стаж: 10 лет

Сообщений: 43531

Аndy · 20-Мар-14 16:05 (спустя 26 мин.)

[Цитировать] 

RavDaSaf писал(а):
63350265samopal records, Аndy, то, о чём вы говорите - реализация того, о чём я говорил здесь.
лог первого сд такой (который редактированный)?
скрытый текст
Exact Audio Copy V0.99 prebeta 5 from 4. May 2009
EAC extraction logfile from 29. December 2010, 5:29
J.S. Bach / 001 - Cantatas, BWV 1-3
Used drive : Optiarc DVD RW AD-7240S Adapter: 3 ID: 0
Read mode : Secure
Utilize accurate stream : Yes
Defeat audio cache : Yes
Make use of C2 pointers : No
Read offset correction : 48
Overread into Lead-In and Lead-Out : No
Fill up missing offset samples with silence : Yes
Delete leading and trailing silent blocks : No
Null samples used in CRC calculations : Yes
Used interface : Native Win32 interface for Win NT & 2000
Gap handling : Appended to previous track
Used output format : User Defined Encoder
Selected bitrate : 320 kBit/s
Quality : High
Add ID3 tag : No
Command line compressor : C:\Program Files (x86)\FLAC\flac.exe
Additional command line options : -V -8 -T "artist=%a" -T "title=%t" -T "album=%g" -T "date=%y" -T "tracknumber=%n" -T "genre=%m" %s
TOC of the extracted CD
Track | Start | Length | Start sector | End sector
---------------------------------------------------------
1 | 0:00.00 | 7:40.47 | 0 | 34546
2 | 7:40.47 | 1:08.23 | 34547 | 39669
3 | 8:48.70 | 4:40.37 | 39670 | 60706
4 | 13:29.32 | 0:58.48 | 60707 | 65104
5 | 14:28.05 | 6:55.60 | 65105 | 96289
6 | 21:23.65 | 1:45.35 | 96290 | 104199
7 | 23:09.25 | 4:06.29 | 104200 | 122678
8 | 27:15.54 | 1:19.71 | 122679 | 128674
9 | 28:35.50 | 3:39.50 | 128675 | 145149
10 | 32:15.25 | 1:45.52 | 145150 | 153076
11 | 34:01.02 | 6:16.32 | 153077 | 181308
12 | 40:17.34 | 1:09.66 | 181309 | 186549
13 | 41:27.25 | 5:32.02 | 186550 | 211451
14 | 46:59.27 | 2:53.20 | 211452 | 224446
15 | 49:52.47 | 6:37.62 | 224447 | 254283
16 | 56:30.34 | 1:16.00 | 254284 | 259983
17 | 57:46.34 | 7:47.46 | 259984 | 295054
18 | 65:34.05 | 0:43.62 | 295055 | 298341
Track 1
Filename G:\0-Rips\01 - BWV 1 - Wie schoen leuchtet der Morgenstern - 1 - Coro.wav
Pre-gap length 0:00:02.00
Peak level 99.9 %
Track quality 100.0 %
Test CRC 4390FC2C
Copy CRC 4390FC2C
Accurately ripped (confidence 6) [368E16F9]
Copy OK
Track 2
Filename G:\0-Rips\02 - BWV 1 - Wie schoen leuchtet der Morgenstern - 2 - Recitativo.wav
Peak level 36.6 %
Track quality 100.0 %
Test CRC EA09B40E
Copy CRC EA09B40E
Accurately ripped (confidence 6) [3FA252F7]
Copy OK
Track 3
Filename G:\0-Rips\03 - BWV 1 - Wie schoen leuchtet der Morgenstern - 3 - Aria.wav
Peak level 34.5 %
Track quality 100.0 %
Test CRC 3A44A3D4
Copy CRC 3A44A3D4
Accurately ripped (confidence 6) [7A5603E3]
Copy OK
Track 4
Filename G:\0-Rips\04 - BWV 1 - Wie schoen leuchtet der Morgenstern - 4 - Recitativo.wav
Peak level 36.9 %
Track quality 100.0 %
Test CRC 57892C5E
Copy CRC 57892C5E
Accurately ripped (confidence 6) [24B3E4AD]
Copy OK
Track 5
Filename G:\0-Rips\05 - BWV 1 - Wie schoen leuchtet der Morgenstern - 5 - Aria.wav
Peak level 49.5 %
Track quality 100.0 %
Test CRC D554F8D2
Copy CRC D554F8D2
Accurately ripped (confidence 6) [F62CFB50]
Copy OK
Track 6
Filename G:\0-Rips\06 - BWV 1 - Wie schoen leuchtet der Morgenstern - 6 - Choral.wav
Peak level 86.4 %
Track quality 100.0 %
Test CRC 060B6A19
Copy CRC 060B6A19
Accurately ripped (confidence 6) [47CF4103]
Copy OK
Track 7
Filename G:\0-Rips\07 - BWV 2 - Ach Gott, vom Himmel sieh darein - 1 - Coro.wav
Pre-gap length 0:00:08.64
Peak level 94.1 %
Track quality 99.9 %
Test CRC 361298AE
Copy CRC 361298AE
Accurately ripped (confidence 6) [DD71F81B]
Copy OK
Track 8
Filename G:\0-Rips\08 - BWV 2 - Ach Gott, vom Himmel sieh darein - 2 - Recitativo.wav
Peak level 53.5 %
Track quality 100.0 %
Test CRC D8F71A2B
Copy CRC D8F71A2B
Accurately ripped (confidence 6) [5896545D]
Copy OK
Track 9
Filename G:\0-Rips\09 - BWV 2 - Ach Gott, vom Himmel sieh darein - 3 - Aria.wav
Peak level 65.5 %
Track quality 100.0 %
Test CRC CC5765FD
Copy CRC CC5765FD
Accurately ripped (confidence 6) [6840C873]
Copy OK
Track 10
Filename G:\0-Rips\10 - BWV 2 - Ach Gott, vom Himmel sieh darein - 4 - Recitativo.wav
Peak level 70.1 %
Track quality 100.0 %
Test CRC 6D31FA7D
Copy CRC 6D31FA7D
Accurately ripped (confidence 6) [D3BCF40D]
Copy OK
Track 11
Filename G:\0-Rips\11 - BWV 2 - Ach Gott, vom Himmel sieh darein - 5 - Aria.wav
Peak level 72.1 %
Track quality 100.0 %
Test CRC 27108F75
Copy CRC 27108F75
Accurately ripped (confidence 6) [94C5D1E2]
Copy OK
Track 12
Filename G:\0-Rips\12 - BWV 2 - Ach Gott, vom Himmel sieh darein - 6 - Choral.wav
Peak level 82.2 %
Track quality 100.0 %
Test CRC 33BFC35B
Copy CRC 33BFC35B
Accurately ripped (confidence 6) [8DE0DC05]
Copy OK
Track 13
Filename G:\0-Rips\13 - BWV 3 - Ach Gott, wie manches Herzeleid - 1 - Coro.wav
Pre-gap length 0:00:08.00
Peak level 99.9 %
Track quality 100.0 %
Test CRC 4F0BDE86
Copy CRC 4F0BDE86
Accurately ripped (confidence 6) [564D7502]
Copy OK
Track 14
Filename G:\0-Rips\14 - BWV 3 - Ach Gott, wie manches Herzeleid - 2 - Recitativo.wav
Peak level 86.3 %
Track quality 100.0 %
Test CRC 9667AEF2
Copy CRC 9667AEF2
Accurately ripped (confidence 5) [5F55EE7C]
Copy OK
Track 15
Filename G:\0-Rips\15 - BWV 3 - Ach Gott, wie manches Herzeleid - 3 - Aria.wav
Peak level 59.2 %
Track quality 99.9 %
Test CRC 1E1D5115
Copy CRC 1E1D5115
Accurately ripped (confidence 5) [5759296E]
Copy OK
Track 16
Filename G:\0-Rips\16 - BWV 3 - Ach Gott, wie manches Herzeleid - 4 - Recitativo.wav
Peak level 45.0 %
Track quality 100.0 %
Test CRC 986E717B
Copy CRC 986E717B
Accurately ripped (confidence 6) [1CC07C24]
Copy OK
Track 17
Filename G:\0-Rips\17 - BWV 3 - Ach Gott, wie manches Herzeleid - 5 - Aria.wav
Peak level 81.3 %
Track quality 100.0 %
Test CRC A3532E6E
Copy CRC A3532E6E
Accurately ripped (confidence 6) [5AD67256]
Copy OK
Track 18
Filename G:\0-Rips\18 - BWV 3 - Ach Gott, wie manches Herzeleid - 6 - Choral.wav
Peak level 65.0 %
Track quality 99.7 %
Test CRC 1E20CCEB
Copy CRC 1E20CCEB
Accurately ripped (confidence 6) [9003DF67]
Copy OK
All tracks accurately ripped
No errors occurred
End of status report
[Профиль]  [ЛС] 

RavDaSaf

Top Bonus 03* 1TB

Стаж: 9 лет 3 месяца

Сообщений: 213

RavDaSaf · 20-Мар-14 16:28 (спустя 22 мин.)

[Цитировать] 

Нет, не такой:
скрытый текст
Код:
EAC extraction logfile from 20. October 2005, 10:47 for CD
J. S. Bach / BA001 - Kantaten BWV 1-3
Used drive  : SAMSUNG CD-R/RW SW-252S   Adapter: 1  ID: 0
Read mode   : Secure with NO C2, accurate stream, disable cache
Read offset correction : 0
Overread into Lead-In and Lead-Out : No
Used output format : Monkey's Audio Lossless Encoder v3.99 DLL
                     High Lossless Compression
Other options      :
    Fill up missing offset samples with silence : Yes
    Delete leading and trailing silent blocks : No
    Native Win32 interface for Win NT & 2000
Range status and errors
Selected range
     Filename F:\RIPPED\Bach VOL1\CD1\CDImage.ape
     Peak level 99.9 %
     Range quality 100.0 %
     CRC 04459DC7
     Copy OK
No errors occured
End of status report
Вообще, посмотрите сами: 2C8DF17061CE3638FD54AACD0C587A8914909416
[Профиль]  [ЛС] 

Аndy

Moderator

Стаж: 10 лет

Сообщений: 43531

Аndy · 20-Мар-14 16:49 (спустя 21 мин.)

[Цитировать] 

RavDaSaf писал(а):
63350758Нет, не такой:
ну и в топку тогда образовые раздачи.
[Профиль]  [ЛС] 

RavDaSaf

Top Bonus 03* 1TB

Стаж: 9 лет 3 месяца

Сообщений: 213

RavDaSaf · 21-Мар-14 17:40 (спустя 1 день)

[Цитировать] 

Фу, как некрасиво: что за категоричность? Откуда столько ненависти к образам (я читал дискуссию в уничтоженной раздаче Моцарта)?
[Профиль]  [ЛС] 

Аndy

Moderator

Стаж: 10 лет

Сообщений: 43531

Аndy · 22-Мар-14 20:58 (спустя 1 день 3 часа)

[Цитировать] 

RavDaSaf
Я про данные сомнительные рипы, а не в общем.
[Профиль]  [ЛС] 

kazzinnik

Стаж: 8 лет 6 месяцев

Сообщений: 379


kazzinnik · 10-Фев-16 21:02 (спустя 1 год 10 месяцев)

[Цитировать] 

Господа, а где взять обложки к этой раздаче???
[Профиль]  [ЛС] 

maxim-b

Стаж: 8 лет 4 месяца

Сообщений: 218

maxim-b · 01-Июн-16 21:00 (спустя 3 месяца 21 день)

[Цитировать] 

Подскажите, такого диска здесь нет?
скрытый текст
[Профиль]  [ЛС] 

hisaishi55

Стаж: 8 лет 5 месяцев

Сообщений: 28


hisaishi55 · 12-Дек-16 02:14 (спустя 6 месяцев)

[Цитировать] 

это единственная подобная раздача на этом сайте?
где был бы собран весь Бах
[Профиль]  [ЛС] 

willdude

Стаж: 1 год 6 месяцев

Сообщений: 1


willdude · 19-Янв-17 22:09 (спустя 1 месяц 7 дней)

[Цитировать] 

Цан сомеоне плеасе сеед тхис? Тхе аваилабилиты ис 0.682 ригхт нощ.
Тханкс.
[Профиль]  [ЛС] 

idreamless

Стаж: 9 лет

Сообщений: 148

idreamless · 20-Фев-17 15:53 (спустя 1 месяц, ред. 20-Фев-17 15:53)

[Цитировать] 

Я вот какое уже время наблюдаю, что большинство рутрекеровских раздач находится в состоянии "В очереди раздач". В данный момент, и эта... Попробую перехешировать.
Спасибо за Баха! Года 4 назад скачал.
P.S.
Вот. Теперь, раздаётся. )))
willdude писал(а):
72270469Цан сомеоне плеасе сеед тхис? Тхе аваилабилиты ис 0.682 ригхт нощ.
Тханкс.
25 seeds. I don't know, why you can't get it...
[Профиль]  [ЛС] 

Jehosafat

Стаж: 3 года 6 месяцев

Сообщений: 2

Jehosafat · 22-Окт-17 06:57 (спустя 8 месяцев)

[Цитировать] 

Do Someone have the full Booklets Scans of this wonderful edition?
[Профиль]  [ЛС] 
 
Ответить
Loading...
Error