(Classical) Paul Badura-Skoda / A Man and His Music, 75th Birthday Tribute - 7 CDs [Box Set] - Kleos, 2003, FLAC (image+.cue), lossless

Страницы:  1

Тема закрыта
Автор
Сообщение

logaber

Стаж: 10 лет 9 месяцев

Сообщений: 1721

logaber · 14-Фев-10 13:00 (8 лет 6 месяцев назад, ред. 16-Фев-10 01:18)

Paul Badura-Skoda / A Man and His Music, 75th Birthday Tribute - 7 CDs [Box Set] - Kleos, 2003
Жанр: Classical
Год выпуска дисков: 2003
Производитель дисков: Kleos
Аудио кодек: FLAC
Тип рипа: image+.cue
Битрейт аудио: lossless
Продолжительность: 8h 24' 54''
Трэклист
CD 1
CD 1 - Young & Curious (65' 23'')
J.S. Bach Prelude and Fugue in C sharp minor WTC I (1943)
01. Prelude 2:45
02. Fugue 3:51
03. L. van Beethoven Sonata for Piano in C major op. 53 (1943) 7:19
1st movement - Allegro con brio
04. Frederic Chopin Barcarolle in F sharp major op. 60 (1944) 7:25
05. Frederic Chopin Fantasia in F minor op. 49 (1942) 10:30
06. Hans-Ulrich Staeps Pan Pan (1942) 1:30
Louis Gruenberg 6 Jazz Epigrams op. 30b (1941)
07. No. 1 1:03
08. No. 2 0:43
09. No. 3 0:30
10. No. 4 1:34
11. No. 5 0:58
12. No. 6 1:22
13. Billy Golwyn Verbena (Foxtrot) (1946) 3:47
Leopold Mittmann Jazz Babies (1946)
14. No. 1 0:36
15. No. 2 1:57
16. No. 3 1:22
17. G. Rossini Overture to the Opera "La Gazza Ladra" (1942) 8:01
18. Frossini Tango "Serenade Italienne" (1942)
19. H. Schittenhelm Der Eislaufer (The Ice Skater) (1942)
20. Josef Schneider Tarantella (1943)
21. Interview with Paul Badura-Skoda, part 1
CD 2
CD 2 - Great Concerts I (77' 50'')
PRAGUE RECITAL (BOSENDORFER IMPERIAL)
J.S. Bach Chromatic Fantasia and Fugue BWV 903 in D minor (1962)
01. Fantasia 7:26
02. Fugue 5:20
W.A. Mozart Sonata in F major No. 15 KV 533 + 494 (1962)
03. Allegro
04. Andante
05. Rondo - Allegretto (KV 494)
F. Chopin 12 Etudes op.25 (1962)
06. op. 25 No. 1 in A flat major "Aeolian Harp"
07. op. 25 No. 2 in F minor
08. op. 25 No. 3 in F major
09. op. 25 No. 4 in A minor
10. op. 25 No. 5 in E minor
11. op. 25 No. 6 in G sharp minor "DoubleThirds"
12. op. 25 No. 7 in C sharp minor
13. op. 25 No. 8 in D flat major
14. op. 25 No. 9 in G flat major "Butterfly"
15. op. 25 No. 10 in B minor
16. op. 25 No. 11 in A minor "Winter Wind"
17. op. 25 No. 12 in C minor
CARNEGIE HALL ENCORES (Steinway & Sons D)
F. Chopin 3 Etudes from op. 10 (1965)
18. op. 10 No. 4 in C sharp minor
19. op. 10 No. 8 in F major
20. op. 10 No. 1 in C major
21. F. Chopin Mazurka op. 63 No. 3 in C sharp minor (1965)
22. Interview with Paul Badura-Skoda, part 2
CD 3
CD 3 - On Period Instuments (75' 21'')
RECORDED IN MOZART'S BIRTHPLACE ON MOZART'S OWN FORTEPIANO,
BUILT BY ANTON WALTER (1781)
01. W.A. Mozart Fantasia in C minor KV 475 (1965)
W.A. Mozart Sonata in B flat major KV 333
02. Allegro
03. Andante cantabile
04. Allegretto grazioso
PERFORMED ON A FORTEPIANO OF ANTON WALTER (ca. 1785)
AT THE COLLECTION OF HISTORIC MUSICAL INSTRUMENTS, KUNSTHISTORISCHES MUSEUM, NEUE HOFBURG, VIENNA
05. W.A. Mozart 10 Variations on "Unser dummer Pobel meint" KV 455 (1974)
06. W.A. Mozart March in C major KV 408
STEINWAY & SONS D
J. Haydn Sonata in C major Hob. XVI: 50
07. Allegro
08. Adagio
09. Allegro molto
10. J. Haydn Variations on the Imperial Anthem Hob. III: 77 II (1991)
11. D. Scarlatti Sonata in E major Longo 23
12. Interview with Paul Badura-Skoda, part 3
CD 4
CD 4 - Great Concerts II (74' 21'')
LIVE RECORDING OF A CONCERT IN THE SALA VERDI, CONSERVATORIO
G. VERDI, MILAN WITH JORG DEMUS, PIANO
01. F. Schubert Rondo in D major op. post.138 D 608 (1978)
02. F. Schubert Variations on an Original Theme in A flat major op.35 D 813 (1978)
03. F. Schubert - J. Brahms Landler from D 366 (1978)
04. F. Schubert Divertissement a la hongroise op.54 D 818
3rd movement (shortened) (1978)
(WE WISH TO THANK DR. RENATO CACCAMO IN MILAN FOR PERMISSION TO PUBLISH THIS RECORDING.)
LIVE RECORDING OF A CONCERT IN RIO DE JANEIRO,
PERFORMED ON A COMPUTER-CONTROLLED BOSENDORFER GRAND PIANO.
L. van Beethoven Sonata in F minor op.57 "Apassionata" (1992)
05. Allegro assai
06. Andante con moto
07. Allegro ma non troppo
08. H. Villa-Lobos Impresioes Seresteiras from "Ciclo Brasiliero" (1992)
09. F. Chopin Polonaise in A flat major op. 53 (1992)
10. Interview with Paul Badura-Skoda, part 4
CD 5
CD 5 - With Piano & Baton (58' 14'')
VIENNA CHAMBER ORCHESTRA
CONDUCTOR AND PIANIST: PAUL BADURA-SKODA
W.A. Mozart Piano Concerto in D major KV 175 (1956)
01. Allegro
02. Andante ma un poco adagio
03. Allegro
BRISBANE PHILHARMONIC ORCHESTRA
CONDUCTOR: PAUL BADURA-SKODA
L. van Beethoven Symphony No. 2 in D major op.36 (2000)
04. Adago-molto-Allegro con brio
05. Larghetto
06. Scherzo. Allegro - Trio
07. Allegro molto
08. Interview with Paul Badura-Skoda, part 5
CD 6
CD 6 - Miscellaneous (78' 23'')
PLAYED ON STEINWAY
J.S. Bach 4 Counterpoints from "Kunst der Fuge" BWV 1080 (1964)
01. No. 1
02. No. 4
03. No. 15
04. No. 11
05. F. Chopin Ballade No. 4 in F minor op. 52
06. A. Berg Sonata op. 1
Frank Martin "Fantaisie sur des Rythmes Flamenco" (1983)
07. [Live introduction from Paul Badura-Skoda]
08. Rumba lente - Rumba rapide
09. Soleares
10. Petenera
11. F. Liszt Hungarian Rhapsody No. 2
12. Interview with Paul Badura-Skoda, part 6
CD 7
CD 7 - 75th Birthday Concert (75' 22'')
LIVE RECORDING OF THE BIRTHDAY CONCERT IN THE BRAHMS-SAAL AT THE MUSIKVEREIN IN VIENNA, NOVEMBER 6TH, 2002. PLAYED ON HIS OWN BOSENDORFER IMPERIAL
F. Schubert Sonata in A minor op. 42 D 845
01. Moderato
02. Andante, poco mosso
03. Allegro vivace - Trio. Un poco piu lento
04. Rondo, Allegro vivace
J. Brahms 6 Pieces for Piano op. 118
05. Intermezzo in A minor
06. Intermezzo in A major
07. Ballade in G minor
08. Intermezzo in F Minor
09. Romanze in F major
10. Intermezzo in E flat minor
M. Ravel Gaspard de la Nuit (3 Poemes pour piano d'apres A. Bertrand)
11. Ondine. Lent
12. Le Gibet. Tres lent
13. Scarbo. Modere
Отчёт XLD
CD 1
X Lossless Decoder version 20080830 (84.0)
XLD extraction logfile from 2008-09-02 14:07:58 +1000
Paul Badura-Skoda / A Man and His Music CD1, Paul Badura-Skoda
Used drive : PIONEER DVD-RW DVR-215 (revision 1.19)
Use cdparanoia mode : YES
Disable audio cache : YES
Read offset correction : 48
Max retry count : 100
TOC of the extracted CD
Track | Start | Length | Start sector | End sector
---------------------------------------------------------
1 | 00:00:00 | 02:45:60 | 0 | 12434
2 | 02:45:60 | 03:51:43 | 12435 | 29802
3 | 06:37:28 | 07:20:27 | 29803 | 62829
4 | 13:57:55 | 07:24:45 | 62830 | 96174
5 | 21:22:25 | 10:29:66 | 96175 | 143415
6 | 31:52:16 | 01:30:17 | 143416 | 150182
7 | 33:22:33 | 01:03:07 | 150183 | 154914
8 | 34:25:40 | 00:43:15 | 154915 | 158154
9 | 35:08:55 | 00:31:04 | 158155 | 160483
10 | 35:39:59 | 01:34:48 | 160484 | 167581
11 | 37:14:32 | 00:59:10 | 167582 | 172016
12 | 38:13:42 | 01:19:60 | 172017 | 178001
13 | 39:33:27 | 03:46:05 | 178002 | 194956
14 | 43:19:32 | 00:36:49 | 194957 | 197705
15 | 43:56:06 | 01:57:19 | 197706 | 206499
16 | 45:53:25 | 01:21:12 | 206500 | 212586
17 | 47:14:37 | 08:00:70 | 212587 | 248656
18 | 55:15:32 | 03:15:22 | 248657 | 263303
19 | 58:30:54 | 02:28:74 | 263304 | 274477
20 | 60:59:53 | 02:04:61 | 274478 | 283838
21 | 63:04:39 | 02:18:59 | 283839 | 294247
All Tracks
Filename : /Users/xxxxx/Uploads/A Man and His Music CD1, Paul Badura-Skoda.flac
CRC32 hash : 84C41C4B
CRC32 hash (skip zero) : 06063B81
Statistics
Read error : 0
Skipped (treated as error) : 0
Edge jitter error (maybe fixed) : 0
Atom jitter error (maybe fixed) : 1
Dropped bytes error (maybe fixed) : 0
Duplicated bytes error (maybe fixed) : 0
Inconsistency in error sectors : 0
Track 01
CRC32 hash : A1E66687
CRC32 hash (skip zero) : BD674AA7
AccurateRip signature : 77F893E5
->Track not present in AccurateRip database.
Statistics
Read error : 0
Skipped (treated as error) : 0
Edge jitter error (maybe fixed) : 0
Atom jitter error (maybe fixed) : 0
Dropped bytes error (maybe fixed) : 0
Duplicated bytes error (maybe fixed) : 0
Inconsistency in error sectors : 0
Track 02
CRC32 hash : 86ED2D8B
CRC32 hash (skip zero) : 4D94EC7B
AccurateRip signature : 79DA9C2F
->Track not present in AccurateRip database.
Statistics
Read error : 0
Skipped (treated as error) : 0
Edge jitter error (maybe fixed) : 0
Atom jitter error (maybe fixed) : 0
Dropped bytes error (maybe fixed) : 0
Duplicated bytes error (maybe fixed) : 0
Inconsistency in error sectors : 0
Track 03
CRC32 hash : FCC76579
CRC32 hash (skip zero) : 3CEF3233
AccurateRip signature : D9CC5F51
->Track not present in AccurateRip database.
Statistics
Read error : 0
Skipped (treated as error) : 0
Edge jitter error (maybe fixed) : 0
Atom jitter error (maybe fixed) : 0
Dropped bytes error (maybe fixed) : 0
Duplicated bytes error (maybe fixed) : 0
Inconsistency in error sectors : 0
Track 04
CRC32 hash : 200965DF
CRC32 hash (skip zero) : A49D34FE
AccurateRip signature : FF0F7CC9
->Track not present in AccurateRip database.
Statistics
Read error : 0
Skipped (treated as error) : 0
Edge jitter error (maybe fixed) : 0
Atom jitter error (maybe fixed) : 0
Dropped bytes error (maybe fixed) : 0
Duplicated bytes error (maybe fixed) : 0
Inconsistency in error sectors : 0
Track 05
CRC32 hash : 78252C2B
CRC32 hash (skip zero) : F25B77F1
AccurateRip signature : 005EE302
->Track not present in AccurateRip database.
Statistics
Read error : 0
Skipped (treated as error) : 0
Edge jitter error (maybe fixed) : 0
Atom jitter error (maybe fixed) : 0
Dropped bytes error (maybe fixed) : 0
Duplicated bytes error (maybe fixed) : 0
Inconsistency in error sectors : 0
Track 06
CRC32 hash : 37437660
CRC32 hash (skip zero) : 3400C3CC
AccurateRip signature : C30DD02A
->Track not present in AccurateRip database.
Statistics
Read error : 0
Skipped (treated as error) : 0
Edge jitter error (maybe fixed) : 0
Atom jitter error (maybe fixed) : 0
Dropped bytes error (maybe fixed) : 0
Duplicated bytes error (maybe fixed) : 0
Inconsistency in error sectors : 0
Track 07
CRC32 hash : 29911B51
CRC32 hash (skip zero) : A930C3EB
AccurateRip signature : 61A2DD70
->Track not present in AccurateRip database.
Statistics
Read error : 0
Skipped (treated as error) : 0
Edge jitter error (maybe fixed) : 0
Atom jitter error (maybe fixed) : 0
Dropped bytes error (maybe fixed) : 0
Duplicated bytes error (maybe fixed) : 0
Inconsistency in error sectors : 0
Track 08
CRC32 hash : D4D0D60A
CRC32 hash (skip zero) : 0B4334CA
AccurateRip signature : 25938330
->Track not present in AccurateRip database.
Statistics
Read error : 0
Skipped (treated as error) : 0
Edge jitter error (maybe fixed) : 0
Atom jitter error (maybe fixed) : 0
Dropped bytes error (maybe fixed) : 0
Duplicated bytes error (maybe fixed) : 0
Inconsistency in error sectors : 0
Track 09
CRC32 hash : 87E5B7F8
CRC32 hash (skip zero) : C40D7421
AccurateRip signature : 8FACB379
->Track not present in AccurateRip database.
Statistics
Read error : 0
Skipped (treated as error) : 0
Edge jitter error (maybe fixed) : 0
Atom jitter error (maybe fixed) : 0
Dropped bytes error (maybe fixed) : 0
Duplicated bytes error (maybe fixed) : 0
Inconsistency in error sectors : 0
Track 10
CRC32 hash : 9093DD3B
CRC32 hash (skip zero) : CF22B462
AccurateRip signature : A6EF158A
->Track not present in AccurateRip database.
Statistics
Read error : 0
Skipped (treated as error) : 0
Edge jitter error (maybe fixed) : 0
Atom jitter error (maybe fixed) : 0
Dropped bytes error (maybe fixed) : 0
Duplicated bytes error (maybe fixed) : 0
Inconsistency in error sectors : 0
Track 11
CRC32 hash : 1AC108CC
CRC32 hash (skip zero) : 1792BDD2
AccurateRip signature : 7F971209
->Track not present in AccurateRip database.
Statistics
Read error : 0
Skipped (treated as error) : 0
Edge jitter error (maybe fixed) : 0
Atom jitter error (maybe fixed) : 0
Dropped bytes error (maybe fixed) : 0
Duplicated bytes error (maybe fixed) : 0
Inconsistency in error sectors : 0
Track 12
CRC32 hash : 91D748AC
CRC32 hash (skip zero) : FED85322
AccurateRip signature : E62201A5
->Track not present in AccurateRip database.
Statistics
Read error : 0
Skipped (treated as error) : 0
Edge jitter error (maybe fixed) : 0
Atom jitter error (maybe fixed) : 0
Dropped bytes error (maybe fixed) : 0
Duplicated bytes error (maybe fixed) : 0
Inconsistency in error sectors : 0
Track 13
CRC32 hash : 95956501
CRC32 hash (skip zero) : 53F1DE05
AccurateRip signature : 0CEA4569
->Track not present in AccurateRip database.
Statistics
Read error : 0
Skipped (treated as error) : 0
Edge jitter error (maybe fixed) : 0
Atom jitter error (maybe fixed) : 0
Dropped bytes error (maybe fixed) : 0
Duplicated bytes error (maybe fixed) : 0
Inconsistency in error sectors : 0
Track 14
CRC32 hash : 9627EDAC
CRC32 hash (skip zero) : 6E9B44A2
AccurateRip signature : 7DE49185
->Track not present in AccurateRip database.
Statistics
Read error : 0
Skipped (treated as error) : 0
Edge jitter error (maybe fixed) : 0
Atom jitter error (maybe fixed) : 0
Dropped bytes error (maybe fixed) : 0
Duplicated bytes error (maybe fixed) : 0
Inconsistency in error sectors : 0
Track 15
CRC32 hash : A81A3990
CRC32 hash (skip zero) : 628E32A1
AccurateRip signature : 417CA367
->Track not present in AccurateRip database.
Statistics
Read error : 0
Skipped (treated as error) : 0
Edge jitter error (maybe fixed) : 0
Atom jitter error (maybe fixed) : 0
Dropped bytes error (maybe fixed) : 0
Duplicated bytes error (maybe fixed) : 0
Inconsistency in error sectors : 0
Track 16
CRC32 hash : B18AFB43
CRC32 hash (skip zero) : E4EF3667
AccurateRip signature : 1FA59023
->Track not present in AccurateRip database.
Statistics
Read error : 0
Skipped (treated as error) : 0
Edge jitter error (maybe fixed) : 0
Atom jitter error (maybe fixed) : 0
Dropped bytes error (maybe fixed) : 0
Duplicated bytes error (maybe fixed) : 0
Inconsistency in error sectors : 0
Track 17
CRC32 hash : FB3D2505
CRC32 hash (skip zero) : 3D418A4B
AccurateRip signature : D5AD9778
->Track not present in AccurateRip database.
Statistics
Read error : 0
Skipped (treated as error) : 0
Edge jitter error (maybe fixed) : 0
Atom jitter error (maybe fixed) : 0
Dropped bytes error (maybe fixed) : 0
Duplicated bytes error (maybe fixed) : 0
Inconsistency in error sectors : 0
Track 18
CRC32 hash : C7F1CFA4
CRC32 hash (skip zero) : 9ED1A4BE
AccurateRip signature : 79DF5E43
->Track not present in AccurateRip database.
Statistics
Read error : 0
Skipped (treated as error) : 0
Edge jitter error (maybe fixed) : 0
Atom jitter error (maybe fixed) : 0
Dropped bytes error (maybe fixed) : 0
Duplicated bytes error (maybe fixed) : 0
Inconsistency in error sectors : 0
Track 19
CRC32 hash : 8867A6B5
CRC32 hash (skip zero) : 53AB69C7
AccurateRip signature : 7CF8BE2D
->Track not present in AccurateRip database.
Statistics
Read error : 0
Skipped (treated as error) : 0
Edge jitter error (maybe fixed) : 0
Atom jitter error (maybe fixed) : 0
Dropped bytes error (maybe fixed) : 0
Duplicated bytes error (maybe fixed) : 0
Inconsistency in error sectors : 0
Track 20
CRC32 hash : AEFD4D2A
CRC32 hash (skip zero) : 088785B3
AccurateRip signature : 981BA289
->Track not present in AccurateRip database.
Statistics
Read error : 0
Skipped (treated as error) : 0
Edge jitter error (maybe fixed) : 0
Atom jitter error (maybe fixed) : 0
Dropped bytes error (maybe fixed) : 0
Duplicated bytes error (maybe fixed) : 0
Inconsistency in error sectors : 0
Track 21
CRC32 hash : 8C501A51
CRC32 hash (skip zero) : DE68A9F7
AccurateRip signature : 4CEA686A
->Track not present in AccurateRip database.
Statistics
Read error : 0
Skipped (treated as error) : 0
Edge jitter error (maybe fixed) : 0
Atom jitter error (maybe fixed) : 1
Dropped bytes error (maybe fixed) : 0
Duplicated bytes error (maybe fixed) : 0
Inconsistency in error sectors : 0
No errors occurred
End of status report
CD 2
X Lossless Decoder version 20080830 (84.0)
XLD extraction logfile from 2008-09-02 20:45:08 +1000
Paul Badura-Skoda / A Man and His Music CD2, Paul Badura-Skoda
Used drive : PIONEER DVD-RW DVR-215 (revision 1.19)
Use cdparanoia mode : YES
Disable audio cache : YES
Read offset correction : 48
Max retry count : 100
TOC of the extracted CD
Track | Start | Length | Start sector | End sector
---------------------------------------------------------
1 | 00:00:00 | 07:26:41 | 0 | 33490
2 | 07:26:41 | 05:16:65 | 33491 | 57255
3 | 12:43:31 | 07:28:52 | 57256 | 90907
4 | 20:12:08 | 09:13:06 | 90908 | 132388
5 | 29:25:14 | 06:35:73 | 132389 | 162086
6 | 36:01:12 | 02:20:57 | 162087 | 172643
7 | 38:21:69 | 01:19:35 | 172644 | 178603
8 | 39:41:29 | 01:49:25 | 178604 | 186803
9 | 41:30:54 | 01:45:31 | 186804 | 194709
10 | 43:16:10 | 02:46:36 | 194710 | 207195
11 | 46:02:46 | 02:05:69 | 207196 | 216639
12 | 48:08:40 | 05:28:10 | 216640 | 241249
13 | 53:36:50 | 01:09:43 | 241250 | 246467
14 | 54:46:18 | 01:00:47 | 246468 | 251014
15 | 55:46:65 | 03:54:12 | 251015 | 268576
16 | 59:41:02 | 03:23:58 | 268577 | 283859
17 | 63:04:60 | 02:43:67 | 283860 | 296151
18 | 65:48:52 | 01:57:63 | 296152 | 304989
19 | 67:46:40 | 02:08:61 | 304990 | 314650
20 | 69:55:26 | 01:58:01 | 314651 | 323501
21 | 71:53:27 | 02:32:36 | 323502 | 334937
22 | 74:25:63 | 03:24:40 | 334938 | 350277
All Tracks
Filename : /Users/xxxxx/Uploads/A Man and His Music CD2, Paul Badura-Skoda.flac
CRC32 hash : 80E2E681
CRC32 hash (skip zero) : 46BB9C63
Statistics
Read error : 0
Skipped (treated as error) : 0
Edge jitter error (maybe fixed) : 1
Atom jitter error (maybe fixed) : 0
Dropped bytes error (maybe fixed) : 0
Duplicated bytes error (maybe fixed) : 0
Inconsistency in error sectors : 0
Track 01
CRC32 hash : 9855294F
CRC32 hash (skip zero) : 390504B5
AccurateRip signature : D747F485
->Track not present in AccurateRip database.
Statistics
Read error : 0
Skipped (treated as error) : 0
Edge jitter error (maybe fixed) : 0
Atom jitter error (maybe fixed) : 0
Dropped bytes error (maybe fixed) : 0
Duplicated bytes error (maybe fixed) : 0
Inconsistency in error sectors : 0
Track 02
CRC32 hash : AC99169C
CRC32 hash (skip zero) : 7F42FC3C
AccurateRip signature : 38DBBAA6
->Track not present in AccurateRip database.
Statistics
Read error : 0
Skipped (treated as error) : 0
Edge jitter error (maybe fixed) : 0
Atom jitter error (maybe fixed) : 0
Dropped bytes error (maybe fixed) : 0
Duplicated bytes error (maybe fixed) : 0
Inconsistency in error sectors : 0
Track 03
CRC32 hash : 083D3AF9
CRC32 hash (skip zero) : B7A6201A
AccurateRip signature : CB0845A7
->Track not present in AccurateRip database.
Statistics
Read error : 0
Skipped (treated as error) : 0
Edge jitter error (maybe fixed) : 0
Atom jitter error (maybe fixed) : 0
Dropped bytes error (maybe fixed) : 0
Duplicated bytes error (maybe fixed) : 0
Inconsistency in error sectors : 0
Track 04
CRC32 hash : 1D5C8B12
CRC32 hash (skip zero) : A5359195
AccurateRip signature : 6A484610
->Track not present in AccurateRip database.
Statistics
Read error : 0
Skipped (treated as error) : 0
Edge jitter error (maybe fixed) : 0
Atom jitter error (maybe fixed) : 0
Dropped bytes error (maybe fixed) : 0
Duplicated bytes error (maybe fixed) : 0
Inconsistency in error sectors : 0
Track 05
CRC32 hash : 69F67958
CRC32 hash (skip zero) : 9DE82365
AccurateRip signature : C2BBC01D
->Track not present in AccurateRip database.
Statistics
Read error : 0
Skipped (treated as error) : 0
Edge jitter error (maybe fixed) : 0
Atom jitter error (maybe fixed) : 0
Dropped bytes error (maybe fixed) : 0
Duplicated bytes error (maybe fixed) : 0
Inconsistency in error sectors : 0
Track 06
CRC32 hash : 1E2FEAD9
CRC32 hash (skip zero) : 59EE88AC
AccurateRip signature : 7AF2779C
->Track not present in AccurateRip database.
Statistics
Read error : 0
Skipped (treated as error) : 0
Edge jitter error (maybe fixed) : 0
Atom jitter error (maybe fixed) : 0
Dropped bytes error (maybe fixed) : 0
Duplicated bytes error (maybe fixed) : 0
Inconsistency in error sectors : 0
Track 07
CRC32 hash : 7097FA5A
CRC32 hash (skip zero) : 39ED247E
AccurateRip signature : 48895788
->Track not present in AccurateRip database.
Statistics
Read error : 0
Skipped (treated as error) : 0
Edge jitter error (maybe fixed) : 0
Atom jitter error (maybe fixed) : 0
Dropped bytes error (maybe fixed) : 0
Duplicated bytes error (maybe fixed) : 0
Inconsistency in error sectors : 0
Track 08
CRC32 hash : 24E1DBD1
CRC32 hash (skip zero) : 3DC1AB81
AccurateRip signature : A31F4A13
->Track not present in AccurateRip database.
Statistics
Read error : 0
Skipped (treated as error) : 0
Edge jitter error (maybe fixed) : 0
Atom jitter error (maybe fixed) : 0
Dropped bytes error (maybe fixed) : 0
Duplicated bytes error (maybe fixed) : 0
Inconsistency in error sectors : 0
Track 09
CRC32 hash : E4CF438C
CRC32 hash (skip zero) : 3431C613
AccurateRip signature : 951F664F
->Track not present in AccurateRip database.
Statistics
Read error : 0
Skipped (treated as error) : 0
Edge jitter error (maybe fixed) : 0
Atom jitter error (maybe fixed) : 0
Dropped bytes error (maybe fixed) : 0
Duplicated bytes error (maybe fixed) : 0
Inconsistency in error sectors : 0
Track 10
CRC32 hash : BD0B901B
CRC32 hash (skip zero) : F01D1CB2
AccurateRip signature : 2DB60FB7
->Track not present in AccurateRip database.
Statistics
Read error : 0
Skipped (treated as error) : 0
Edge jitter error (maybe fixed) : 0
Atom jitter error (maybe fixed) : 0
Dropped bytes error (maybe fixed) : 0
Duplicated bytes error (maybe fixed) : 0
Inconsistency in error sectors : 0
Track 11
CRC32 hash : 123E90B4
CRC32 hash (skip zero) : 13E40A25
AccurateRip signature : 9955B4C6
->Track not present in AccurateRip database.
Statistics
Read error : 0
Skipped (treated as error) : 0
Edge jitter error (maybe fixed) : 0
Atom jitter error (maybe fixed) : 0
Dropped bytes error (maybe fixed) : 0
Duplicated bytes error (maybe fixed) : 0
Inconsistency in error sectors : 0
Track 12
CRC32 hash : BC7FBCF5
CRC32 hash (skip zero) : 77F622C8
AccurateRip signature : 55AF1D9F
->Track not present in AccurateRip database.
Statistics
Read error : 0
Skipped (treated as error) : 0
Edge jitter error (maybe fixed) : 0
Atom jitter error (maybe fixed) : 0
Dropped bytes error (maybe fixed) : 0
Duplicated bytes error (maybe fixed) : 0
Inconsistency in error sectors : 0
Track 13
CRC32 hash : ED6A9CF3
CRC32 hash (skip zero) : B43EFA5A
AccurateRip signature : 2F0D1369
->Track not present in AccurateRip database.
Statistics
Read error : 0
Skipped (treated as error) : 0
Edge jitter error (maybe fixed) : 0
Atom jitter error (maybe fixed) : 0
Dropped bytes error (maybe fixed) : 0
Duplicated bytes error (maybe fixed) : 0
Inconsistency in error sectors : 0
Track 14
CRC32 hash : DCC076F0
CRC32 hash (skip zero) : 3E089D44
AccurateRip signature : 1BB66C03
->Track not present in AccurateRip database.
Statistics
Read error : 0
Skipped (treated as error) : 0
Edge jitter error (maybe fixed) : 0
Atom jitter error (maybe fixed) : 0
Dropped bytes error (maybe fixed) : 0
Duplicated bytes error (maybe fixed) : 0
Inconsistency in error sectors : 0
Track 15
CRC32 hash : 67A45BAD
CRC32 hash (skip zero) : 221BE5EE
AccurateRip signature : 2CC2E503
->Track not present in AccurateRip database.
Statistics
Read error : 0
Skipped (treated as error) : 0
Edge jitter error (maybe fixed) : 0
Atom jitter error (maybe fixed) : 0
Dropped bytes error (maybe fixed) : 0
Duplicated bytes error (maybe fixed) : 0
Inconsistency in error sectors : 0
Track 16
CRC32 hash : 0F03B1B2
CRC32 hash (skip zero) : 1E604E12
AccurateRip signature : DB00059C
->Track not present in AccurateRip database.
Statistics
Read error : 0
Skipped (treated as error) : 0
Edge jitter error (maybe fixed) : 0
Atom jitter error (maybe fixed) : 0
Dropped bytes error (maybe fixed) : 0
Duplicated bytes error (maybe fixed) : 0
Inconsistency in error sectors : 0
Track 17
CRC32 hash : 5070D70B
CRC32 hash (skip zero) : EFA13A19
AccurateRip signature : 02077C6A
->Track not present in AccurateRip database.
Statistics
Read error : 0
Skipped (treated as error) : 0
Edge jitter error (maybe fixed) : 1
Atom jitter error (maybe fixed) : 0
Dropped bytes error (maybe fixed) : 0
Duplicated bytes error (maybe fixed) : 0
Inconsistency in error sectors : 0
Track 18
CRC32 hash : 4F4926C8
CRC32 hash (skip zero) : B7EA9F76
AccurateRip signature : 1788C5C8
->Track not present in AccurateRip database.
Statistics
Read error : 0
Skipped (treated as error) : 0
Edge jitter error (maybe fixed) : 0
Atom jitter error (maybe fixed) : 0
Dropped bytes error (maybe fixed) : 0
Duplicated bytes error (maybe fixed) : 0
Inconsistency in error sectors : 0
Track 19
CRC32 hash : 1AA8ACCA
CRC32 hash (skip zero) : 110C39C6
AccurateRip signature : 662D188C
->Track not present in AccurateRip database.
Statistics
Read error : 0
Skipped (treated as error) : 0
Edge jitter error (maybe fixed) : 0
Atom jitter error (maybe fixed) : 0
Dropped bytes error (maybe fixed) : 0
Duplicated bytes error (maybe fixed) : 0
Inconsistency in error sectors : 0
Track 20
CRC32 hash : 36E6FFA4
CRC32 hash (skip zero) : 6E8268B1
AccurateRip signature : 89E02AD2
->Track not present in AccurateRip database.
Statistics
Read error : 0
Skipped (treated as error) : 0
Edge jitter error (maybe fixed) : 0
Atom jitter error (maybe fixed) : 0
Dropped bytes error (maybe fixed) : 0
Duplicated bytes error (maybe fixed) : 0
Inconsistency in error sectors : 0
Track 21
CRC32 hash : E2C60D6C
CRC32 hash (skip zero) : A4403454
AccurateRip signature : E2B9CAC0
->Track not present in AccurateRip database.
Statistics
Read error : 0
Skipped (treated as error) : 0
Edge jitter error (maybe fixed) : 0
Atom jitter error (maybe fixed) : 0
Dropped bytes error (maybe fixed) : 0
Duplicated bytes error (maybe fixed) : 0
Inconsistency in error sectors : 0
Track 22
CRC32 hash : 76272F84
CRC32 hash (skip zero) : 00AA0726
AccurateRip signature : D235F6C9
->Track not present in AccurateRip database.
Statistics
Read error : 0
Skipped (treated as error) : 0
Edge jitter error (maybe fixed) : 0
Atom jitter error (maybe fixed) : 0
Dropped bytes error (maybe fixed) : 0
Duplicated bytes error (maybe fixed) : 0
Inconsistency in error sectors : 0
No errors occurred
End of status report
CD 3
X Lossless Decoder version 20080907 (86.0)
XLD extraction logfile from 2008-09-07 14:26:58 +1000
Paul Badura-Skoda / A Man and His Music CD3, Paul Badura-Skoda
Used drive : PIONEER DVD-RW DVR-215 (revision 1.19)
Use cdparanoia mode : YES
Disable audio cache : YES
Read offset correction : 48
Max retry count : 100
TOC of the extracted CD
Track | Start | Length | Start sector | End sector
---------------------------------------------------------
1 | 00:00:00 | 11:52:53 | 0 | 53452
2 | 11:52:53 | 06:52:04 | 53453 | 84356
3 | 18:44:57 | 06:52:67 | 84357 | 115323
4 | 25:37:49 | 05:42:54 | 115324 | 141027
5 | 31:20:28 | 11:22:36 | 141028 | 192213
6 | 42:42:64 | 02:01:22 | 192214 | 201310
7 | 44:44:11 | 07:42:33 | 201311 | 235993
8 | 52:26:44 | 05:15:45 | 235994 | 259663
9 | 57:42:14 | 02:29:61 | 259664 | 270899
10 | 60:12:00 | 06:49:72 | 270900 | 301646
11 | 67:01:72 | 03:21:41 | 301647 | 316762
12 | 70:23:38 | 04:57:71 | 316763 | 339108
All Tracks
Filename : /Users/xxxxx/Uploads/A Man and His Music CD3, Paul Badura-Skoda/CD/A Man and His Music CD3, Paul Badura-Skoda.flac
CRC32 hash : C3F6B39B
CRC32 hash (skip zero) : B87C0225
Statistics
Read error : 0
Skipped (treated as error) : 0
Edge jitter error (maybe fixed) : 22
Atom jitter error (maybe fixed) : 1
Drift error (maybe fixed) : 0
Dropped bytes error (maybe fixed) : 22
Duplicated bytes error (maybe fixed) : 12
Inconsistency in error sectors : 0
Track 01
CRC32 hash : F22FB771
CRC32 hash (skip zero) : D443F8E7
AccurateRip signature : 63DB0C69
->Track not present in AccurateRip database.
Statistics
Read error : 0
Skipped (treated as error) : 0
Edge jitter error (maybe fixed) : 2
Atom jitter error (maybe fixed) : 0
Drift error (maybe fixed) : 0
Dropped bytes error (maybe fixed) : 2
Duplicated bytes error (maybe fixed) : 2
Inconsistency in error sectors : 0
Track 02
CRC32 hash : 00DE05D8
CRC32 hash (skip zero) : AC405BCC
AccurateRip signature : E2C70A81
->Track not present in AccurateRip database.
Statistics
Read error : 0
Skipped (treated as error) : 0
Edge jitter error (maybe fixed) : 0
Atom jitter error (maybe fixed) : 0
Drift error (maybe fixed) : 0
Dropped bytes error (maybe fixed) : 0
Duplicated bytes error (maybe fixed) : 0
Inconsistency in error sectors : 0
Track 03
CRC32 hash : 07F4C29C
CRC32 hash (skip zero) : A3AF2F63
AccurateRip signature : C7B90302
->Track not present in AccurateRip database.
Statistics
Read error : 0
Skipped (treated as error) : 0
Edge jitter error (maybe fixed) : 0
Atom jitter error (maybe fixed) : 0
Drift error (maybe fixed) : 0
Dropped bytes error (maybe fixed) : 0
Duplicated bytes error (maybe fixed) : 0
Inconsistency in error sectors : 0
Track 04
CRC32 hash : 2CABE5F2
CRC32 hash (skip zero) : FD99FD21
AccurateRip signature : D2E4B9BD
->Track not present in AccurateRip database.
Statistics
Read error : 0
Skipped (treated as error) : 0
Edge jitter error (maybe fixed) : 3
Atom jitter error (maybe fixed) : 0
Drift error (maybe fixed) : 0
Dropped bytes error (maybe fixed) : 3
Duplicated bytes error (maybe fixed) : 3
Inconsistency in error sectors : 0
Track 05
CRC32 hash : 3B376689
CRC32 hash (skip zero) : 15B2DDD8
AccurateRip signature : 2C959412
->Track not present in AccurateRip database.
Statistics
Read error : 0
Skipped (treated as error) : 0
Edge jitter error (maybe fixed) : 2
Atom jitter error (maybe fixed) : 0
Drift error (maybe fixed) : 0
Dropped bytes error (maybe fixed) : 2
Duplicated bytes error (maybe fixed) : 0
Inconsistency in error sectors : 0
Track 06
CRC32 hash : C81603F7
CRC32 hash (skip zero) : 9941F44D
AccurateRip signature : 9C54A252
->Track not present in AccurateRip database.
Statistics
Read error : 0
Skipped (treated as error) : 0
Edge jitter error (maybe fixed) : 5
Atom jitter error (maybe fixed) : 0
Drift error (maybe fixed) : 0
Dropped bytes error (maybe fixed) : 5
Duplicated bytes error (maybe fixed) : 2
Inconsistency in error sectors : 0
Track 07
CRC32 hash : 8BDE9179
CRC32 hash (skip zero) : 4845F3B7
AccurateRip signature : 21B55480
->Track not present in AccurateRip database.
Statistics
Read error : 0
Skipped (treated as error) : 0
Edge jitter error (maybe fixed) : 0
Atom jitter error (maybe fixed) : 0
Drift error (maybe fixed) : 0
Dropped bytes error (maybe fixed) : 0
Duplicated bytes error (maybe fixed) : 0
Inconsistency in error sectors : 0
Track 08
CRC32 hash : A8B7B090
CRC32 hash (skip zero) : 8BF9F5A7
AccurateRip signature : 232CD66C
->Track not present in AccurateRip database.
Statistics
Read error : 0
Skipped (treated as error) : 0
Edge jitter error (maybe fixed) : 0
Atom jitter error (maybe fixed) : 0
Drift error (maybe fixed) : 0
Dropped bytes error (maybe fixed) : 0
Duplicated bytes error (maybe fixed) : 0
Inconsistency in error sectors : 0
Track 09
CRC32 hash : 3724E42A
CRC32 hash (skip zero) : 26453B58
AccurateRip signature : 2600BEA5
->Track not present in AccurateRip database.
Statistics
Read error : 0
Skipped (treated as error) : 0
Edge jitter error (maybe fixed) : 1
Atom jitter error (maybe fixed) : 1
Drift error (maybe fixed) : 0
Dropped bytes error (maybe fixed) : 1
Duplicated bytes error (maybe fixed) : 1
Inconsistency in error sectors : 0
Track 10
CRC32 hash : CFEAC561
CRC32 hash (skip zero) : 98D34F25
AccurateRip signature : 76BAA419
->Track not present in AccurateRip database.
Statistics
Read error : 0
Skipped (treated as error) : 0
Edge jitter error (maybe fixed) : 2
Atom jitter error (maybe fixed) : 0
Drift error (maybe fixed) : 0
Dropped bytes error (maybe fixed) : 2
Duplicated bytes error (maybe fixed) : 1
Inconsistency in error sectors : 0
Track 11
CRC32 hash : E5FCA665
CRC32 hash (skip zero) : 0311BAC0
AccurateRip signature : 5A9B996C
->Track not present in AccurateRip database.
Statistics
Read error : 0
Skipped (treated as error) : 0
Edge jitter error (maybe fixed) : 4
Atom jitter error (maybe fixed) : 0
Drift error (maybe fixed) : 0
Dropped bytes error (maybe fixed) : 4
Duplicated bytes error (maybe fixed) : 1
Inconsistency in error sectors : 0
Track 12
CRC32 hash : 46259F31
CRC32 hash (skip zero) : EEA8E440
AccurateRip signature : 0DA0FE78
->Track not present in AccurateRip database.
Statistics
Read error : 0
Skipped (treated as error) : 0
Edge jitter error (maybe fixed) : 3
Atom jitter error (maybe fixed) : 0
Drift error (maybe fixed) : 0
Dropped bytes error (maybe fixed) : 3
Duplicated bytes error (maybe fixed) : 2
Inconsistency in error sectors : 0
No errors occurred
End of status report
CD 4
X Lossless Decoder version 20080907 (86.0)
XLD extraction logfile from 2008-09-07 14:49:07 +1000
Various Artists / A Man and His Music CD4, Paul Badura-Skoda
Used drive : PIONEER DVD-RW DVR-215 (revision 1.19)
Use cdparanoia mode : YES
Disable audio cache : YES
Read offset correction : 48
Max retry count : 100
TOC of the extracted CD
Track | Start | Length | Start sector | End sector
---------------------------------------------------------
1 | 00:00:00 | 07:49:34 | 0 | 35208
2 | 07:49:34 | 17:06:64 | 35209 | 112222
3 | 24:56:23 | 02:44:61 | 112223 | 124583
4 | 27:41:09 | 08:08:11 | 124584 | 161194
5 | 35:49:20 | 08:37:71 | 161195 | 200040
6 | 44:27:16 | 05:46:57 | 200041 | 226047
7 | 50:13:73 | 07:51:12 | 226048 | 261384
8 | 58:05:10 | 05:20:04 | 261385 | 285388
9 | 63:25:14 | 06:50:64 | 285389 | 316202
10 | 70:16:03 | 04:04:72 | 316203 | 334574
All Tracks
Filename : /Users/xxxxx/Uploads/A Man and His Music CD3, Paul Badura-Skoda/CD/A Man and His Music CD4, Paul Badura-Skoda/CD/A Man and His Music CD4, Paul Badura-Skoda.flac
CRC32 hash : C99AC189
CRC32 hash (skip zero) : 879F8A08
Statistics
Read error : 0
Skipped (treated as error) : 0
Edge jitter error (maybe fixed) : 0
Atom jitter error (maybe fixed) : 0
Drift error (maybe fixed) : 0
Dropped bytes error (maybe fixed) : 0
Duplicated bytes error (maybe fixed) : 0
Inconsistency in error sectors : 0
Track 01
CRC32 hash : 16476EBB
CRC32 hash (skip zero) : F292DB73
AccurateRip signature : 86B06F35
->Track not present in AccurateRip database.
Statistics
Read error : 0
Skipped (treated as error) : 0
Edge jitter error (maybe fixed) : 0
Atom jitter error (maybe fixed) : 0
Drift error (maybe fixed) : 0
Dropped bytes error (maybe fixed) : 0
Duplicated bytes error (maybe fixed) : 0
Inconsistency in error sectors : 0
Track 02
CRC32 hash : F1820272
CRC32 hash (skip zero) : 7AFE10C1
AccurateRip signature : 64400AD3
->Track not present in AccurateRip database.
Statistics
Read error : 0
Skipped (treated as error) : 0
Edge jitter error (maybe fixed) : 0
Atom jitter error (maybe fixed) : 0
Drift error (maybe fixed) : 0
Dropped bytes error (maybe fixed) : 0
Duplicated bytes error (maybe fixed) : 0
Inconsistency in error sectors : 0
Track 03
CRC32 hash : 0C6FB7BB
CRC32 hash (skip zero) : FEB26083
AccurateRip signature : 1EB66356
->Track not present in AccurateRip database.
Statistics
Read error : 0
Skipped (treated as error) : 0
Edge jitter error (maybe fixed) : 0
Atom jitter error (maybe fixed) : 0
Drift error (maybe fixed) : 0
Dropped bytes error (maybe fixed) : 0
Duplicated bytes error (maybe fixed) : 0
Inconsistency in error sectors : 0
Track 04
CRC32 hash : 818F8183
CRC32 hash (skip zero) : 02135E75
AccurateRip signature : 0C9BFE99
->Track not present in AccurateRip database.
Statistics
Read error : 0
Skipped (treated as error) : 0
Edge jitter error (maybe fixed) : 0
Atom jitter error (maybe fixed) : 0
Drift error (maybe fixed) : 0
Dropped bytes error (maybe fixed) : 0
Duplicated bytes error (maybe fixed) : 0
Inconsistency in error sectors : 0
Track 05
CRC32 hash : 63055F36
CRC32 hash (skip zero) : C0723759
AccurateRip signature : FC0867EB
->Track not present in AccurateRip database.
Statistics
Read error : 0
Skipped (treated as error) : 0
Edge jitter error (maybe fixed) : 0
Atom jitter error (maybe fixed) : 0
Drift error (maybe fixed) : 0
Dropped bytes error (maybe fixed) : 0
Duplicated bytes error (maybe fixed) : 0
Inconsistency in error sectors : 0
Track 06
CRC32 hash : 7AA3CD5F
CRC32 hash (skip zero) : 12D45600
AccurateRip signature : 53CD2B68
->Track not present in AccurateRip database.
Statistics
Read error : 0
Skipped (treated as error) : 0
Edge jitter error (maybe fixed) : 0
Atom jitter error (maybe fixed) : 0
Drift error (maybe fixed) : 0
Dropped bytes error (maybe fixed) : 0
Duplicated bytes error (maybe fixed) : 0
Inconsistency in error sectors : 0
Track 07
CRC32 hash : C0C7B4B3
CRC32 hash (skip zero) : F9FE452E
AccurateRip signature : 1D3D3ADD
->Track not present in AccurateRip database.
Statistics
Read error : 0
Skipped (treated as error) : 0
Edge jitter error (maybe fixed) : 0
Atom jitter error (maybe fixed) : 0
Drift error (maybe fixed) : 0
Dropped bytes error (maybe fixed) : 0
Duplicated bytes error (maybe fixed) : 0
Inconsistency in error sectors : 0
Track 08
CRC32 hash : 137A6F92
CRC32 hash (skip zero) : 55B9686C
AccurateRip signature : A4E046BC
->Track not present in AccurateRip database.
Statistics
Read error : 0
Skipped (treated as error) : 0
Edge jitter error (maybe fixed) : 0
Atom jitter error (maybe fixed) : 0
Drift error (maybe fixed) : 0
Dropped bytes error (maybe fixed) : 0
Duplicated bytes error (maybe fixed) : 0
Inconsistency in error sectors : 0
Track 09
CRC32 hash : 78593C74
CRC32 hash (skip zero) : FCE609A2
AccurateRip signature : 026E7E5A
->Track not present in AccurateRip database.
Statistics
Read error : 0
Skipped (treated as error) : 0
Edge jitter error (maybe fixed) : 0
Atom jitter error (maybe fixed) : 0
Drift error (maybe fixed) : 0
Dropped bytes error (maybe fixed) : 0
Duplicated bytes error (maybe fixed) : 0
Inconsistency in error sectors : 0
Track 10
CRC32 hash : ACABB847
CRC32 hash (skip zero) : 3A0A2D62
AccurateRip signature : 40766815
->Track not present in AccurateRip database.
Statistics
Read error : 0
Skipped (treated as error) : 0
Edge jitter error (maybe fixed) : 0
Atom jitter error (maybe fixed) : 0
Drift error (maybe fixed) : 0
Dropped bytes error (maybe fixed) : 0
Duplicated bytes error (maybe fixed) : 0
Inconsistency in error sectors : 0
No errors occurred
End of status report
CD 5
X Lossless Decoder version 20080907 (86.0)
XLD extraction logfile from 2008-09-07 15:21:09 +1000
Paul Badura-Skoda / A Man and His Music CD5, Paul Badura-Skoda
Used drive : PIONEER DVD-RW DVR-215 (revision 1.19)
Use cdparanoia mode : YES
Disable audio cache : YES
Read offset correction : 48
Max retry count : 100
TOC of the extracted CD
Track | Start | Length | Start sector | End sector
---------------------------------------------------------
1 | 00:00:00 | 07:51:72 | 0 | 35396
2 | 07:51:72 | 07:16:16 | 35397 | 68112
3 | 15:08:13 | 04:55:54 | 68113 | 90291
4 | 20:03:67 | 10:08:12 | 90292 | 135903
5 | 30:12:04 | 11:06:63 | 135904 | 185916
6 | 41:18:67 | 03:35:16 | 185917 | 202057
7 | 44:54:08 | 06:54:04 | 202058 | 233111
8 | 51:48:12 | 06:26:28 | 233112 | 262089
All Tracks
Filename : /Users/xxxxx/Uploads/A Man and His Music CD5, Paul Badura-Skoda/CD/A Man and His Music CD5, Paul Badura-Skoda.flac
CRC32 hash : C7AF82C6
CRC32 hash (skip zero) : 11B521A9
Statistics
Read error : 0
Skipped (treated as error) : 0
Edge jitter error (maybe fixed) : 0
Atom jitter error (maybe fixed) : 0
Drift error (maybe fixed) : 0
Dropped bytes error (maybe fixed) : 0
Duplicated bytes error (maybe fixed) : 0
Inconsistency in error sectors : 0
Track 01
CRC32 hash : ED24D447
CRC32 hash (skip zero) : A9E83C79
AccurateRip signature : 4CFFE78B
->Track not present in AccurateRip database.
Statistics
Read error : 0
Skipped (treated as error) : 0
Edge jitter error (maybe fixed) : 0
Atom jitter error (maybe fixed) : 0
Drift error (maybe fixed) : 0
Dropped bytes error (maybe fixed) : 0
Duplicated bytes error (maybe fixed) : 0
Inconsistency in error sectors : 0
Track 02
CRC32 hash : CD6775D6
CRC32 hash (skip zero) : 9555BFB5
AccurateRip signature : 329E0B49
->Track not present in AccurateRip database.
Statistics
Read error : 0
Skipped (treated as error) : 0
Edge jitter error (maybe fixed) : 0
Atom jitter error (maybe fixed) : 0
Drift error (maybe fixed) : 0
Dropped bytes error (maybe fixed) : 0
Duplicated bytes error (maybe fixed) : 0
Inconsistency in error sectors : 0
Track 03
CRC32 hash : 22D1B465
CRC32 hash (skip zero) : A406B7D2
AccurateRip signature : 4F3F3664
->Track not present in AccurateRip database.
Statistics
Read error : 0
Skipped (treated as error) : 0
Edge jitter error (maybe fixed) : 0
Atom jitter error (maybe fixed) : 0
Drift error (maybe fixed) : 0
Dropped bytes error (maybe fixed) : 0
Duplicated bytes error (maybe fixed) : 0
Inconsistency in error sectors : 0
Track 04
CRC32 hash : CD908BFC
CRC32 hash (skip zero) : 19BB0985
AccurateRip signature : 45D00958
->Track not present in AccurateRip database.
Statistics
Read error : 0
Skipped (treated as error) : 0
Edge jitter error (maybe fixed) : 0
Atom jitter error (maybe fixed) : 0
Drift error (maybe fixed) : 0
Dropped bytes error (maybe fixed) : 0
Duplicated bytes error (maybe fixed) : 0
Inconsistency in error sectors : 0
Track 05
CRC32 hash : 5C7FE848
CRC32 hash (skip zero) : 90923F01
AccurateRip signature : FABF8B17
->Track not present in AccurateRip database.
Statistics
Read error : 0
Skipped (treated as error) : 0
Edge jitter error (maybe fixed) : 0
Atom jitter error (maybe fixed) : 0
Drift error (maybe fixed) : 0
Dropped bytes error (maybe fixed) : 0
Duplicated bytes error (maybe fixed) : 0
Inconsistency in error sectors : 0
Track 06
CRC32 hash : 28C939C2
CRC32 hash (skip zero) : 2AFA50BB
AccurateRip signature : 0E28A768
->Track not present in AccurateRip database.
Statistics
Read error : 0
Skipped (treated as error) : 0
Edge jitter error (maybe fixed) : 0
Atom jitter error (maybe fixed) : 0
Drift error (maybe fixed) : 0
Dropped bytes error (maybe fixed) : 0
Duplicated bytes error (maybe fixed) : 0
Inconsistency in error sectors : 0
Track 07
CRC32 hash : 03F6DEDE
CRC32 hash (skip zero) : 66562BF4
AccurateRip signature : 1B5B882E
->Track not present in AccurateRip database.
Statistics
Read error : 0
Skipped (treated as error) : 0
Edge jitter error (maybe fixed) : 0
Atom jitter error (maybe fixed) : 0
Drift error (maybe fixed) : 0
Dropped bytes error (maybe fixed) : 0
Duplicated bytes error (maybe fixed) : 0
Inconsistency in error sectors : 0
Track 08
CRC32 hash : 4F1FE45C
CRC32 hash (skip zero) : 91E1E43F
AccurateRip signature : E27F1F31
->Track not present in AccurateRip database.
Statistics
Read error : 0
Skipped (treated as error) : 0
Edge jitter error (maybe fixed) : 0
Atom jitter error (maybe fixed) : 0
Drift error (maybe fixed) : 0
Dropped bytes error (maybe fixed) : 0
Duplicated bytes error (maybe fixed) : 0
Inconsistency in error sectors : 0
No errors occurred
End of status report
CD 6
X Lossless Decoder version 20080907 (86.0)
XLD extraction logfile from 2008-09-09 14:58:24 +1000
Paul Badura-Skoda / A Man and His Music CD6, Paul Badura-Skoda
Used drive : MATSHITA DVD-R UJ-875 (revision DB09)
Use cdparanoia mode : YES
Disable audio cache : YES
Read offset correction : 102
Max retry count : 100
TOC of the extracted CD
Track | Start | Length | Start sector | End sector
---------------------------------------------------------
1 | 00:00:00 | 03:45:01 | 0 | 16875
2 | 03:45:01 | 05:06:52 | 16876 | 39877
3 | 08:51:53 | 03:27:52 | 39878 | 55454
4 | 12:19:30 | 05:01:67 | 55455 | 78096
5 | 17:21:22 | 10:13:19 | 78097 | 124090
6 | 27:34:41 | 12:19:26 | 124091 | 179541
7 | 39:53:67 | 06:41:59 | 179542 | 209675
8 | 46:35:51 | 06:07:47 | 209676 | 237247
9 | 52:43:23 | 02:59:49 | 237248 | 250721
10 | 55:42:72 | 02:27:23 | 250722 | 261769
11 | 58:10:20 | 09:41:58 | 261770 | 305402
12 | 67:52:03 | 10:31:28 | 305403 | 352755
All Tracks
Filename : /Users/xxxxx/Uploads/A Man and His Music CD6, Paul Badura-Skoda/CD/A Man and His Music CD6, Paul Badura-Skoda.flac
CRC32 hash : 2F27C549
CRC32 hash (skip zero) : 27A2898F
Statistics
Read error : 0
Skipped (treated as error) : 0
Edge jitter error (maybe fixed) : 0
Atom jitter error (maybe fixed) : 0
Drift error (maybe fixed) : 0
Dropped bytes error (maybe fixed) : 0
Duplicated bytes error (maybe fixed) : 0
Inconsistency in error sectors : 0
Track 01
CRC32 hash : 8E1E8654
CRC32 hash (skip zero) : 064944DA
AccurateRip signature : 345EF424
->Track not present in AccurateRip database.
Statistics
Read error : 0
Skipped (treated as error) : 0
Edge jitter error (maybe fixed) : 0
Atom jitter error (maybe fixed) : 0
Drift error (maybe fixed) : 0
Dropped bytes error (maybe fixed) : 0
Duplicated bytes error (maybe fixed) : 0
Inconsistency in error sectors : 0
Track 02
CRC32 hash : 586B3F58
CRC32 hash (skip zero) : 98A3D2FC
AccurateRip signature : 7372BE25
->Track not present in AccurateRip database.
Statistics
Read error : 0
Skipped (treated as error) : 0
Edge jitter error (maybe fixed) : 0
Atom jitter error (maybe fixed) : 0
Drift error (maybe fixed) : 0
Dropped bytes error (maybe fixed) : 0
Duplicated bytes error (maybe fixed) : 0
Inconsistency in error sectors : 0
Track 03
CRC32 hash : A9EF47A4
CRC32 hash (skip zero) : C1B61312
AccurateRip signature : F1631EA9
->Track not present in AccurateRip database.
Statistics
Read error : 0
Skipped (treated as error) : 0
Edge jitter error (maybe fixed) : 0
Atom jitter error (maybe fixed) : 0
Drift error (maybe fixed) : 0
Dropped bytes error (maybe fixed) : 0
Duplicated bytes error (maybe fixed) : 0
Inconsistency in error sectors : 0
Track 04
CRC32 hash : 6B08DC2D
CRC32 hash (skip zero) : 9397E1A4
AccurateRip signature : 33EB148F
->Track not present in AccurateRip database.
Statistics
Read error : 0
Skipped (treated as error) : 0
Edge jitter error (maybe fixed) : 0
Atom jitter error (maybe fixed) : 0
Drift error (maybe fixed) : 0
Dropped bytes error (maybe fixed) : 0
Duplicated bytes error (maybe fixed) : 0
Inconsistency in error sectors : 0
Track 05
CRC32 hash : 44C24C50
CRC32 hash (skip zero) : A2DD7FA1
AccurateRip signature : 71108C1D
->Track not present in AccurateRip database.
Statistics
Read error : 0
Skipped (treated as error) : 0
Edge jitter error (maybe fixed) : 0
Atom jitter error (maybe fixed) : 0
Drift error (maybe fixed) : 0
Dropped bytes error (maybe fixed) : 0
Duplicated bytes error (maybe fixed) : 0
Inconsistency in error sectors : 0
Track 06
CRC32 hash : 9D546C33
CRC32 hash (skip zero) : F310C56C
AccurateRip signature : DA0DE4FC
->Track not present in AccurateRip database.
Statistics
Read error : 0
Skipped (treated as error) : 0
Edge jitter error (maybe fixed) : 0
Atom jitter error (maybe fixed) : 0
Drift error (maybe fixed) : 0
Dropped bytes error (maybe fixed) : 0
Duplicated bytes error (maybe fixed) : 0
Inconsistency in error sectors : 0
Track 07
CRC32 hash : 46172BC5
CRC32 hash (skip zero) : 96EA4561
AccurateRip signature : F296E1E9
->Track not present in AccurateRip database.
Statistics
Read error : 0
Skipped (treated as error) : 0
Edge jitter error (maybe fixed) : 0
Atom jitter error (maybe fixed) : 0
Drift error (maybe fixed) : 0
Dropped bytes error (maybe fixed) : 0
Duplicated bytes error (maybe fixed) : 0
Inconsistency in error sectors : 0
Track 08
CRC32 hash : 617FD43B
CRC32 hash (skip zero) : D1A5F4D4
AccurateRip signature : B684FBC4
->Track not present in AccurateRip database.
Statistics
Read error : 0
Skipped (treated as error) : 0
Edge jitter error (maybe fixed) : 0
Atom jitter error (maybe fixed) : 0
Drift error (maybe fixed) : 0
Dropped bytes error (maybe fixed) : 0
Duplicated bytes error (maybe fixed) : 0
Inconsistency in error sectors : 0
Track 09
CRC32 hash : AA3D485E
CRC32 hash (skip zero) : 04CB07E0
AccurateRip signature : FE1DF569
->Track not present in AccurateRip database.
Statistics
Read error : 0
Skipped (treated as error) : 0
Edge jitter error (maybe fixed) : 0
Atom jitter error (maybe fixed) : 0
Drift error (maybe fixed) : 0
Dropped bytes error (maybe fixed) : 0
Duplicated bytes error (maybe fixed) : 0
Inconsistency in error sectors : 0
Track 10
CRC32 hash : FEB053A4
CRC32 hash (skip zero) : 0FD60082
AccurateRip signature : 9BD10713
->Track not present in AccurateRip database.
Statistics
Read error : 0
Skipped (treated as error) : 0
Edge jitter error (maybe fixed) : 0
Atom jitter error (maybe fixed) : 0
Drift error (maybe fixed) : 0
Dropped bytes error (maybe fixed) : 0
Duplicated bytes error (maybe fixed) : 0
Inconsistency in error sectors : 0
Track 11
CRC32 hash : 900587AB
CRC32 hash (skip zero) : 97E09595
AccurateRip signature : E20A7C82
->Track not present in AccurateRip database.
Statistics
Read error : 0
Skipped (treated as error) : 0
Edge jitter error (maybe fixed) : 0
Atom jitter error (maybe fixed) : 0
Drift error (maybe fixed) : 0
Dropped bytes error (maybe fixed) : 0
Duplicated bytes error (maybe fixed) : 0
Inconsistency in error sectors : 0
Track 12
CRC32 hash : 002F6F82
CRC32 hash (skip zero) : 85F87DCA
AccurateRip signature : 745EB397
->Track not present in AccurateRip database.
Statistics
Read error : 0
Skipped (treated as error) : 0
Edge jitter error (maybe fixed) : 0
Atom jitter error (maybe fixed) : 0
Drift error (maybe fixed) : 0
Dropped bytes error (maybe fixed) : 0
Duplicated bytes error (maybe fixed) : 0
Inconsistency in error sectors : 0
No errors occurred
End of status report
CD 7
X Lossless Decoder version 20080907 (86.0)
XLD extraction logfile from 2008-09-09 15:36:35 +1000
Paul Badura-Skoda / A Man and His Music CD7, Paul Badura-Skoda
Used drive : MATSHITA DVD-R UJ-875 (revision DB09)
Use cdparanoia mode : YES
Disable audio cache : YES
Read offset correction : 102
Max retry count : 100
TOC of the extracted CD
Track | Start | Length | Start sector | End sector
---------------------------------------------------------
1 | 00:00:00 | 08:04:72 | 0 | 36371
2 | 08:04:72 | 11:57:15 | 36372 | 90161
3 | 20:02:12 | 07:21:03 | 90162 | 123239
4 | 27:23:15 | 05:39:54 | 123240 | 148718
5 | 33:02:69 | 02:05:04 | 148719 | 158097
6 | 35:07:73 | 05:13:07 | 158098 | 181579
7 | 40:21:05 | 03:27:29 | 181580 | 197133
8 | 43:48:34 | 02:29:41 | 197134 | 208349
9 | 46:18:00 | 03:30:40 | 208350 | 224139
10 | 49:48:40 | 04:56:55 | 224140 | 246394
11 | 54:45:20 | 05:59:25 | 246395 | 273344
12 | 60:44:45 | 05:15:47 | 273345 | 297016
13 | 66:00:17 | 09:22:43 | 297017 | 339209
All Tracks
Filename : /Users/xxxxx/Uploads/A Man and His Music CD7, Paul Badura-Skoda/CD/A Man and His Music CD7, Paul Badura-Skoda.flac
CRC32 hash : 78D16B35
CRC32 hash (skip zero) : F8B6FFC8
Statistics
Read error : 0
Skipped (treated as error) : 0
Edge jitter error (maybe fixed) : 0
Atom jitter error (maybe fixed) : 0
Drift error (maybe fixed) : 0
Dropped bytes error (maybe fixed) : 0
Duplicated bytes error (maybe fixed) : 0
Inconsistency in error sectors : 0
Track 01
CRC32 hash : 34569E62
CRC32 hash (skip zero) : 2C10FD01
AccurateRip signature : 684F4E91
->Track not present in AccurateRip database.
Statistics
Read error : 0
Skipped (treated as error) : 0
Edge jitter error (maybe fixed) : 0
Atom jitter error (maybe fixed) : 0
Drift error (maybe fixed) : 0
Dropped bytes error (maybe fixed) : 0
Duplicated bytes error (maybe fixed) : 0
Inconsistency in error sectors : 0
Track 02
CRC32 hash : B98F2AA9
CRC32 hash (skip zero) : 3A85A953
AccurateRip signature : 51A8A27A
->Track not present in AccurateRip database.
Statistics
Read error : 0
Skipped (treated as error) : 0
Edge jitter error (maybe fixed) : 0
Atom jitter error (maybe fixed) : 0
Drift error (maybe fixed) : 0
Dropped bytes error (maybe fixed) : 0
Duplicated bytes error (maybe fixed) : 0
Inconsistency in error sectors : 0
Track 03
CRC32 hash : F293BF7D
CRC32 hash (skip zero) : 8C3F9014
AccurateRip signature : 84F5A155
->Track not present in AccurateRip database.
Statistics
Read error : 0
Skipped (treated as error) : 0
Edge jitter error (maybe fixed) : 0
Atom jitter error (maybe fixed) : 0
Drift error (maybe fixed) : 0
Dropped bytes error (maybe fixed) : 0
Duplicated bytes error (maybe fixed) : 0
Inconsistency in error sectors : 0
Track 04
CRC32 hash : 5FA932A5
CRC32 hash (skip zero) : CA091401
AccurateRip signature : C3DE05F8
->Track not present in AccurateRip database.
Statistics
Read error : 0
Skipped (treated as error) : 0
Edge jitter error (maybe fixed) : 0
Atom jitter error (maybe fixed) : 0
Drift error (maybe fixed) : 0
Dropped bytes error (maybe fixed) : 0
Duplicated bytes error (maybe fixed) : 0
Inconsistency in error sectors : 0
Track 05
CRC32 hash : 3580A9D8
CRC32 hash (skip zero) : 5352CD81
AccurateRip signature : F7771984
->Track not present in AccurateRip database.
Statistics
Read error : 0
Skipped (treated as error) : 0
Edge jitter error (maybe fixed) : 0
Atom jitter error (maybe fixed) : 0
Drift error (maybe fixed) : 0
Dropped bytes error (maybe fixed) : 0
Duplicated bytes error (maybe fixed) : 0
Inconsistency in error sectors : 0
Track 06
CRC32 hash : B2E9F8FA
CRC32 hash (skip zero) : 783074E6
AccurateRip signature : 81E6EA1B
->Track not present in AccurateRip database.
Statistics
Read error : 0
Skipped (treated as error) : 0
Edge jitter error (maybe fixed) : 0
Atom jitter error (maybe fixed) : 0
Drift error (maybe fixed) : 0
Dropped bytes error (maybe fixed) : 0
Duplicated bytes error (maybe fixed) : 0
Inconsistency in error sectors : 0
Track 07
CRC32 hash : 2524FAE2
CRC32 hash (skip zero) : F7649391
AccurateRip signature : E6D99419
->Track not present in AccurateRip database.
Statistics
Read error : 0
Skipped (treated as error) : 0
Edge jitter error (maybe fixed) : 0
Atom jitter error (maybe fixed) : 0
Drift error (maybe fixed) : 0
Dropped bytes error (maybe fixed) : 0
Duplicated bytes error (maybe fixed) : 0
Inconsistency in error sectors : 0
Track 08
CRC32 hash : D1499CD9
CRC32 hash (skip zero) : 855135C3
AccurateRip signature : 429DF70C
->Track not present in AccurateRip database.
Statistics
Read error : 0
Skipped (treated as error) : 0
Edge jitter error (maybe fixed) : 0
Atom jitter error (maybe fixed) : 0
Drift error (maybe fixed) : 0
Dropped bytes error (maybe fixed) : 0
Duplicated bytes error (maybe fixed) : 0
Inconsistency in error sectors : 0
Track 09
CRC32 hash : 427DB879
CRC32 hash (skip zero) : 2F45FB0B
AccurateRip signature : 95EE07D9
->Track not present in AccurateRip database.
Statistics
Read error : 0
Skipped (treated as error) : 0
Edge jitter error (maybe fixed) : 0
Atom jitter error (maybe fixed) : 0
Drift error (maybe fixed) : 0
Dropped bytes error (maybe fixed) : 0
Duplicated bytes error (maybe fixed) : 0
Inconsistency in error sectors : 0
Track 10
CRC32 hash : F55D9E3F
CRC32 hash (skip zero) : EF706B16
AccurateRip signature : 5E234D96
->Track not present in AccurateRip database.
Statistics
Read error : 0
Skipped (treated as error) : 0
Edge jitter error (maybe fixed) : 0
Atom jitter error (maybe fixed) : 0
Drift error (maybe fixed) : 0
Dropped bytes error (maybe fixed) : 0
Duplicated bytes error (maybe fixed) : 0
Inconsistency in error sectors : 0
Track 11
CRC32 hash : EC0A1316
CRC32 hash (skip zero) : 9D6889F2
AccurateRip signature : 7B424939
->Track not present in AccurateRip database.
Statistics
Read error : 0
Skipped (treated as error) : 0
Edge jitter error (maybe fixed) : 0
Atom jitter error (maybe fixed) : 0
Drift error (maybe fixed) : 0
Dropped bytes error (maybe fixed) : 0
Duplicated bytes error (maybe fixed) : 0
Inconsistency in error sectors : 0
Track 12
CRC32 hash : 9C39015C
CRC32 hash (skip zero) : A6F6DDA6
AccurateRip signature : A616A123
->Track not present in AccurateRip database.
Statistics
Read error : 0
Skipped (treated as error) : 0
Edge jitter error (maybe fixed) : 0
Atom jitter error (maybe fixed) : 0
Drift error (maybe fixed) : 0
Dropped bytes error (maybe fixed) : 0
Duplicated bytes error (maybe fixed) : 0
Inconsistency in error sectors : 0
Track 13
CRC32 hash : 640349B2
CRC32 hash (skip zero) : B9EE281C
AccurateRip signature : 517DE9EC
->Track not present in AccurateRip database.
Statistics
Read error : 0
Skipped (treated as error) : 0
Edge jitter error (maybe fixed) : 0
Atom jitter error (maybe fixed) : 0
Drift error (maybe fixed) : 0
Dropped bytes error (maybe fixed) : 0
Duplicated bytes error (maybe fixed) : 0
Inconsistency in error sectors : 0
No errors occurred
End of status report
Download
Для скачивания .torrent файлов необходима регистрация
Сайт не распространяет и не хранит электронные версии произведений, а лишь предоставляет доступ к создаваемому пользователями каталогу ссылок на торрент-файлы, которые содержат только списки хеш-сумм
[Профиль]  [ЛС] 

logaber

Стаж: 10 лет 9 месяцев

Сообщений: 1721

logaber · 14-Фев-10 13:42 (спустя 41 мин., ред. 14-Фев-10 13:42)

[Цитировать] 

Paul Badura-Skoda:
[Профиль]  [ЛС] 

GFox

Стаж: 11 лет 7 месяцев

Сообщений: 15076

GFox · 15-Фев-10 22:56 (спустя 1 день 9 часов)

[Цитировать] 

logaber
Описание на английском языке, пожалуйста, замените на русское или уберите совсем.
Треклист каждого диска уберите под отдельный спойлер.
[Профиль]  [ЛС] 
 
Тема закрыта
Loading...
Error