(Reggae) VA - Русский Реггей (Первый) - 1996, FLAC (image+.cue), lossless

Страницы:  1

Ответить
Автор
Сообщение

Rockwall

Стаж: 9 лет 7 месяцев

Сообщений: 12

Rockwall · 22-Янв-10 23:29 (8 лет 10 месяцев назад, ред. 22-Авг-13 20:37)

VA - Русский Реггей (Первый)
Жанр: Reggae
Год выпуска диска: 1996
Производитель диска: Россия
Аудио кодек: FLAC
Тип рипа: image+.cue
Битрейт аудио: lossless
Продолжительность: 01:05:44
Трэклист:
01. Джа Дивижн - Кубана (3.51)
02. Остров - Корабли (4.12)
03. Раста Оркестр - Река Любви Растафари (6.21)
04. Карибасы - Минано (4.33)
05. Амударья - Денежки в кармашке (4.04)
06. Лёша Будилов - Маривана (4.19)
07. Братья Сердцееды - Звери (2.56)
08. К.Ундров - Баба Баржа (3.47)
09. Нужда - Иван с Андрианом (2.50)
10. Джа Дивижн - Ганьджа (5.30)
11. Остров - Львица (4.55)
12. Jah Torch - Crazy World (5.16)
13. Оля "Индия" - Сказка (4.18)
14. А.Богачев - Вопросы к страннику (5.57)
15. Дим Дим и Макс - Ocean Dub (2.23)
Отчёт EAC
Exact Audio Copy V0.99 prebeta 5 from 4. May 2009
Отчёт EAC об извлечении, выполненном 22. января 2010, 19:58
Various / Русский Реггей
Дисковод: ASUS CRW-5224A Adapter: 0 ID: 0
Режим чтения : Достоверность
Использование точного потока : Да
Отключение кэша аудио : Да
Использование указателей C2 : Нет
Коррекция смещения при чтении : 6
Способность читать области Lead-in и Lead-out : Нет
Заполнение пропущенных сэмплов тишиной : Да
Удаление блоков с тишиной в начале и конце : Нет
При вычислениях CRC использовались нулевые сэмплы : Да
Интерфейс : Встроенный Win32-интерфейс для Win NT/2000
Выходной формат : Пользовательский кодировщик
Выбранный битрейт : 896 kBit/s
Качество : Высокий
Добавление ID3-тэга : Нет
Утилита сжатия : C:\Program Files\Exact Audio Copy\Flac\flac.exe
Дополнительные параметры : -T "DATE=%y" -T "GENRE=%m" -8 -V %s
TOC извлечённого CD
Трек | Старт | Длительность | Начальный сектор | Конечный сектор
---------------------------------------------------------------------
1 | 0:00.00 | 3:52.42 | 0 | 17441
2 | 3:52.42 | 4:13.54 | 17442 | 36470
3 | 8:06.21 | 6:23.28 | 36471 | 65223
4 | 14:29.49 | 4:35.27 | 65224 | 85875
5 | 19:05.01 | 4:06.02 | 85876 | 104327
6 | 23:11.03 | 4:21.50 | 104328 | 123952
7 | 27:32.53 | 2:59.14 | 123953 | 137391
8 | 30:31.67 | 3:50.39 | 137392 | 154680
9 | 34:22.31 | 2:52.40 | 154681 | 167620
10 | 37:14.71 | 5:32.64 | 167621 | 192584
11 | 42:47.60 | 4:57.20 | 192585 | 214879
12 | 47:45.05 | 5:18.15 | 214880 | 238744
13 | 53:03.20 | 4:19.38 | 238745 | 258207
14 | 57:22.58 | 5:58.46 | 258208 | 285103
15 | 63:21.29 | 2:23.35 | 285104 | 295863
Характеристики диапазона извлечения и сообщения об ошибках
Выбранный диапазон
Имя файла D:\Music\РусРок\V.A Русский Реггей . Первый\Various - Русский Реггей.wav
Пиковый уровень 100.0 %
Качество диапазона 100.0 %
CRC копии 9FE2EDBB
Копирование... OK
Ошибок не произошло
AccurateRip: сводка
Трек 1 нет в базе данных
Трек 2 нет в базе данных
Трек 3 нет в базе данных
Трек 4 нет в базе данных
Трек 5 нет в базе данных
Трек 6 нет в базе данных
Трек 7 нет в базе данных
Трек 8 нет в базе данных
Трек 9 нет в базе данных
Трек 10 нет в базе данных
Трек 11 нет в базе данных
Трек 12 нет в базе данных
Трек 13 нет в базе данных
Трек 14 нет в базе данных
Трек 15 нет в базе данных
Ни одного трека нет в базе AccurateRip
Конец отчёта
Download
Для скачивания .torrent файлов необходима регистрация
Сайт не распространяет и не хранит электронные версии произведений, а лишь предоставляет доступ к создаваемому пользователями каталогу ссылок на торрент-файлы, которые содержат только списки хеш-сумм
[Профиль]  [ЛС] 

tatuk

Стаж: 11 лет 8 месяцев

Сообщений: 2156

tatuk · 28-Июл-10 06:25 (спустя 6 месяцев, ред. 28-Июл-10 06:25)

[Цитировать] 

Насколько помню, был ещё шестой трэк - Лёша Будилов пел песню "Мариванна", частично на стихи Маяковского...
Лёша умер пятнадцать лет назад.
R.I.P.
Давайте уберём его из всех трэклистов?...
[Профиль]  [ЛС] 

Rockwall

Стаж: 9 лет 7 месяцев

Сообщений: 12

Rockwall · 28-Июл-10 21:14 (спустя 14 часов)

[Цитировать] 

tatuk
Трэклист исправил.
Спасибо за внимательность.
[Профиль]  [ЛС] 

tatuk

Стаж: 11 лет 8 месяцев

Сообщений: 2156

tatuk · 13-Авг-10 07:19 (спустя 15 дней, ред. 13-Авг-10 07:19)

[Цитировать] 

Rockwall
Спасибо, добряк!
Просто обожаю этот диск.
[Профиль]  [ЛС] 

Rockwall

Стаж: 9 лет 7 месяцев

Сообщений: 12

Rockwall · 13-Авг-10 22:51 (спустя 15 часов)

[Цитировать] 

tatuk писал(а):
Просто обожаю этот диск.
Диск действительно отличный, собственно говоря с этого диска и началось моё знакомство с Русским Реггей.
[Профиль]  [ЛС] 

sema007007

Стаж: 8 лет 7 месяцев

Сообщений: 137

sema007007 · 13-Ноя-11 13:22 (спустя 1 год 2 месяца)

[Цитировать] 

tatuk писал(а):
Насколько помню, был ещё шестой трэк - Лёша Будилов пел песню "Мариванна", частично на стихи Маяковского...
Лёша умер пятнадцать лет назад.
R.I.P.
Давайте уберём его из всех трэклистов?...
много хороших людей умерли Витя Цой, Саша Башлачёв, Джимми Моррисон и много много других.
люди всёравно помнят о них доброе и слушают их ШЕДЕВРЫ. если упоминания стереть .....
[Профиль]  [ЛС] 

tatuk

Стаж: 11 лет 8 месяцев

Сообщений: 2156

tatuk · 27-Дек-11 20:08 (спустя 1 месяц 14 дней)

[Цитировать] 

Ну, много кто умирает в мире.
А если говорить об этом сборнике, то кроме Лёши Будилова ещё и Игорь Кулик (гр. "Остров") умер, 8 лет назад.
[Профиль]  [ЛС] 

hakkamaddafakka

Стаж: 1 год 10 месяцев

Сообщений: 1


hakkamaddafakka · 22-Сен-18 19:09 (спустя 6 лет 8 месяцев)

[Цитировать] 

Я нашел этот альбом.
Спасибо не человеческое
[Профиль]  [ЛС] 
 
Ответить
Loading...
Error