15.11.1989 Utah Jazz - Chicago Bulls (матч регулярного чемпионата NBA) [1989, Баскетбол, VHSRip]

Страницы:  1

Ответить
Автор
Сообщение

S G

VIP (Заслуженный)

Стаж: 9 лет 9 месяцев

Сообщений: 3554

S G · 02-Дек-09 18:14 (8 лет 10 месяцев назад, ред. 02-Дек-09 18:20)

[Цитировать] 

15.11.1989 Utah Jazz - Chicago Bulls
Год выпуска: 1989
Вид спорта: Баскетбол
Участники: Karl Malone, John Stockton, Thurl Bailey, Blue Edwards, Darrell Griffith - Michael Jordan, Scottie Pippen, Horace Grant, Bill Cartwright, John Paxson
Продолжительность: 1ч 47м
Комментарий: Профессиональный (двухголосый)
Язык комментариев: Английский
Качество: VHSRip
Формат: AVI
Видео кодек: XviD
Аудио кодек: MP1
Автор рипа: Pavlov33. Мной вырезаны некоторые неигровые моменты
Видео-Аудио
Видео:
Format : MPEG-4 Visual
Format profile : [email protected]
Format settings, BVOP : Yes
Format settings, QPel : No
Format settings, GMC : No warppoints
Format settings, Matrix : Custom
Codec ID : XVID
Codec ID/Hint : XviD
Duration : 1h 47mn
Bit rate : 1 513 Kbps
Width : 512 pixels
Height : 384 pixels
Display aspect ratio : 4:3
Frame rate : 29.970 fps
Resolution : 24 bits
Colorimetry : 4:2:0
Scan type : Progressive
Bits/(Pixel*Frame) : 0.257
Stream size : 1.13 GiB (87%)
Writing library : XviD 1.2.0.dev47 (UTC 2006-11-01)
Аудио:
Format : MPEG Audio
Format version : Version 1
Format profile : Layer 2
Codec ID : 50
Codec ID/Hint : MP1
Duration : 1h 47mn
Bit rate mode : Constant
Bit rate : 224 Kbps
Channel(s) : 2 channels
Sampling rate : 48.0 KHz
Resolution : 16 bits
Stream size : 172 MiB (13%)
Alignment : Aligned on interleaves
Interleave, duration : 33 ms (1.00 video frame)
Счёт матча и статистика игроков (изображение и ссылка)
Скриншоты
[Профиль]  [ЛС] 

bot · 18-Сен-18 21:47 (спустя 8 лет 9 месяцев)

Тема была перенесена из форума Архив (Баскетбол) в форум NBA / NCAA (до 2000 г.)
chedder_nukakby
 
 
Ответить
Loading...
Error