(Симфоническая музыка) Евгений Мравинский (Evgeni Mravinsky) 12CD (Erato-Warner) (Шостакович, Чайковский, Мусоргский, Глинка, Глазунов, Wagner, Beethoven, Mozart) - 2007, FLAC (tracks+.cue), lossless

Страницы:  1

Ответить
Автор
Сообщение

PANOVNIK

Стаж: 9 лет

Сообщений: 289


PANOVNIK · 04-Ноя-09 21:27 (8 лет 11 месяцев назад, ред. 22-Окт-11 19:00)

Евгений Мравинский (Evgeni Mravinsky) 12CD (Erato-Warner) (Шостакович, Чайковский, Мусоргский, Глинка, Глазунов, Wagner, Beethoven, Mozart)Сделан новый рип. Торрент перезалит - 21.02.2010 Жанр: Симфоническая музыка
Год выпуска диска: 2007
Производитель диска: EU
Аудио кодек: FLAC
Тип рипа: tracks+.cue
Битрейт аудио: lossless
Продолжительность: 12CD
Трэклист:
CD01
1-5. Shostakovich Symphony No.5 in D minor, Op.47
1984/4/4, Grand Hall of Leningrad Philharmonic, Live; RE: Semyon Shugal
CUE CD01
REM GENRE Classical
REM DATE 2007
REM DISCID 1C0A6504
REM COMMENT "ExactAudioCopy v0.99pb5"
PERFORMER "Leningrad Philharmonic Orchestra & Evgeny Mravinsky"
TITLE "Evgeny Mravinsky conducts the Leningrad Philharmonic Orchestra (Disc 1)"
FILE "01 - Shostakovich Symphony No.5 in D minor, Op.47 - I. Moderato.wav" WAVE
TRACK 01 AUDIO
TITLE "Shostakovich Symphony No.5 in D minor, Op.47 - I. Moderato"
PERFORMER "Leningrad Philharmonic Orchestra & Evgeny Mravinsky"
INDEX 01 00:00:00
TRACK 02 AUDIO
TITLE "Shostakovich Symphony No.5 in D minor, Op.47 - II. Allegretto"
PERFORMER "Leningrad Philharmonic Orchestra & Evgeny Mravinsky"
INDEX 00 15:00:55
FILE "02 - Shostakovich Symphony No.5 in D minor, Op.47 - II. Allegretto.wav" WAVE
INDEX 01 00:00:00
TRACK 03 AUDIO
TITLE "Shostakovich Symphony No.5 in D minor, Op.47 - III. Largo"
PERFORMER "Leningrad Philharmonic Orchestra & Evgeny Mravinsky"
INDEX 00 05:09:27
FILE "03 - Shostakovich Symphony No.5 in D minor, Op.47 - III. Largo.wav" WAVE
INDEX 01 00:00:00
TRACK 04 AUDIO
TITLE "Shostakovich Symphony No.5 in D minor, Op.47 - IV. Allegro non troppo"
PERFORMER "Leningrad Philharmonic Orchestra & Evgeny Mravinsky"
INDEX 00 13:08:55
FILE "04 - Shostakovich Symphony No.5 in D minor, Op.47 - IV. Allegro non troppo.wav" WAVE
INDEX 01 00:00:00
Log CD01
Exact Audio Copy V0.99 prebeta 5 from 4. May 2009
EAC extraction logfile from 27. January 2010, 10:41
Leningrad Philharmonic Orchestra & Evgeny Mravinsky / Evgeny Mravinsky conducts the Leningrad Philharmonic Orchestra (Disc 1)
Used drive : PLEXTOR DVDR PX-800A Adapter: 1 ID: 0
Read mode : Secure
Utilize accurate stream : Yes
Defeat audio cache : Yes
Make use of C2 pointers : No
Read offset correction : 48
Overread into Lead-In and Lead-Out : No
Fill up missing offset samples with silence : Yes
Delete leading and trailing silent blocks : No
Null samples used in CRC calculations : No
Used interface : Native Win32 interface for Win NT & 2000
Gap handling : Appended to previous track
Used output format : User Defined Encoder
Selected bitrate : 1024 kBit/s
Quality : High
Add ID3 tag : No
Command line compressor : C:\Program Files\Exact Audio Copy\FLAC\FLAC.EXE
Additional command line options : -6 -V -T "ARTIST=%a" -T "TITLE=%t" -T "ALBUM=%g" -T "DATE=%y" -T "TRACKNUMBER=%n" -T "GENRE=%m" -T "COMMENT=%e" %s -o %d
TOC of the extracted CD
Track | Start | Length | Start sector | End sector
---------------------------------------------------------
1 | 0:00.00 | 15:05.03 | 0 | 67877
2 | 15:05.03 | 5:13.45 | 67878 | 91397
3 | 20:18.48 | 13:12.12 | 91398 | 150809
4 | 33:30.60 | 10:50.65 | 150810 | 199624
Track 1
Filename E:\1111\Evgeni_Mravinsky_Edition.12CD\CD01\01 - Shostakovich Symphony No.5 in D minor, Op.47 - I. Moderato.wav
Pre-gap length 0:00:02.00
Peak level 85.3 %
Track quality 100.0 %
Test CRC DBD24BA6
Copy CRC DBD24BA6
Accurately ripped (confidence 3) [04FBA99F]
Copy OK
Track 2
Filename E:\1111\Evgeni_Mravinsky_Edition.12CD\CD01\02 - Shostakovich Symphony No.5 in D minor, Op.47 - II. Allegretto.wav
Pre-gap length 0:00:04.23
Peak level 81.0 %
Track quality 100.0 %
Test CRC 8B1CCAE3
Copy CRC 8B1CCAE3
Accurately ripped (confidence 3) [3D397DB1]
Copy OK
Track 3
Filename E:\1111\Evgeni_Mravinsky_Edition.12CD\CD01\03 - Shostakovich Symphony No.5 in D minor, Op.47 - III. Largo.wav
Pre-gap length 0:00:04.18
Peak level 71.1 %
Track quality 100.0 %
Test CRC EA28AF5A
Copy CRC EA28AF5A
Accurately ripped (confidence 3) [D7E0FDE0]
Copy OK
Track 4
Filename E:\1111\Evgeni_Mravinsky_Edition.12CD\CD01\04 - Shostakovich Symphony No.5 in D minor, Op.47 - IV. Allegro non troppo.wav
Pre-gap length 0:00:03.32
Peak level 100.0 %
Track quality 99.9 %
Test CRC 3C9894DE
Copy CRC 3C9894DE
Accurately ripped (confidence 4) [EA06F02B]
Copy OK
All tracks accurately ripped
No errors occurred
End of status report
CD02
01 - 04. Shostakovich. Symphony No.10 in E minor op.93
1976/3/3, Grand Hall of Leningrad Philharmonic, Live; RE: Semyon Shugal
CUE CD02
REM GENRE Classical
REM DATE 2007
REM DISCID 280B5704
REM COMMENT "ExactAudioCopy v0.99pb5"
PERFORMER "Leningrad Philharmonic Orchestra & Evgeny Mravinsky"
TITLE "Evgeny Mravinsky conducts the Leningrad Philharmonic Orchestra (Disc 2)"
FILE "01 - Shostakovich Symphony No.10 in E minor, Op.93 - I. Moderato.wav" WAVE
TRACK 01 AUDIO
TITLE "Shostakovich Symphony No.10 in E minor, Op.93 - I. Moderato"
PERFORMER "Leningrad Philharmonic Orchestra & Evgeny Mravinsky"
INDEX 01 00:00:00
TRACK 02 AUDIO
TITLE "Shostakovich Symphony No.10 in E minor, Op.93 - II. Allegro"
PERFORMER "Leningrad Philharmonic Orchestra & Evgeny Mravinsky"
INDEX 00 22:03:50
FILE "02 - Shostakovich Symphony No.10 in E minor, Op.93 - II. Allegro.wav" WAVE
INDEX 01 00:00:00
TRACK 03 AUDIO
TITLE "Shostakovich Symphony No.10 in E minor, Op.93 - III. Allegretto"
PERFORMER "Leningrad Philharmonic Orchestra & Evgeny Mravinsky"
INDEX 00 03:59:00
FILE "03 - Shostakovich Symphony No.10 in E minor, Op.93 - III. Allegretto.wav" WAVE
INDEX 01 00:00:00
TRACK 04 AUDIO
TITLE "Shostakovich Symphony No.10 in E minor, Op.93 - IV. Andante - Allegro"
PERFORMER "Leningrad Philharmonic Orchestra & Evgeny Mravinsky"
INDEX 00 10:56:05
FILE "04 - Shostakovich Symphony No.10 in E minor, Op.93 - IV. Andante - Allegro.wav" WAVE
INDEX 01 00:00:00
Log CD02
Exact Audio Copy V0.99 prebeta 5 from 4. May 2009
EAC extraction logfile from 27. January 2010, 13:19
Leningrad Philharmonic Orchestra & Evgeny Mravinsky / Evgeny Mravinsky conducts the Leningrad Philharmonic Orchestra (Disc 2)
Used drive : PLEXTOR DVDR PX-800A Adapter: 1 ID: 0
Read mode : Secure
Utilize accurate stream : Yes
Defeat audio cache : Yes
Make use of C2 pointers : No
Read offset correction : 48
Overread into Lead-In and Lead-Out : No
Fill up missing offset samples with silence : Yes
Delete leading and trailing silent blocks : No
Null samples used in CRC calculations : No
Used interface : Native Win32 interface for Win NT & 2000
Gap handling : Appended to previous track
Used output format : User Defined Encoder
Selected bitrate : 1024 kBit/s
Quality : High
Add ID3 tag : No
Command line compressor : C:\Program Files\Exact Audio Copy\FLAC\FLAC.EXE
Additional command line options : -6 -V -T "ARTIST=%a" -T "TITLE=%t" -T "ALBUM=%g" -T "DATE=%y" -T "TRACKNUMBER=%n" -T "GENRE=%m" -T "COMMENT=%e" %s -o %d
TOC of the extracted CD
Track | Start | Length | Start sector | End sector
---------------------------------------------------------
1 | 0:00.00 | 22:08.53 | 0 | 99652
2 | 22:08.53 | 4:04.72 | 99653 | 118024
3 | 26:13.50 | 11:01.18 | 118025 | 167617
4 | 37:14.68 | 11:08.74 | 167618 | 217791
Track 1
Filename E:\1111\Evgeni_Mravinsky_Edition.12CD\CD02\01 - Shostakovich Symphony No.10 in E minor, Op.93 - I. Moderato.wav
Pre-gap length 0:00:02.00
Peak level 85.3 %
Track quality 100.0 %
Test CRC AB42AE37
Copy CRC AB42AE37
Accurately ripped (confidence 3) [57E8E71A]
Copy OK
Track 2
Filename E:\1111\Evgeni_Mravinsky_Edition.12CD\CD02\02 - Shostakovich Symphony No.10 in E minor, Op.93 - II. Allegro.wav
Pre-gap length 0:00:05.03
Peak level 85.9 %
Track quality 100.0 %
Test CRC 0B950EEE
Copy CRC 0B950EEE
Accurately ripped (confidence 3) [65F4862C]
Copy OK
Track 3
Filename E:\1111\Evgeni_Mravinsky_Edition.12CD\CD02\03 - Shostakovich Symphony No.10 in E minor, Op.93 - III. Allegretto.wav
Pre-gap length 0:00:05.72
Peak level 85.2 %
Track quality 100.0 %
Test CRC 9D861522
Copy CRC 9D861522
Accurately ripped (confidence 3) [2A7020DE]
Copy OK
Track 4
Filename E:\1111\Evgeni_Mravinsky_Edition.12CD\CD02\04 - Shostakovich Symphony No.10 in E minor, Op.93 - IV. Andante - Allegro.wav
Pre-gap length 0:00:05.13
Peak level 91.9 %
Track quality 100.0 %
Test CRC 9087E055
Copy CRC 9087E055
Accurately ripped (confidence 3) [2503368E]
Copy OK
All tracks accurately ripped
No errors occurred
End of status report
CD03
01 - 04. Shostakovich. Symphony No.12 in D minor op.112 '1917'
1984/4/29 or 30, Grand Hall of Leningrad Philharmonic, Live; RE: Semyon Shugal
MRAVINSKY'S LAST RECORDING
CUE CD03
REM GENRE Classical
REM DATE 2007
REM DISCID 32090804
REM COMMENT "ExactAudioCopy v0.99pb5"
PERFORMER "Leningrad Philharmonic Orchestra & Evgeny Mravinsky"
TITLE "Evgeny Mravinsky conducts the Leningrad Philharmonic Orchestra (Disc 3)"
FILE "01 - Shostakovich Symphony No.12 in D minor, Op.112 'The Year 1917' - I. Revolutionary Petrograd.wav" WAVE
TRACK 01 AUDIO
TITLE "Shostakovich Symphony No.12 in D minor, Op.112 'The Year 1917' - I. Revolutio..."
PERFORMER "Leningrad Philharmonic Orchestra & Evgeny Mravinsky"
INDEX 01 00:00:00
FILE "02 - Shostakovich Symphony No.12 in D minor, Op.112 'The Year 1917' - II. Razliv.wav" WAVE
TRACK 02 AUDIO
TITLE "Shostakovich Symphony No.12 in D minor, Op.112 'The Year 1917' - II. Razliv"
PERFORMER "Leningrad Philharmonic Orchestra & Evgeny Mravinsky"
INDEX 01 00:00:00
FILE "03 - Shostakovich Symphony No.12 in D minor, Op.112 'The Year 1917' - III. Aurora.wav" WAVE
TRACK 03 AUDIO
TITLE "Shostakovich Symphony No.12 in D minor, Op.112 'The Year 1917' - III. Aurora"
PERFORMER "Leningrad Philharmonic Orchestra & Evgeny Mravinsky"
INDEX 01 00:00:00
FILE "04 - Shostakovich Symphony No.12 in D minor, Op.112 'The Year 1917' - IV. The dawn of humanity.wav" WAVE
TRACK 04 AUDIO
TITLE "Shostakovich Symphony No.12 in D minor, Op.112 'The Year 1917' - IV. The dawn..."
PERFORMER "Leningrad Philharmonic Orchestra & Evgeny Mravinsky"
INDEX 01 00:00:00
Log CD03
Exact Audio Copy V0.99 prebeta 5 from 4. May 2009
EAC extraction logfile from 27. January 2010, 13:36
Leningrad Philharmonic Orchestra & Evgeny Mravinsky / Evgeny Mravinsky conducts the Leningrad Philharmonic Orchestra (Disc 3)
Used drive : PLEXTOR DVDR PX-800A Adapter: 1 ID: 0
Read mode : Secure
Utilize accurate stream : Yes
Defeat audio cache : Yes
Make use of C2 pointers : No
Read offset correction : 48
Overread into Lead-In and Lead-Out : No
Fill up missing offset samples with silence : Yes
Delete leading and trailing silent blocks : No
Null samples used in CRC calculations : No
Used interface : Native Win32 interface for Win NT & 2000
Gap handling : Appended to previous track
Used output format : User Defined Encoder
Selected bitrate : 1024 kBit/s
Quality : High
Add ID3 tag : No
Command line compressor : C:\Program Files\Exact Audio Copy\FLAC\FLAC.EXE
Additional command line options : -6 -V -T "ARTIST=%a" -T "TITLE=%t" -T "ALBUM=%g" -T "DATE=%y" -T "TRACKNUMBER=%n" -T "GENRE=%m" -T "COMMENT=%e" %s -o %d
TOC of the extracted CD
Track | Start | Length | Start sector | End sector
---------------------------------------------------------
1 | 0:00.00 | 12:02.73 | 0 | 54222
2 | 12:02.73 | 11:24.00 | 54223 | 105522
3 | 23:26.73 | 4:47.65 | 105523 | 127112
4 | 28:14.63 | 10:18.04 | 127113 | 173466
Track 1
Filename E:\1111\Evgeni_Mravinsky_Edition.12CD\CD03\01 - Shostakovich Symphony No.12 in D minor, Op.112 'The Year 1917' - I. Revolutionary Petrograd.wav
Pre-gap length 0:00:02.00
Peak level 97.5 %
Track quality 100.0 %
Test CRC 0B6A18AB
Copy CRC 0B6A18AB
Accurately ripped (confidence 3) [DAB132E6]
Copy OK
Track 2
Filename E:\1111\Evgeni_Mravinsky_Edition.12CD\CD03\02 - Shostakovich Symphony No.12 in D minor, Op.112 'The Year 1917' - II. Razliv.wav
Peak level 74.7 %
Track quality 100.0 %
Test CRC 33206B0E
Copy CRC 33206B0E
Accurately ripped (confidence 3) [E7450930]
Copy OK
Track 3
Filename E:\1111\Evgeni_Mravinsky_Edition.12CD\CD03\03 - Shostakovich Symphony No.12 in D minor, Op.112 'The Year 1917' - III. Aurora.wav
Peak level 77.4 %
Track quality 99.9 %
Test CRC 66AE2C96
Copy CRC 66AE2C96
Accurately ripped (confidence 3) [D1EA31B5]
Copy OK
Track 4
Filename E:\1111\Evgeni_Mravinsky_Edition.12CD\CD03\04 - Shostakovich Symphony No.12 in D minor, Op.112 'The Year 1917' - IV. The dawn of humanity.wav
Peak level 91.0 %
Track quality 100.0 %
Test CRC A56FDED7
Copy CRC A56FDED7
Accurately ripped (confidence 3) [E951157A]
Copy OK
All tracks accurately ripped
No errors occurred
End of status report
CD04
01 - 04. Tchaikovsky. Symphony No.5 in E minor op.64
1983/3/19, Grand Hall of Leningrad Philharmonic, Live; RE: Semyon Shugal
CUE CD04
REM GENRE Classical
REM DATE 2007
REM DISCID 340A0A04
REM COMMENT "ExactAudioCopy v0.99pb5"
PERFORMER "Leningrad Philharmonic Orchestra & Evgeny Mravinsky"
TITLE "Evgeny Mravinsky conducts the Leningrad Philharmonic Orchestra (Disc 4)"
FILE "01 - Tchaikovsky Symphony No.5 in E minor, Op.64 - I. Adagio - Allegro con anima.wav" WAVE
TRACK 01 AUDIO
TITLE "Tchaikovsky Symphony No.5 in E minor, Op.64 - I. Adagio - Allegro con anima"
PERFORMER "Leningrad Philharmonic Orchestra & Evgeny Mravinsky"
INDEX 01 00:00:00
TRACK 02 AUDIO
TITLE "Tchaikovsky Symphony No.5 in E minor, Op.64 - II. Andante cantabile con alcun..."
PERFORMER "Leningrad Philharmonic Orchestra & Evgeny Mravinsky"
INDEX 00 13:57:45
FILE "02 - Tchaikovsky Symphony No.5 in E minor, Op.64 - II. Andante cantabile con alcuna licenza.wav" WAVE
INDEX 01 00:00:00
TRACK 03 AUDIO
TITLE "Tchaikovsky Symphony No.5 in E minor, Op.64 - III. Allegro moderato"
PERFORMER "Leningrad Philharmonic Orchestra & Evgeny Mravinsky"
INDEX 00 11:46:07
FILE "03 - Tchaikovsky Symphony No.5 in E minor, Op.64 - III. Allegro moderato.wav" WAVE
INDEX 01 00:00:00
FILE "04 - Tchaikovsky Symphony No.5 in E minor, Op.64 - IV. Andante maestoso - Allegro vivace.wav" WAVE
TRACK 04 AUDIO
TITLE "Tchaikovsky Symphony No.5 in E minor, Op.64 - IV. Andante maestoso - Allegro ..."
PERFORMER "Leningrad Philharmonic Orchestra & Evgeny Mravinsky"
INDEX 01 00:00:00
Log CD04
Exact Audio Copy V0.99 prebeta 5 from 4. May 2009
EAC extraction logfile from 27. January 2010, 14:45
Leningrad Philharmonic Orchestra & Evgeny Mravinsky / Evgeny Mravinsky conducts the Leningrad Philharmonic Orchestra (Disc 4)
Used drive : PLEXTOR DVDR PX-800A Adapter: 1 ID: 0
Read mode : Secure
Utilize accurate stream : Yes
Defeat audio cache : Yes
Make use of C2 pointers : No
Read offset correction : 48
Overread into Lead-In and Lead-Out : No
Fill up missing offset samples with silence : Yes
Delete leading and trailing silent blocks : No
Null samples used in CRC calculations : No
Used interface : Native Win32 interface for Win NT & 2000
Gap handling : Appended to previous track
Used output format : User Defined Encoder
Selected bitrate : 1024 kBit/s
Quality : High
Add ID3 tag : No
Command line compressor : C:\Program Files\Exact Audio Copy\FLAC\FLAC.EXE
Additional command line options : -6 -V -T "ARTIST=%a" -T "TITLE=%t" -T "ALBUM=%g" -T "DATE=%y" -T "TRACKNUMBER=%n" -T "GENRE=%m" -T "COMMENT=%e" %s -o %d
TOC of the extracted CD
Track | Start | Length | Start sector | End sector
---------------------------------------------------------
1 | 0:00.00 | 14:00.13 | 0 | 63012
2 | 14:00.13 | 11:49.00 | 63013 | 116187
3 | 25:49.13 | 5:36.22 | 116188 | 141409
4 | 31:25.35 | 11:25.34 | 141410 | 192818
Track 1
Filename E:\1111\Evgeni_Mravinsky_Edition.12CD\CD04\01 - Tchaikovsky Symphony No.5 in E minor, Op.64 - I. Adagio - Allegro con anima.wav
Pre-gap length 0:00:02.00
Peak level 86.2 %
Track quality 100.0 %
Test CRC 972351A7
Copy CRC 972351A7
Accurately ripped (confidence 3) [6CED40F4]
Copy OK
Track 2
Filename E:\1111\Evgeni_Mravinsky_Edition.12CD\CD04\02 - Tchaikovsky Symphony No.5 in E minor, Op.64 - II. Andante cantabile con alcuna licenza.wav
Pre-gap length 0:00:02.43
Peak level 82.9 %
Track quality 100.0 %
Test CRC F6B998F8
Copy CRC F6B998F8
Accurately ripped (confidence 3) [D924690F]
Copy OK
Track 3
Filename E:\1111\Evgeni_Mravinsky_Edition.12CD\CD04\03 - Tchaikovsky Symphony No.5 in E minor, Op.64 - III. Allegro moderato.wav
Pre-gap length 0:00:02.68
Peak level 77.8 %
Track quality 100.0 %
Test CRC 3F1A1A4F
Copy CRC 3F1A1A4F
Accurately ripped (confidence 3) [5AB35DAD]
Copy OK
Track 4
Filename E:\1111\Evgeni_Mravinsky_Edition.12CD\CD04\04 - Tchaikovsky Symphony No.5 in E minor, Op.64 - IV. Andante maestoso - Allegro vivace.wav
Peak level 84.1 %
Track quality 100.0 %
Test CRC 2DF7CDF5
Copy CRC 2DF7CDF5
Accurately ripped (confidence 3) [176F07FC]
Copy OK
All tracks accurately ripped
No errors occurred
End of status report
CD05
01 - 04. Tchaikovsky. Symphony No.6 in B minor op.74
1983/12/24, Grand Hall of Leningrad Philharmonic, Live; RE: Semyon Shugal
CUE CD05
REM GENRE Classical
REM DATE 2007
REM DISCID 2B0A8704
REM COMMENT "ExactAudioCopy v0.99pb5"
PERFORMER "Leningrad Philharmonic Orchestra & Evgeny Mravinsky"
TITLE "Evgeny Mravinsky conducts the Leningrad Philharmonic Orchestra (Disc 5)"
FILE "01 - Tchaikovsky Symphony No.6 in B minor, Op.74 'Path'etique' - I. Adagio - Allegro non troppo.wav" WAVE
TRACK 01 AUDIO
TITLE "Tchaikovsky Symphony No.6 in B minor, Op.74 'Path'etique' - I. Adagio - Alleg..."
PERFORMER "Leningrad Philharmonic Orchestra & Evgeny Mravinsky"
INDEX 01 00:00:00
TRACK 02 AUDIO
TITLE "Tchaikovsky Symphony No.6 in B minor, Op.74 'Path'etique' - II. Allegro con g..."
PERFORMER "Leningrad Philharmonic Orchestra & Evgeny Mravinsky"
INDEX 00 17:50:23
FILE "02 - Tchaikovsky Symphony No.6 in B minor, Op.74 'Path'etique' - II. Allegro con grazia.wav" WAVE
INDEX 01 00:00:00
TRACK 03 AUDIO
TITLE "Tchaikovsky Symphony No.6 in B minor, Op.74 'Path'etique' - III. Allegro molt..."
PERFORMER "Leningrad Philharmonic Orchestra & Evgeny Mravinsky"
INDEX 00 08:19:65
FILE "03 - Tchaikovsky Symphony No.6 in B minor, Op.74 'Path'etique' - III. Allegro molto vivace.wav" WAVE
INDEX 01 00:00:00
TRACK 04 AUDIO
TITLE "Tchaikovsky Symphony No.6 in B minor, Op.74 'Path'etique' - IV. Adagio lamentoso"
PERFORMER "Leningrad Philharmonic Orchestra & Evgeny Mravinsky"
INDEX 00 08:50:52
FILE "04 - Tchaikovsky Symphony No.6 in B minor, Op.74 'Path'etique' - IV. Adagio lamentoso.wav" WAVE
INDEX 01 00:00:00
Log CD05
Exact Audio Copy V0.99 prebeta 5 from 4. May 2009
CUE CD06
REM GENRE Classical
REM DATE 2007
REM DISCID B50DCA0D
REM COMMENT "ExactAudioCopy v0.99pb5"
PERFORMER "Leningrad Philharmonic Orchestra & Evgeny Mravinsky"
TITLE "Evgeny Mravinsky conducts the Leningrad Philharmonic Orchestra (Disc 6)"
FILE "01 - Tchaikovsky Francesca da Rimini, op.32.wav" WAVE
TRACK 01 AUDIO
TITLE "Tchaikovsky Francesca da Rimini, op.32"
PERFORMER "Leningrad Philharmonic Orchestra & Evgeny Mravinsky"
INDEX 01 00:00:00
TRACK 02 AUDIO
TITLE "Mussorgsky Dawn on the Moscow River (Prelude to Act One of Khovanshchina)"
PERFORMER "Leningrad Philharmonic Orchestra & Evgeny Mravinsky"
INDEX 00 24:08:20
FILE "02 - Mussorgsky Dawn on the Moscow River (Prelude to Act One of Khovanshchina).wav" WAVE
INDEX 01 00:00:00
TRACK 03 AUDIO
TITLE "Glinka Overture to Rusian and Lyudmila"
PERFORMER "Leningrad Philharmonic Orchestra & Evgeny Mravinsky"
INDEX 00 05:21:68
FILE "03 - Glinka Overture to Rusian and Lyudmila.wav" WAVE
INDEX 01 00:00:00
TRACK 04 AUDIO
TITLE "Glazunov Suite from Raymonda - I. Tableau (Introduction to Act One)"
PERFORMER "Leningrad Philharmonic Orchestra & Evgeny Mravinsky"
INDEX 00 05:09:43
FILE "04 - Glazunov Suite from Raymonda - I. Tableau (Introduction to Act One).wav" WAVE
INDEX 01 00:00:00
TRACK 05 AUDIO
TITLE "Glazunov Suite from Raymonda - II. Tableau (Act One, Scene 1)"
PERFORMER "Leningrad Philharmonic Orchestra & Evgeny Mravinsky"
INDEX 00 04:52:58
FILE "05 - Glazunov Suite from Raymonda - II. Tableau (Act One, Scene 1).wav" WAVE
INDEX 01 00:00:00
TRACK 06 AUDIO
TITLE "Glazunov Suite from Raymonda - III. Grande Valse (Act One, Scene 6)"
PERFORMER "Leningrad Philharmonic Orchestra & Evgeny Mravinsky"
INDEX 00 01:48:08
FILE "06 - Glazunov Suite from Raymonda - III. Grande Valse (Act One, Scene 6).wav" WAVE
INDEX 01 00:00:00
FILE "07 - Glazunov Suite from Raymonda - IV. Pizzicato (Pas de Raymonda).wav" WAVE
TRACK 07 AUDIO
TITLE "Glazunov Suite from Raymonda - IV. Pizzicato (Pas de Raymonda)"
PERFORMER "Leningrad Philharmonic Orchestra & Evgeny Mravinsky"
INDEX 01 00:00:00
FILE "08 - Glazunov Suite from Raymonda - V. Valse - reprise.wav" WAVE
TRACK 08 AUDIO
TITLE "Glazunov Suite from Raymonda - V. Valse - reprise"
PERFORMER "Leningrad Philharmonic Orchestra & Evgeny Mravinsky"
INDEX 01 00:00:00
TRACK 09 AUDIO
TITLE "Glazunov Suite from Raymonda - VI. Pr'elude (Raymonda joue le luth)"
PERFORMER "Leningrad Philharmonic Orchestra & Evgeny Mravinsky"
INDEX 00 01:17:17
FILE "09 - Glazunov Suite from Raymonda - VI. Pr'elude (Raymonda joue le luth).wav" WAVE
INDEX 01 00:00:00
TRACK 10 AUDIO
TITLE "Glazunov Suite from Raymonda - VII. Pr'elude et Variation"
PERFORMER "Leningrad Philharmonic Orchestra & Evgeny Mravinsky"
INDEX 00 01:58:60
FILE "10 - Glazunov Suite from Raymonda - VII. Pr'elude et Variation.wav" WAVE
INDEX 01 00:00:00
TRACK 11 AUDIO
TITLE "Glazunov Suite from Raymonda - VIII. Entr'acte"
PERFORMER "Leningrad Philharmonic Orchestra & Evgeny Mravinsky"
INDEX 00 01:14:38
FILE "11 - Glazunov Suite from Raymonda - VIII. Entr'acte.wav" WAVE
INDEX 01 00:00:00
TRACK 12 AUDIO
TITLE "Glazunov Suite from Raymonda - IX. Entr'acte (Act Three)"
PERFORMER "Leningrad Philharmonic Orchestra & Evgeny Mravinsky"
INDEX 00 03:25:60
FILE "12 - Glazunov Suite from Raymonda - IX. Entr'acte (Act Three).wav" WAVE
INDEX 01 00:00:00
TRACK 13 AUDIO
TITLE "Glazunov Suite from Raymonda - X. Grand pas espagnol (Act Two)"
PERFORMER "Leningrad Philharmonic Orchestra & Evgeny Mravinsky"
INDEX 00 03:15:29
FILE "13 - Glazunov Suite from Raymonda - X. Grand pas espagnol (Act Two).wav" WAVE
INDEX 01 00:00:00
EAC extraction logfile from 29. January 2010, 11:20
Leningrad Philharmonic Orchestra & Evgeny Mravinsky / Evgeny Mravinsky conducts the Leningrad Philharmonic Orchestra (Disc 5)
Used drive : PLEXTOR DVDR PX-800A Adapter: 1 ID: 0
Read mode : Secure
Utilize accurate stream : Yes
Defeat audio cache : Yes
Make use of C2 pointers : No
Read offset correction : 48
Overread into Lead-In and Lead-Out : No
Fill up missing offset samples with silence : Yes
Delete leading and trailing silent blocks : No
Null samples used in CRC calculations : No
Used interface : Native Win32 interface for Win NT & 2000
Gap handling : Appended to previous track
Used output format : User Defined Encoder
Selected bitrate : 1024 kBit/s
Quality : High
Add ID3 tag : No
Command line compressor : C:\Program Files\Exact Audio Copy\FLAC\FLAC.EXE
Additional command line options : -6 -V -T "ARTIST=%a" -T "TITLE=%t" -T "ALBUM=%g" -T "DATE=%y" -T "TRACKNUMBER=%n" -T "GENRE=%m" -T "COMMENT=%e" %s -o %d
TOC of the extracted CD
Track | Start | Length | Start sector | End sector
---------------------------------------------------------
1 | 0:00.00 | 17:52.05 | 0 | 80404
2 | 17:52.05 | 8:21.53 | 80405 | 118032
3 | 26:13.58 | 8:52.47 | 118033 | 157979
4 | 35:06.30 | 9:48.68 | 157980 | 202147
Track 1
Filename E:\1111\Evgeni_Mravinsky_Edition.12CD\CD05\01 - Tchaikovsky Symphony No.6 in B minor, Op.74 'Path'etique' - I. Adagio - Allegro non troppo.wav
Pre-gap length 0:00:02.00
Peak level 100.0 %
Track quality 100.0 %
Test CRC B744EBB5
Copy CRC B744EBB5
Accurately ripped (confidence 3) [2CB87BB7]
Copy OK
Track 2
Filename E:\1111\Evgeni_Mravinsky_Edition.12CD\CD05\02 - Tchaikovsky Symphony No.6 in B minor, Op.74 'Path'etique' - II. Allegro con grazia.wav
Pre-gap length 0:00:01.57
Peak level 52.5 %
Track quality 100.0 %
Test CRC 680D63DB
Copy CRC 680D63DB
Accurately ripped (confidence 3) [7FEE8334]
Copy OK
Track 3
Filename E:\1111\Evgeni_Mravinsky_Edition.12CD\CD05\03 - Tchaikovsky Symphony No.6 in B minor, Op.74 'Path'etique' - III. Allegro molto vivace.wav
Pre-gap length 0:00:01.63
Peak level 100.0 %
Track quality 99.9 %
Test CRC F77EEA58
Copy CRC F77EEA58
Accurately ripped (confidence 3) [25A50B89]
Copy OK
Track 4
Filename E:\1111\Evgeni_Mravinsky_Edition.12CD\CD05\04 - Tchaikovsky Symphony No.6 in B minor, Op.74 'Path'etique' - IV. Adagio lamentoso.wav
Pre-gap length 0:00:01.70
Peak level 99.3 %
Track quality 100.0 %
Test CRC 6B5DC503
Copy CRC 6B5DC503
Accurately ripped (confidence 3) [5358632B]
Copy OK
All tracks accurately ripped
No errors occurred
End of status report
CD06
01. Tchaikovsky. Francesca da Rimini
1983/3/19, Grand Hall of Leningrad Philharmonic, Live; RE: Semyon Shugal;
02. Mussorgsky. Dawn on the Moscow River
1983/3/19, Grand Hall of Leningrad Philharmonic, Live; RE: Semyon Shugal;
03. Glinka. Ruslan and Lyudmila Overture
1981/11/29, Grand Hall of Leningrad Philharmonic, Live; RE: Semyon Shugal;
04 - 13. Glazunov. Suite from Raymonda
1969/12/28, Grand Hall of Leningrad Philharmonic, Live, Monaural; RE: Kh. Minakova.
CUE CD06
REM GENRE Classical
REM DATE 2007
REM DISCID B50DCA0D
REM COMMENT "ExactAudioCopy v0.99pb5"
PERFORMER "Leningrad Philharmonic Orchestra & Evgeny Mravinsky"
TITLE "Evgeny Mravinsky conducts the Leningrad Philharmonic Orchestra (Disc 6)"
FILE "01 - Tchaikovsky Francesca da Rimini, op.32.wav" WAVE
TRACK 01 AUDIO
TITLE "Tchaikovsky Francesca da Rimini, op.32"
PERFORMER "Leningrad Philharmonic Orchestra & Evgeny Mravinsky"
INDEX 01 00:00:00
TRACK 02 AUDIO
TITLE "Mussorgsky Dawn on the Moscow River (Prelude to Act One of Khovanshchina)"
PERFORMER "Leningrad Philharmonic Orchestra & Evgeny Mravinsky"
INDEX 00 24:08:20
FILE "02 - Mussorgsky Dawn on the Moscow River (Prelude to Act One of Khovanshchina).wav" WAVE
INDEX 01 00:00:00
TRACK 03 AUDIO
TITLE "Glinka Overture to Rusian and Lyudmila"
PERFORMER "Leningrad Philharmonic Orchestra & Evgeny Mravinsky"
INDEX 00 05:21:68
FILE "03 - Glinka Overture to Rusian and Lyudmila.wav" WAVE
INDEX 01 00:00:00
TRACK 04 AUDIO
TITLE "Glazunov Suite from Raymonda - I. Tableau (Introduction to Act One)"
PERFORMER "Leningrad Philharmonic Orchestra & Evgeny Mravinsky"
INDEX 00 05:09:43
FILE "04 - Glazunov Suite from Raymonda - I. Tableau (Introduction to Act One).wav" WAVE
INDEX 01 00:00:00
TRACK 05 AUDIO
TITLE "Glazunov Suite from Raymonda - II. Tableau (Act One, Scene 1)"
PERFORMER "Leningrad Philharmonic Orchestra & Evgeny Mravinsky"
INDEX 00 04:52:58
FILE "05 - Glazunov Suite from Raymonda - II. Tableau (Act One, Scene 1).wav" WAVE
INDEX 01 00:00:00
TRACK 06 AUDIO
TITLE "Glazunov Suite from Raymonda - III. Grande Valse (Act One, Scene 6)"
PERFORMER "Leningrad Philharmonic Orchestra & Evgeny Mravinsky"
INDEX 00 01:48:08
FILE "06 - Glazunov Suite from Raymonda - III. Grande Valse (Act One, Scene 6).wav" WAVE
INDEX 01 00:00:00
FILE "07 - Glazunov Suite from Raymonda - IV. Pizzicato (Pas de Raymonda).wav" WAVE
TRACK 07 AUDIO
TITLE "Glazunov Suite from Raymonda - IV. Pizzicato (Pas de Raymonda)"
PERFORMER "Leningrad Philharmonic Orchestra & Evgeny Mravinsky"
INDEX 01 00:00:00
FILE "08 - Glazunov Suite from Raymonda - V. Valse - reprise.wav" WAVE
TRACK 08 AUDIO
TITLE "Glazunov Suite from Raymonda - V. Valse - reprise"
PERFORMER "Leningrad Philharmonic Orchestra & Evgeny Mravinsky"
INDEX 01 00:00:00
TRACK 09 AUDIO
TITLE "Glazunov Suite from Raymonda - VI. Pr'elude (Raymonda joue le luth)"
PERFORMER "Leningrad Philharmonic Orchestra & Evgeny Mravinsky"
INDEX 00 01:17:17
FILE "09 - Glazunov Suite from Raymonda - VI. Pr'elude (Raymonda joue le luth).wav" WAVE
INDEX 01 00:00:00
TRACK 10 AUDIO
TITLE "Glazunov Suite from Raymonda - VII. Pr'elude et Variation"
PERFORMER "Leningrad Philharmonic Orchestra & Evgeny Mravinsky"
INDEX 00 01:58:60
FILE "10 - Glazunov Suite from Raymonda - VII. Pr'elude et Variation.wav" WAVE
INDEX 01 00:00:00
TRACK 11 AUDIO
TITLE "Glazunov Suite from Raymonda - VIII. Entr'acte"
PERFORMER "Leningrad Philharmonic Orchestra & Evgeny Mravinsky"
INDEX 00 01:14:38
FILE "11 - Glazunov Suite from Raymonda - VIII. Entr'acte.wav" WAVE
INDEX 01 00:00:00
TRACK 12 AUDIO
TITLE "Glazunov Suite from Raymonda - IX. Entr'acte (Act Three)"
PERFORMER "Leningrad Philharmonic Orchestra & Evgeny Mravinsky"
INDEX 00 03:25:60
FILE "12 - Glazunov Suite from Raymonda - IX. Entr'acte (Act Three).wav" WAVE
INDEX 01 00:00:00
TRACK 13 AUDIO
TITLE "Glazunov Suite from Raymonda - X. Grand pas espagnol (Act Two)"
PERFORMER "Leningrad Philharmonic Orchestra & Evgeny Mravinsky"
INDEX 00 03:15:29
FILE "13 - Glazunov Suite from Raymonda - X. Grand pas espagnol (Act Two).wav" WAVE
INDEX 01 00:00:00
Log CD06
Exact Audio Copy V0.99 prebeta 5 from 4. May 2009
EAC extraction logfile from 29. January 2010, 13:42
Leningrad Philharmonic Orchestra & Evgeny Mravinsky / Evgeny Mravinsky conducts the Leningrad Philharmonic Orchestra (Disc 6)
Used drive : PLEXTOR DVDR PX-800A Adapter: 1 ID: 0
Read mode : Secure
Utilize accurate stream : Yes
Defeat audio cache : Yes
Make use of C2 pointers : No
Read offset correction : 48
Overread into Lead-In and Lead-Out : No
Fill up missing offset samples with silence : Yes
Delete leading and trailing silent blocks : No
Null samples used in CRC calculations : No
Used interface : Native Win32 interface for Win NT & 2000
Gap handling : Appended to previous track
Used output format : User Defined Encoder
Selected bitrate : 1024 kBit/s
Quality : High
Add ID3 tag : No
Command line compressor : C:\Program Files\Exact Audio Copy\FLAC\FLAC.EXE
Additional command line options : -6 -V -T "ARTIST=%a" -T "TITLE=%t" -T "ALBUM=%g" -T "DATE=%y" -T "TRACKNUMBER=%n" -T "GENRE=%m" -T "COMMENT=%e" %s -o %d
TOC of the extracted CD
Track | Start | Length | Start sector | End sector
---------------------------------------------------------
1 | 0:00.00 | 24:12.70 | 0 | 108969
2 | 24:12.70 | 5:26.65 | 108970 | 133484
3 | 29:39.60 | 5:12.60 | 133485 | 156944
4 | 34:52.45 | 4:57.10 | 156945 | 179229
5 | 39:49.55 | 1:51.28 | 179230 | 187582
6 | 41:41.08 | 2:59.45 | 187583 | 201052
7 | 44:40.53 | 1:05.40 | 201053 | 205967
8 | 45:46.18 | 1:18.57 | 205968 | 211874
9 | 47:05.00 | 1:59.50 | 211875 | 220849
10 | 49:04.50 | 1:16.10 | 220850 | 226559
11 | 50:20.60 | 3:29.10 | 226560 | 242244
12 | 53:49.70 | 3:21.50 | 242245 | 257369
13 | 57:11.45 | 1:38.63 | 257370 | 264782
Track 1
Filename E:\1111\Evgeni_Mravinsky_Edition.12CD\CD06\01 - Tchaikovsky Francesca da Rimini, op.32.wav
Pre-gap length 0:00:02.00
Peak level 99.3 %
Track quality 100.0 %
Test CRC A378EE06
Copy CRC A378EE06
Accurately ripped (confidence 3) [137BDBCB]
Copy OK
Track 2
Filename E:\1111\Evgeni_Mravinsky_Edition.12CD\CD06\02 - Mussorgsky Dawn on the Moscow River (Prelude to Act One of Khovanshchina).wav
Pre-gap length 0:00:04.50
Peak level 35.1 %
Track quality 100.0 %
Test CRC C6C72ACB
Copy CRC C6C72ACB
Accurately ripped (confidence 3) [F8673E49]
Copy OK
Track 3
Filename E:\1111\Evgeni_Mravinsky_Edition.12CD\CD06\03 - Glinka Overture to Rusian and Lyudmila.wav
Pre-gap length 0:00:04.72
Peak level 96.0 %
Track quality 99.9 %
Test CRC 3F5656BE
Copy CRC 3F5656BE
Accurately ripped (confidence 3) [F691232D]
Copy OK
Track 4
Filename E:\1111\Evgeni_Mravinsky_Edition.12CD\CD06\04 - Glazunov Suite from Raymonda - I. Tableau (Introduction to Act One).wav
Pre-gap length 0:00:03.17
Peak level 95.1 %
Track quality 100.0 %
Test CRC BB821FE5
Copy CRC BB821FE5
Accurately ripped (confidence 3) [B4AE6BA3]
Copy OK
Track 5
Filename E:\1111\Evgeni_Mravinsky_Edition.12CD\CD06\05 - Glazunov Suite from Raymonda - II. Tableau (Act One, Scene 1).wav
Pre-gap length 0:00:04.27
Peak level 83.0 %
Track quality 100.0 %
Test CRC 3B1BA1E4
Copy CRC 3B1BA1E4
Accurately ripped (confidence 3) [B4E317D5]
Copy OK
Track 6
Filename E:\1111\Evgeni_Mravinsky_Edition.12CD\CD06\06 - Glazunov Suite from Raymonda - III. Grande Valse (Act One, Scene 6).wav
Pre-gap length 0:00:03.20
Peak level 96.2 %
Track quality 100.0 %
Test CRC 089866D6
Copy CRC 089866D6
Accurately ripped (confidence 3) [F58D21DD]
Copy OK
Track 7
Filename E:\1111\Evgeni_Mravinsky_Edition.12CD\CD06\07 - Glazunov Suite from Raymonda - IV. Pizzicato (Pas de Raymonda).wav
Peak level 59.1 %
Track quality 100.0 %
Test CRC D717172F
Copy CRC D717172F
Accurately ripped (confidence 3) [5AA7ED99]
Copy OK
Track 8
Filename E:\1111\Evgeni_Mravinsky_Edition.12CD\CD06\08 - Glazunov Suite from Raymonda - V. Valse - reprise.wav
Peak level 72.0 %
Track quality 100.0 %
Test CRC 497C732D
Copy CRC 497C732D
Accurately ripped (confidence 3) [7451D31E]
Copy OK
Track 9
Filename E:\1111\Evgeni_Mravinsky_Edition.12CD\CD06\09 - Glazunov Suite from Raymonda - VI. Pr'elude (Raymonda joue le luth).wav
Pre-gap length 0:00:01.40
Peak level 57.6 %
Track quality 100.0 %
Test CRC 70A45BDB
Copy CRC 70A45BDB
Accurately ripped (confidence 3) [B6F4A7F2]
Copy OK
Track 10
Filename E:\1111\Evgeni_Mravinsky_Edition.12CD\CD06\10 - Glazunov Suite from Raymonda - VII. Pr'elude et Variation.wav
Pre-gap length 0:00:00.65
Peak level 40.8 %
Track quality 100.0 %
Test CRC 7826C978
Copy CRC 7826C978
Accurately ripped (confidence 3) [672414E4]
Copy OK
Track 11
Filename E:\1111\Evgeni_Mravinsky_Edition.12CD\CD06\11 - Glazunov Suite from Raymonda - VIII. Entr'acte.wav
Pre-gap length 0:00:01.47
Peak level 78.5 %
Track quality 100.0 %
Test CRC 217BD1A6
Copy CRC 217BD1A6
Accurately ripped (confidence 3) [7A3A0F87]
Copy OK
Track 12
Filename E:\1111\Evgeni_Mravinsky_Edition.12CD\CD06\12 - Glazunov Suite from Raymonda - IX. Entr'acte (Act Three).wav
Pre-gap length 0:00:03.25
Peak level 88.8 %
Track quality 100.0 %
Test CRC 22D6ED2F
Copy CRC 22D6ED2F
Accurately ripped (confidence 3) [FD64F534]
Copy OK
Track 13
Filename E:\1111\Evgeni_Mravinsky_Edition.12CD\CD06\13 - Glazunov Suite from Raymonda - X. Grand pas espagnol (Act Two).wav
Pre-gap length 0:00:06.21
Peak level 96.3 %
Track quality 100.0 %
Test CRC 1C47C7F4
Copy CRC 1C47C7F4
Accurately ripped (confidence 3) [A016EAF6]
Copy OK
All tracks accurately ripped
No errors occurred
End of status report
CD07
Mozart
01 - 04. Symphony No.33 in B flat major K319
1983/12/24, Grand Hall of Leningrad Philharmonic, Live; RE: Semyon Shugal;
05 - 08. Symphony No.39 in E flat major K543
1972/5/6, Grand Hall of Leningrad Philharmonic, Live, Monaural; RE: Kh. Minakova.
CUE CD07
REM GENRE Classical
REM DATE 2007
REM DISCID 820B7F08
REM COMMENT "ExactAudioCopy v0.99pb5"
PERFORMER "Leningrad Philharmonic Orchestra & Evgeny Mravinsky"
TITLE "Evgeny Mravinsky conducts the Leningrad Philharmonic Orchestra (Disc 7)"
FILE "01 - Mozart Symphony No.33 in B flat major, K319 - I. Allegro assai.wav" WAVE
TRACK 01 AUDIO
TITLE "Mozart Symphony No.33 in B flat major, K319 - I. Allegro assai"
PERFORMER "Leningrad Philharmonic Orchestra & Evgeny Mravinsky"
INDEX 01 00:00:00
TRACK 02 AUDIO
TITLE "Mozart Symphony No.33 in B flat major, K319 - II. Andante moderato"
PERFORMER "Leningrad Philharmonic Orchestra & Evgeny Mravinsky"
INDEX 00 07:48:30
FILE "02 - Mozart Symphony No.33 in B flat major, K319 - II. Andante moderato.wav" WAVE
INDEX 01 00:00:00
TRACK 03 AUDIO
TITLE "Mozart Symphony No.33 in B flat major, K319 - III. Menuetto "
PERFORMER "Leningrad Philharmonic Orchestra & Evgeny Mravinsky"
INDEX 00 05:11:10
FILE "03 - Mozart Symphony No.33 in B flat major, K319 - III. Menuetto.wav" WAVE
INDEX 01 00:00:00
FILE "04 - Mozart Symphony No.33 in B flat major, K319 - IV. Allegro assai.wav" WAVE
TRACK 04 AUDIO
TITLE "Mozart Symphony No.33 in B flat major, K319 - IV. Allegro assai"
PERFORMER "Leningrad Philharmonic Orchestra & Evgeny Mravinsky"
INDEX 01 00:00:00
TRACK 05 AUDIO
TITLE "Mozart Symphony No.39 in E flat major, K543 - I. Adagio"
PERFORMER "Leningrad Philharmonic Orchestra & Evgeny Mravinsky"
INDEX 00 07:06:18
FILE "05 - Mozart Symphony No.39 in E flat major, K543 - I. Adagio.wav" WAVE
INDEX 01 00:00:00
TRACK 06 AUDIO
TITLE "Mozart Symphony No.39 in E flat major, K543 - II. Andante con moto"
PERFORMER "Leningrad Philharmonic Orchestra & Evgeny Mravinsky"
INDEX 00 08:09:20
FILE "06 - Mozart Symphony No.39 in E flat major, K543 - II. Andante con moto.wav" WAVE
INDEX 01 00:00:00
TRACK 07 AUDIO
TITLE "Mozart Symphony No.39 in E flat major, K543 - III. Menuetto. Allegretto"
PERFORMER "Leningrad Philharmonic Orchestra & Evgeny Mravinsky"
INDEX 00 08:30:13
FILE "07 - Mozart Symphony No.39 in E flat major, K543 - III. Menuetto. Allegretto.wav" WAVE
INDEX 01 00:00:00
TRACK 08 AUDIO
TITLE "Mozart Symphony No.39 in E flat major, K543 - IV. Finale. Allegro"
PERFORMER "Leningrad Philharmonic Orchestra & Evgeny Mravinsky"
INDEX 00 03:48:49
FILE "08 - Mozart Symphony No.39 in E flat major, K543 - IV. Finale. Allegro.wav" WAVE
INDEX 01 00:00:00
Log CD07
Exact Audio Copy V0.99 prebeta 5 from 4. May 2009
EAC extraction logfile from 29. January 2010, 14:59
Leningrad Philharmonic Orchestra & Evgeny Mravinsky / Evgeny Mravinsky conducts the Leningrad Philharmonic Orchestra (Disc 7)
Used drive : PLEXTOR DVDR PX-800A Adapter: 1 ID: 0
Read mode : Secure
Utilize accurate stream : Yes
Defeat audio cache : Yes
Make use of C2 pointers : No
Read offset correction : 48
Overread into Lead-In and Lead-Out : No
Fill up missing offset samples with silence : Yes
Delete leading and trailing silent blocks : No
Null samples used in CRC calculations : No
Used interface : Native Win32 interface for Win NT & 2000
Gap handling : Appended to previous track
Used output format : User Defined Encoder
Selected bitrate : 1024 kBit/s
Quality : High
Add ID3 tag : No
Command line compressor : C:\Program Files\Exact Audio Copy\FLAC\FLAC.EXE
Additional command line options : -6 -V -T "ARTIST=%a" -T "TITLE=%t" -T "ALBUM=%g" -T "DATE=%y" -T "TRACKNUMBER=%n" -T "GENRE=%m" -T "COMMENT=%e" %s -o %d
TOC of the extracted CD
Track | Start | Length | Start sector | End sector
---------------------------------------------------------
1 | 0:00.00 | 7:50.57 | 0 | 35306
2 | 7:50.57 | 5:13.18 | 35307 | 58799
3 | 13:04.00 | 2:50.47 | 58800 | 71596
4 | 15:54.47 | 7:16.33 | 71597 | 104329
5 | 23:11.05 | 8:11.37 | 104330 | 141191
6 | 31:22.42 | 8:31.15 | 141192 | 179531
7 | 39:53.57 | 3:52.63 | 179532 | 196994
8 | 43:46.45 | 5:17.02 | 196995 | 220771
Track 1
Filename E:\1111\Evgeni_Mravinsky_Edition.12CD\CD07\01 - Mozart Symphony No.33 in B flat major, K319 - I. Allegro assai.wav
Pre-gap length 0:00:02.00
Peak level 66.1 %
Track quality 100.0 %
Test CRC 35DBACCA
Copy CRC 35DBACCA
Accurately ripped (confidence 3) [EDB6861F]
Copy OK
Track 2
Filename E:\1111\Evgeni_Mravinsky_Edition.12CD\CD07\02 - Mozart Symphony No.33 in B flat major, K319 - II. Andante moderato.wav
Pre-gap length 0:00:02.27
Peak level 39.2 %
Track quality 100.0 %
Test CRC 9244D5F6
Copy CRC 9244D5F6
Accurately ripped (confidence 3) [62E1545A]
Copy OK
Track 3
Filename E:\1111\Evgeni_Mravinsky_Edition.12CD\CD07\03 - Mozart Symphony No.33 in B flat major, K319 - III. Menuetto.wav
Pre-gap length 0:00:02.08
Peak level 68.4 %
Track quality 100.0 %
Test CRC D69C8C33
Copy CRC D69C8C33
Accurately ripped (confidence 3) [D1DF026A]
Copy OK
Track 4
Filename E:\1111\Evgeni_Mravinsky_Edition.12CD\CD07\04 - Mozart Symphony No.33 in B flat major, K319 - IV. Allegro assai.wav
Peak level 66.8 %
Track quality 100.0 %
Test CRC 5435960A
Copy CRC 5435960A
Accurately ripped (confidence 3) [07BFA0C8]
Copy OK
Track 5
Filename E:\1111\Evgeni_Mravinsky_Edition.12CD\CD07\05 - Mozart Symphony No.39 in E flat major, K543 - I. Adagio.wav
Pre-gap length 0:00:10.15
Peak level 75.3 %
Track quality 100.0 %
Test CRC 90941D22
Copy CRC 90941D22
Accurately ripped (confidence 3) [59580948]
Copy OK
Track 6
Filename E:\1111\Evgeni_Mravinsky_Edition.12CD\CD07\06 - Mozart Symphony No.39 in E flat major, K543 - II. Andante con moto.wav
Pre-gap length 0:00:02.17
Peak level 64.4 %
Track quality 100.0 %
Test CRC 8A276482
Copy CRC 8A276482
Accurately ripped (confidence 3) [AED7ED2A]
Copy OK
Track 7
Filename E:\1111\Evgeni_Mravinsky_Edition.12CD\CD07\07 - Mozart Symphony No.39 in E flat major, K543 - III. Menuetto. Allegretto.wav
Pre-gap length 0:00:01.02
Peak level 70.4 %
Track quality 100.0 %
Test CRC 89DD3F2A
Copy CRC 89DD3F2A
Accurately ripped (confidence 3) [DE1AB1A2]
Copy OK
Track 8
Filename E:\1111\Evgeni_Mravinsky_Edition.12CD\CD07\08 - Mozart Symphony No.39 in E flat major, K543 - IV. Finale. Allegro.wav
Pre-gap length 0:00:04.14
Peak level 89.2 %
Track quality 100.0 %
Test CRC 42B70EEF
Copy CRC 42B70EEF
Accurately ripped (confidence 3) [2D83D397]
Copy OK
All tracks accurately ripped
No errors occurred
End of status report
CD08
Beethoven
01 - 04. Symphony No.1 in C Major op.21
1982/1/28, Grand Hall of Leningrad Philharmonic, Live; RE: Semyon Shugal;
05 - 08. Symphony No.3 in E flat major op.55
1968/10/31, Grand Hall of Leningrad Philharmonic, Live, Monaural; RE: Kh. Minakova.
CUE CD08
REM GENRE Classical
REM DATE 2007
REM DISCID 76112B08
REM COMMENT "ExactAudioCopy v0.99pb5"
PERFORMER "Leningrad Philharmonic Orchestra & Evgeny Mravinsky"
TITLE "Evgeny Mravinsky conducts the Leningrad Philharmonic Orchestra (Disc 8)"
FILE "01 - Beethoven Symphony No.1 in C major, op.21 - I. Adagio molto - Allegro con brio.wav" WAVE
TRACK 01 AUDIO
TITLE "Beethoven Symphony No.1 in C major, op.21 - I. Adagio molto - Allegro con brio"
PERFORMER "Leningrad Philharmonic Orchestra & Evgeny Mravinsky"
INDEX 01 00:00:00
TRACK 02 AUDIO
TITLE "Beethoven Symphony No.1 in C major, op.21 - II. Andante cantabile con moto"
PERFORMER "Leningrad Philharmonic Orchestra & Evgeny Mravinsky"
INDEX 00 09:40:00
FILE "02 - Beethoven Symphony No.1 in C major, op.21 - II. Andante cantabile con moto.wav" WAVE
INDEX 01 00:00:00
TRACK 03 AUDIO
TITLE "Beethoven Symphony No.1 in C major, op.21 - III. Menuetto. Allegro molto e vi..."
PERFORMER "Leningrad Philharmonic Orchestra & Evgeny Mravinsky"
INDEX 00 07:50:37
FILE "03 - Beethoven Symphony No.1 in C major, op.21 - III. Menuetto. Allegro molto e vivace.wav" WAVE
INDEX 01 00:00:00
FILE "04 - Beethoven Symphony No.1 in C major, op.21 - IV. Finale. Adagio - Allegro molto e vivace.wav" WAVE
TRACK 04 AUDIO
TITLE "Beethoven Symphony No.1 in C major, op.21 - IV. Finale. Adagio - Allegro molt..."
PERFORMER "Leningrad Philharmonic Orchestra & Evgeny Mravinsky"
INDEX 01 00:00:00
TRACK 05 AUDIO
TITLE "Beethoven Symphony No.3 in E flat major, op.55 'Eroica' - I. Allegro con brio"
PERFORMER "Leningrad Philharmonic Orchestra & Evgeny Mravinsky"
INDEX 00 05:47:57
FILE "05 - Beethoven Symphony No.3 in E flat major, op.55 'Eroica' - I. Allegro con brio.wav" WAVE
INDEX 01 00:00:00
TRACK 06 AUDIO
TITLE "Beethoven Symphony No.3 in E flat major, op.55 'Eroica' - II. Marcia funebre...."
PERFORMER "Leningrad Philharmonic Orchestra & Evgeny Mravinsky"
INDEX 00 13:37:65
FILE "06 - Beethoven Symphony No.3 in E flat major, op.55 'Eroica' - II. Marcia funebre. Adagio assai.wav" WAVE
INDEX 01 00:00:00
TRACK 07 AUDIO
TITLE "Beethoven Symphony No.3 in E flat major, op.55 'Eroica' - III. Scherzo. Alleg..."
PERFORMER "Leningrad Philharmonic Orchestra & Evgeny Mravinsky"
INDEX 00 15:06:38
FILE "07 - Beethoven Symphony No.3 in E flat major, op.55 'Eroica' - III. Scherzo. Allegro vivace.wav" WAVE
INDEX 01 00:00:00
FILE "08 - Beethoven Symphony No.3 in E flat major, op.55 'Eroica' - IV. Finale. Allegro molto.wav" WAVE
TRACK 08 AUDIO
TITLE "Beethoven Symphony No.3 in E flat major, op.55 'Eroica' - IV. Finale. Allegro..."
PERFORMER "Leningrad Philharmonic Orchestra & Evgeny Mravinsky"
INDEX 01 00:00:00
Log CD08
Exact Audio Copy V0.99 prebeta 5 from 4. May 2009
EAC extraction logfile from 29. January 2010, 15:40
Leningrad Philharmonic Orchestra & Evgeny Mravinsky / Evgeny Mravinsky conducts the Leningrad Philharmonic Orchestra (Disc 8)
Used drive : PLEXTOR DVDR PX-800A Adapter: 1 ID: 0
Read mode : Secure
Utilize accurate stream : Yes
Defeat audio cache : Yes
Make use of C2 pointers : No
Read offset correction : 48
Overread into Lead-In and Lead-Out : No
Fill up missing offset samples with silence : Yes
Delete leading and trailing silent blocks : No
Null samples used in CRC calculations : No
Used interface : Native Win32 interface for Win NT & 2000
Gap handling : Appended to previous track
Used output format : User Defined Encoder
Selected bitrate : 1024 kBit/s
Quality : High
Add ID3 tag : No
Command line compressor : C:\Program Files\Exact Audio Copy\FLAC\FLAC.EXE
Additional command line options : -6 -V -T "ARTIST=%a" -T "TITLE=%t" -T "ALBUM=%g" -T "DATE=%y" -T "TRACKNUMBER=%n" -T "GENRE=%m" -T "COMMENT=%e" %s -o %d
TOC of the extracted CD
Track | Start | Length | Start sector | End sector
---------------------------------------------------------
1 | 0:00.00 | 9:41.60 | 0 | 43634
2 | 9:41.60 | 7:51.37 | 43635 | 78996
3 | 17:33.22 | 3:54.03 | 78997 | 96549
4 | 21:27.25 | 5:55.50 | 96550 | 123224
5 | 27:23.00 | 13:43.27 | 123225 | 184976
6 | 41:06.27 | 15:11.08 | 184977 | 253309
7 | 56:17.35 | 5:22.35 | 253310 | 277494
8 | 61:39.70 | 11:35.59 | 277495 | 329678
Track 1
Filename E:\1111\Evgeni_Mravinsky_Edition.12CD\CD08\01 - Beethoven Symphony No.1 in C major, op.21 - I. Adagio molto - Allegro con brio.wav
Pre-gap length 0:00:02.00
Peak level 74.3 %
Track quality 100.0 %
Test CRC 21396DAE
Copy CRC 21396DAE
Accurately ripped (confidence 2) [00E70BA7]
Copy OK
Track 2
Filename E:\1111\Evgeni_Mravinsky_Edition.12CD\CD08\02 - Beethoven Symphony No.1 in C major, op.21 - II. Andante cantabile con moto.wav
Pre-gap length 0:00:01.60
Peak level 65.5 %
Track quality 100.0 %
Test CRC 6E65356B
Copy CRC 6E65356B
Accurately ripped (confidence 2) [FADCF1EE]
Copy OK
Track 3
Filename E:\1111\Evgeni_Mravinsky_Edition.12CD\CD08\03 - Beethoven Symphony No.1 in C major, op.21 - III. Menuetto. Allegro molto e vivace.wav
Pre-gap length 0:00:01.00
Peak level 83.1 %
Track quality 100.0 %
Test CRC 55426FE0
Copy CRC 55426FE0
Accurately ripped (confidence 2) [02893FC0]
Copy OK
Track 4
Filename E:\1111\Evgeni_Mravinsky_Edition.12CD\CD08\04 - Beethoven Symphony No.1 in C major, op.21 - IV. Finale. Adagio - Allegro molto e vivace.wav
Peak level 76.4 %
Track quality 100.0 %
Test CRC B9D01577
Copy CRC B9D01577
Accurately ripped (confidence 2) [7BA79AF8]
Copy OK
Track 5
Filename E:\1111\Evgeni_Mravinsky_Edition.12CD\CD08\05 - Beethoven Symphony No.3 in E flat major, op.55 'Eroica' - I. Allegro con brio.wav
Pre-gap length 0:00:07.68
Peak level 100.0 %
Track quality 100.0 %
Test CRC 92D4F0F5
Copy CRC 92D4F0F5
Accurately ripped (confidence 2) [2208A7F8]
Copy OK
Track 6
Filename E:\1111\Evgeni_Mravinsky_Edition.12CD\CD08\06 - Beethoven Symphony No.3 in E flat major, op.55 'Eroica' - II. Marcia funebre. Adagio assai.wav
Pre-gap length 0:00:05.37
Peak level 100.0 %
Track quality 100.0 %
Test CRC 54386B58
Copy CRC 54386B58
Accurately ripped (confidence 2) [8A1815DC]
Copy OK
Track 7
Filename E:\1111\Evgeni_Mravinsky_Edition.12CD\CD08\07 - Beethoven Symphony No.3 in E flat major, op.55 'Eroica' - III. Scherzo. Allegro vivace.wav
Pre-gap length 0:00:04.45
Peak level 98.9 %
Track quality 100.0 %
Test CRC D5B81C6D
Copy CRC D5B81C6D
Accurately ripped (confidence 2) [F4ED45E4]
Copy OK
Track 8
Filename E:\1111\Evgeni_Mravinsky_Edition.12CD\CD08\08 - Beethoven Symphony No.3 in E flat major, op.55 'Eroica' - IV. Finale. Allegro molto.wav
Peak level 96.6 %
Track quality 100.0 %
Test CRC 0425989A
Copy CRC 0425989A
Accurately ripped (confidence 2) [68D87577]
Copy OK
All tracks accurately ripped
No errors occurred
End of status report
CD09
Beethoven
01 - 04. Symphony No.5 in C minor op.67
1974/9/15, Grand Hall of Leningrad Philharmonic, Live, Monaural; RE: Semyon Shugal;
05 - 08. Symphony No.7 in A major op.92
1964/9/19, Grand Hall of Leningrad Philharmonic, Live, Monaural; RE: Aleksandr Grosman.
CUE CD09
REM GENRE Classical
REM DATE 2007
REM DISCID 660FDE08
REM COMMENT "ExactAudioCopy v0.99pb5"
PERFORMER "Leningrad Philharmonic Orchestra & Evgeny Mravinsky"
TITLE "Evgeny Mravinsky conducts the Leningrad Philharmonic Orchestra (Disc 9)"
FILE "01 - Beethoven Symphony No.5 in C minor, Op.67 - I. Allegro con brio.wav" WAVE
TRACK 01 AUDIO
TITLE "Beethoven Symphony No.5 in C minor, Op.67 - I. Allegro con brio "
PERFORMER "Leningrad Philharmonic Orchestra & Evgeny Mravinsky"
INDEX 01 00:00:00
TRACK 02 AUDIO
TITLE "Beethoven Symphony No.5 in C minor, Op.67 - II. Andante con moto"
PERFORMER "Leningrad Philharmonic Orchestra & Evgeny Mravinsky"
INDEX 00 07:23:65
FILE "02 - Beethoven Symphony No.5 in C minor, Op.67 - II. Andante con moto.wav" WAVE
INDEX 01 00:00:00
TRACK 03 AUDIO
TITLE "Beethoven Symphony No.5 in C minor, Op.67 - III. Allegro"
PERFORMER "Leningrad Philharmonic Orchestra & Evgeny Mravinsky"
INDEX 00 09:26:00
FILE "03 - Beethoven Symphony No.5 in C minor, Op.67 - III. Allegro.wav" WAVE
INDEX 01 00:00:00
FILE "04 - Beethoven Symphony No.5 in C minor, Op.67 - IV. Allegro.wav" WAVE
TRACK 04 AUDIO
TITLE "Beethoven Symphony No.5 in C minor, Op.67 - IV. Allegro"
PERFORMER "Leningrad Philharmonic Orchestra & Evgeny Mravinsky"
INDEX 01 00:00:00
TRACK 05 AUDIO
TITLE "Beethoven Symphony No.7 in A major, Op.92 - I. Poco sostenuto - Vivace"
PERFORMER "Leningrad Philharmonic Orchestra & Evgeny Mravinsky"
INDEX 00 08:41:15
FILE "05 - Beethoven Symphony No.7 in A major, Op.92 - I. Poco sostenuto - Vivace.wav" WAVE
INDEX 01 00:00:00
TRACK 06 AUDIO
TITLE "Beethoven Symphony No.7 in A major, Op.92 - II. Allegretto"
PERFORMER "Leningrad Philharmonic Orchestra & Evgeny Mravinsky"
INDEX 00 13:23:50
FILE "06 - Beethoven Symphony No.7 in A major, Op.92 - II. Allegretto.wav" WAVE
INDEX 01 00:00:00
TRACK 07 AUDIO
TITLE "Beethoven Symphony No.7 in A major, Op.92 - III. Presto"
PERFORMER "Leningrad Philharmonic Orchestra & Evgeny Mravinsky"
INDEX 00 08:09:55
FILE "07 - Beethoven Symphony No.7 in A major, Op.92 - III. Presto.wav" WAVE
INDEX 01 00:00:00
TRACK 08 AUDIO
TITLE "Beethoven Symphony No.7 in A major, Op.92 - IV. Allegro con brio"
PERFORMER "Leningrad Philharmonic Orchestra & Evgeny Mravinsky"
INDEX 00 08:24:08
FILE "08 - Beethoven Symphony No.7 in A major, Op.92 - IV. Allegro con brio.wav" WAVE
INDEX 01 00:00:00
Log CD09
Exact Audio Copy V0.99 prebeta 5 from 4. May 2009
EAC extraction logfile from 1. February 2010, 13:51
Leningrad Philharmonic Orchestra & Evgeny Mravinsky / Evgeny Mravinsky conducts the Leningrad Philharmonic Orchestra (Disc 9)
Used drive : PLEXTOR DVDR PX-800A Adapter: 1 ID: 0
Read mode : Secure
Utilize accurate stream : Yes
Defeat audio cache : Yes
Make use of C2 pointers : No
Read offset correction : 48
Overread into Lead-In and Lead-Out : No
Fill up missing offset samples with silence : Yes
Delete leading and trailing silent blocks : No
Null samples used in CRC calculations : No
Used interface : Native Win32 interface for Win NT & 2000
Gap handling : Appended to previous track
Used output format : User Defined Encoder
Selected bitrate : 1024 kBit/s
Quality : High
Add ID3 tag : No
Command line compressor : C:\Program Files\Exact Audio Copy\FLAC\FLAC.EXE
Additional command line options : -6 -V -T "ARTIST=%a" -T "TITLE=%t" -T "ALBUM=%g" -T "DATE=%y" -T "TRACKNUMBER=%n" -T "GENRE=%m" -T "COMMENT=%e" %s -o %d
TOC of the extracted CD
Track | Start | Length | Start sector | End sector
---------------------------------------------------------
1 | 0:00.00 | 7:26.30 | 0 | 33479
2 | 7:26.30 | 9:30.03 | 33480 | 76232
3 | 16:56.33 | 4:57.30 | 76233 | 98537
4 | 21:53.63 | 8:49.05 | 98538 | 138217
5 | 30:42.68 | 13:27.60 | 138218 | 198802
6 | 44:10.53 | 8:14.17 | 198803 | 235869
7 | 52:24.70 | 8:27.55 | 235870 | 273949
8 | 60:52.50 | 6:49.27 | 273950 | 304651
Track 1
Filename E:\1111\Evgeni_Mravinsky_Edition.12CD\CD09\01 - Beethoven Symphony No.5 in C minor, Op.67 - I. Allegro con brio.wav
Pre-gap length 0:00:02.00
Peak level 87.9 %
Track quality 100.0 %
Test CRC 9CB24510
Copy CRC 9CB24510
Accurately ripped (confidence 3) [B01364EC]
Copy OK
Track 2
Filename E:\1111\Evgeni_Mravinsky_Edition.12CD\CD09\02 - Beethoven Symphony No.5 in C minor, Op.67 - II. Andante con moto.wav
Pre-gap length 0:00:02.40
Peak level 89.4 %
Track quality 100.0 %
Test CRC D64DBBCA
Copy CRC D64DBBCA
Accurately ripped (confidence 3) [23BB42FE]
Copy OK
Track 3
Filename E:\1111\Evgeni_Mravinsky_Edition.12CD\CD09\03 - Beethoven Symphony No.5 in C minor, Op.67 - III. Allegro.wav
Pre-gap length 0:00:04.03
Peak level 77.0 %
Track quality 100.0 %
Test CRC BE01802C
Copy CRC BE01802C
Accurately ripped (confidence 3) [7016CCC7]
Copy OK
Track 4
Filename E:\1111\Evgeni_Mravinsky_Edition.12CD\CD09\04 - Beethoven Symphony No.5 in C minor, Op.67 - IV. Allegro.wav
Peak level 95.9 %
Track quality 100.0 %
Test CRC 74E8A3CE
Copy CRC 74E8A3CE
Accurately ripped (confidence 3) [E26B2421]
Copy OK
Track 5
Filename E:\1111\Evgeni_Mravinsky_Edition.12CD\CD09\05 - Beethoven Symphony No.7 in A major, Op.92 - I. Poco sostenuto - Vivace.wav
Pre-gap length 0:00:07.65
Peak level 84.7 %
Track quality 100.0 %
Test CRC 31E2FE08
Copy CRC 31E2FE08
Accurately ripped (confidence 3) [036CC6D1]
Copy OK
Track 6
Filename E:\1111\Evgeni_Mravinsky_Edition.12CD\CD09\06 - Beethoven Symphony No.7 in A major, Op.92 - II. Allegretto.wav
Pre-gap length 0:00:04.10
Peak level 85.8 %
Track quality 100.0 %
Test CRC B7370DAF
Copy CRC B7370DAF
Accurately ripped (confidence 3) [C1969351]
Copy OK
Track 7
Filename E:\1111\Evgeni_Mravinsky_Edition.12CD\CD09\07 - Beethoven Symphony No.7 in A major, Op.92 - III. Presto.wav
Pre-gap length 0:00:04.37
Peak level 81.2 %
Track quality 99.9 %
Test CRC 58918504
Copy CRC 58918504
Accurately ripped (confidence 3) [096C4B94]
Copy OK
Track 8
Filename E:\1111\Evgeni_Mravinsky_Edition.12CD\CD09\08 - Beethoven Symphony No.7 in A major, Op.92 - IV. Allegro con brio.wav
Pre-gap length 0:00:03.47
Peak level 89.0 %
Track quality 100.0 %
Test CRC FA700FDE
Copy CRC FA700FDE
Accurately ripped (confidence 3) [40F97A85]
Copy OK
All tracks accurately ripped
No errors occurred
End of status report
CD10
Beethoven
01 - 05. Symphony No.6 in F major op.68
1982/10/17, Grand Hall of Leningrad Philharmonic, Live; RE: Semyon Shugal
CUE CD10
REM GENRE Classical
REM DATE 2007
REM DISCID 49095E05
REM COMMENT "ExactAudioCopy v0.99pb5"
PERFORMER "Leningrad Philharmonic Orchestra & Evgeny Mravinsky"
TITLE "Evgeny Mravinsky conducts the Leningrad Philharmonic Orchestra (Disc 10)"
FILE "01 - Beethoven Symphony No.6 in F major, op.68 'Pastoral' - I. Allegro ma non troppo.wav" WAVE
TRACK 01 AUDIO
TITLE "Beethoven Symphony No.6 in F major, op.68 'Pastoral' - I. Allegro ma non troppo"
PERFORMER "Leningrad Philharmonic Orchestra & Evgeny Mravinsky"
INDEX 01 00:00:00
TRACK 02 AUDIO
TITLE "Beethoven Symphony No.6 in F major, op.68 'Pastoral' - II. Andante molto mosso "
PERFORMER "Leningrad Philharmonic Orchestra & Evgeny Mravinsky"
INDEX 00 09:41:65
FILE "02 - Beethoven Symphony No.6 in F major, op.68 'Pastoral' - II. Andante molto mosso.wav" WAVE
INDEX 01 00:00:00
FILE "03 - Beethoven Symphony No.6 in F major, op.68 'Pastoral' - III. Allegro.wav" WAVE
TRACK 03 AUDIO
TITLE "Beethoven Symphony No.6 in F major, op.68 'Pastoral' - III. Allegro"
PERFORMER "Leningrad Philharmonic Orchestra & Evgeny Mravinsky"
INDEX 01 00:00:00
FILE "04 - Beethoven Symphony No.6 in F major, op.68 'Pastoral' - IV. Allegro.wav" WAVE
TRACK 04 AUDIO
TITLE "Beethoven Symphony No.6 in F major, op.68 'Pastoral' - IV. Allegro"
PERFORMER "Leningrad Philharmonic Orchestra & Evgeny Mravinsky"
INDEX 01 00:00:00
FILE "05 - Beethoven Symphony No.6 in F major, op.68 'Pastoral' - V. Allegretto.wav" WAVE
TRACK 05 AUDIO
TITLE "Beethoven Symphony No.6 in F major, op.68 'Pastoral' - V. Allegretto"
PERFORMER "Leningrad Philharmonic Orchestra & Evgeny Mravinsky"
INDEX 01 00:00:00
Log CD10
Exact Audio Copy V0.99 prebeta 5 from 4. May 2009
EAC extraction logfile from 1. February 2010, 14:20
Leningrad Philharmonic Orchestra & Evgeny Mravinsky / Evgeny Mravinsky conducts the Leningrad Philharmonic Orchestra (Disc 10)
Used drive : PLEXTOR DVDR PX-800A Adapter: 1 ID: 0
Read mode : Secure
Utilize accurate stream : Yes
Defeat audio cache : Yes
Make use of C2 pointers : No
Read offset correction : 48
Overread into Lead-In and Lead-Out : No
Fill up missing offset samples with silence : Yes
Delete leading and trailing silent blocks : No
Null samples used in CRC calculations : No
Used interface : Native Win32 interface for Win NT & 2000
Gap handling : Appended to previous track
Used output format : User Defined Encoder
Selected bitrate : 1024 kBit/s
Quality : High
Add ID3 tag : No
Command line compressor : C:\Program Files\Exact Audio Copy\FLAC\FLAC.EXE
Additional command line options : -6 -V -T "ARTIST=%a" -T "TITLE=%t" -T "ALBUM=%g" -T "DATE=%y" -T "TRACKNUMBER=%n" -T "GENRE=%m" -T "COMMENT=%e" %s -o %d
TOC of the extracted CD
Track | Start | Length | Start sector | End sector
---------------------------------------------------------
1 | 0:00.00 | 9:47.50 | 0 | 44074
2 | 9:47.50 | 12:10.32 | 44075 | 98856
3 | 21:58.07 | 5:29.38 | 98857 | 123569
4 | 27:27.45 | 3:30.27 | 123570 | 139346
5 | 30:57.72 | 9:00.28 | 139347 | 179874
Track 1
Filename E:\1111\Evgeni_Mravinsky_Edition.12CD\CD10\01 - Beethoven Symphony No.6 in F major, op.68 'Pastoral' - I. Allegro ma non troppo.wav
Pre-gap length 0:00:02.00
Peak level 66.1 %
Track quality 100.0 %
Test CRC EEFBC0F3
Copy CRC EEFBC0F3
Accurately ripped (confidence 3) [0CFBE87E]
Copy OK
Track 2
Filename E:\1111\Evgeni_Mravinsky_Edition.12CD\CD10\02 - Beethoven Symphony No.6 in F major, op.68 'Pastoral' - II. Andante molto mosso.wav
Pre-gap length 0:00:05.60
Peak level 62.3 %
Track quality 100.0 %
Test CRC 719770A3
Copy CRC 719770A3
Accurately ripped (confidence 3) [3319E04F]
Copy OK
Track 3
Filename E:\1111\Evgeni_Mravinsky_Edition.12CD\CD10\03 - Beethoven Symphony No.6 in F major, op.68 'Pastoral' - III. Allegro.wav
Peak level 62.5 %
Track quality 100.0 %
Test CRC 0714BC77
Copy CRC 0714BC77
Accurately ripped (confidence 3) [AED6EBF5]
Copy OK
Track 4
Filename E:\1111\Evgeni_Mravinsky_Edition.12CD\CD10\04 - Beethoven Symphony No.6 in F major, op.68 'Pastoral' - IV. Allegro.wav
Peak level 97.0 %
Track quality 100.0 %
Test CRC CFDA4BC3
Copy CRC CFDA4BC3
Accurately ripped (confidence 3) [7805C844]
Copy OK
Track 5
Filename E:\1111\Evgeni_Mravinsky_Edition.12CD\CD10\05 - Beethoven Symphony No.6 in F major, op.68 'Pastoral' - V. Allegretto.wav
Peak level 100.0 %
Track quality 100.0 %
Test CRC BBA76340
Copy CRC BBA76340
Accurately ripped (confidence 3) [C57D8C59]
Copy OK
All tracks accurately ripped
No errors occurred
End of status report
CD11
Wagner
01. Gotterdammerung : Siegfried's funeral march;
02. Tristan und Isolde : Prelude & Liebestod;
03. Die Walkure - The ride of the Valkyries;
(01-03) - 1978/3/31, Grand Hall of Leningrad Philharmonic, Live; RE: Semyon Shugal;
04. Tannhauser : Ouverture
1982/1/31, Grand Hall of Leningrad Philharmonic, Live; RE: Semyon Shugal;
05-06. Lohengrin : Preludes to Acts I & III
1973/3/11, Grand Hall of Leningrad Philharmonic, Live, Monaural; RE: Kh. Minakova.
CUE CD11
REM GENRE Classical
REM DATE 2007
REM DISCID 570CA106
REM COMMENT "ExactAudioCopy v0.99pb5"
PERFORMER "Leningrad Philharmonic Orchestra & Evgeny Mravinsky"
TITLE "Evgeny Mravinsky conducts the Leningrad Philharmonic Orchestra (Disc 11)"
FILE "01 - Wagner Siegfried's Funeral March - Gotterdammerung.wav" WAVE
TRACK 01 AUDIO
TITLE "Wagner Siegfried's Funeral March - Gotterdammerung"
PERFORMER "Leningrad Philharmonic Orchestra & Evgeny Mravinsky"
INDEX 01 00:00:00
TRACK 02 AUDIO
TITLE "Wagner Prelude and Liebestod - Tristan und Isolde"
PERFORMER "Leningrad Philharmonic Orchestra & Evgeny Mravinsky"
INDEX 00 07:44:70
FILE "02 - Wagner Prelude and Liebestod - Tristan und Isolde.wav" WAVE
INDEX 01 00:00:00
TRACK 03 AUDIO
TITLE "Wagner The Ride of the Valkyries - Die Walkure"
PERFORMER "Leningrad Philharmonic Orchestra & Evgeny Mravinsky"
INDEX 00 16:57:35
FILE "03 - Wagner The Ride of the Valkyries - Die Walkure.wav" WAVE
INDEX 01 00:00:00
TRACK 04 AUDIO
TITLE "Wagner Overture - Tannhauser "
PERFORMER "Leningrad Philharmonic Orchestra & Evgeny Mravinsky"
INDEX 00 04:13:30
FILE "04 - Wagner Overture - Tannhauser.wav" WAVE
INDEX 01 00:00:00
TRACK 05 AUDIO
TITLE "Wagner Prelude to Act One - Lohengrin"
PERFORMER "Leningrad Philharmonic Orchestra & Evgeny Mravinsky"
INDEX 00 13:50:40
FILE "05 - Wagner Prelude to Act One - Lohengrin.wav" WAVE
INDEX 01 00:00:00
TRACK 06 AUDIO
TITLE "Wagner Prelude to Act Three - Lohengrin"
PERFORMER "Leningrad Philharmonic Orchestra & Evgeny Mravinsky"
INDEX 00 08:04:60
FILE "06 - Wagner Prelude to Act Three - Lohengrin.wav" WAVE
INDEX 01 00:00:00
Log CD11
Exact Audio Copy V0.99 prebeta 5 from 4. May 2009
EAC extraction logfile from 1. February 2010, 16:38
Leningrad Philharmonic Orchestra & Evgeny Mravinsky / Evgeny Mravinsky conducts the Leningrad Philharmonic Orchestra (Disc 11)
Used drive : PLEXTOR DVDR PX-800A Adapter: 1 ID: 0
Read mode : Secure
Utilize accurate stream : Yes
Defeat audio cache : Yes
Make use of C2 pointers : No
Read offset correction : 48
Overread into Lead-In and Lead-Out : No
Fill up missing offset samples with silence : Yes
Delete leading and trailing silent blocks : No
Null samples used in CRC calculations : No
Used interface : Native Win32 interface for Win NT & 2000
Gap handling : Appended to previous track
Used output format : User Defined Encoder
Selected bitrate : 1024 kBit/s
Quality : High
Add ID3 tag : No
Command line compressor : C:\Program Files\Exact Audio Copy\FLAC\FLAC.EXE
Additional command line options : -6 -V -T "ARTIST=%a" -T "TITLE=%t" -T "ALBUM=%g" -T "DATE=%y" -T "TRACKNUMBER=%n" -T "GENRE=%m" -T "COMMENT=%e" %s -o %d
TOC of the extracted CD
Track | Start | Length | Start sector | End sector
---------------------------------------------------------
1 | 0:00.00 | 7:49.60 | 0 | 35234
2 | 7:49.60 | 17:03.05 | 35235 | 111964
3 | 24:52.65 | 4:18.10 | 111965 | 131324
4 | 29:11.00 | 13:54.63 | 131325 | 193937
5 | 43:05.63 | 8:09.15 | 193938 | 230627
6 | 51:15.03 | 2:38.13 | 230628 | 242490
Track 1
Filename E:\1111\Evgeni_Mravinsky_Edition.12CD\CD11\01 - Wagner Siegfried's Funeral March - Gotterdammerung.wav
Pre-gap length 0:00:02.00
Peak level 100.0 %
Track quality 100.0 %
Test CRC 0CB8B465
Copy CRC 0CB8B465
Accurately ripped (confidence 4) [C440987F]
Copy OK
Track 2
Filename E:\1111\Evgeni_Mravinsky_Edition.12CD\CD11\02 - Wagner Prelude and Liebestod - Tristan und Isolde.wav
Pre-gap length 0:00:04.65
Peak level 84.5 %
Track quality 99.9 %
Test CRC 9F171F49
Copy CRC 9F171F49
Accurately ripped (confidence 4) [2DFDAACB]
Copy OK
Track 3
Filename E:\1111\Evgeni_Mravinsky_Edition.12CD\CD11\03 - Wagner The Ride of the Valkyries - Die Walkure.wav
Pre-gap length 0:00:05.45
Peak level 99.8 %
Track quality 100.0 %
Test CRC B528B036
Copy CRC B528B036
Accurately ripped (confidence 4) [40239DA8]
Copy OK
Track 4
Filename E:\1111\Evgeni_Mravinsky_Edition.12CD\CD11\04 - Wagner Overture - Tannhauser.wav
Pre-gap length 0:00:04.55
Peak level 86.3 %
Track quality 100.0 %
Test CRC 345BA209
Copy CRC 345BA209
Accurately ripped (confidence 4) [E4D95A75]
Copy OK
Track 5
Filename E:\1111\Evgeni_Mravinsky_Edition.12CD\CD11\05 - Wagner Prelude to Act One - Lohengrin.wav
Pre-gap length 0:00:04.23
Peak level 88.4 %
Track quality 100.0 %
Test CRC B5A91FDF
Copy CRC B5A91FDF
Accurately ripped (confidence 4) [05482E1A]
Copy OK
Track 6
Filename E:\1111\Evgeni_Mravinsky_Edition.12CD\CD11\06 - Wagner Prelude to Act Three - Lohengrin.wav
Pre-gap length 0:00:04.30
Peak level 94.0 %
Track quality 100.0 %
Test CRC D975F2E2
Copy CRC D975F2E2
Accurately ripped (confidence 4) [0EF778EB]
Copy OK
All tracks accurately ripped
No errors occurred
End of status report
CD12
Orchestra Rehearsal
01. Wagner. Tannhauser Ouverture
02. Wagner. Die Meistersinger von Nurnberg
1977/1/29, Grand Hall of Leningrad Philharmonic; RE: Semyon Shugal;
03. Evgeny Mravinsky on Life and Nature
1973/3, Recorded by Aleksandra Vavilina-Mravinskaya at the Dom Kino (House of Filmdom) in Colombo near Leningrad
CUE CD12
REM GENRE Classical
REM DATE 2007
REM DISCID 23084103
REM COMMENT "ExactAudioCopy v0.99pb5"
PERFORMER "Leningrad Philharmonic Orchestra & Evgeny Mravinsky"
TITLE "Evgeny Mravinsky conducts the Leningrad Philharmonic Orchestra (Disc 12)"
FILE "01 - Wagner Overture - Tannhauser (Orchestral rehearsal).wav" WAVE
TRACK 01 AUDIO
TITLE "Wagner Overture - Tannhauser (Orchestral rehearsal)"
PERFORMER "Leningrad Philharmonic Orchestra & Evgeny Mravinsky"
INDEX 01 00:00:00
TRACK 02 AUDIO
TITLE "Wagner Prelude - Die Meistersinger (Orchestral rehearsal)"
PERFORMER "Leningrad Philharmonic Orchestra & Evgeny Mravinsky"
INDEX 00 19:46:38
FILE "02 - Wagner Prelude - Die Meistersinger (Orchestral rehearsal).wav" WAVE
INDEX 01 00:00:00
TRACK 03 AUDIO
TITLE "Evgeny Mravinsky on Life and Nature"
PERFORMER "Leningrad Philharmonic Orchestra & Evgeny Mravinsky"
INDEX 00 09:49:03
FILE "03 - Evgeny Mravinsky on Life and Nature.wav" WAVE
INDEX 01 00:00:00
Log CD12
Exact Audio Copy V0.99 prebeta 5 from 4. May 2009
EAC extraction logfile from 2. February 2010, 10:32
Leningrad Philharmonic Orchestra & Evgeny Mravinsky / Evgeny Mravinsky conducts the Leningrad Philharmonic Orchestra (Disc 12)
Used drive : PLEXTOR DVDR PX-800A Adapter: 1 ID: 0
Read mode : Secure
Utilize accurate stream : Yes
Defeat audio cache : Yes
Make use of C2 pointers : No
Read offset correction : 48
Overread into Lead-In and Lead-Out : No
Fill up missing offset samples with silence : Yes
Delete leading and trailing silent blocks : No
Null samples used in CRC calculations : No
Used interface : Native Win32 interface for Win NT & 2000
Gap handling : Appended to previous track
Used output format : User Defined Encoder
Selected bitrate : 1024 kBit/s
Quality : High
Add ID3 tag : No
Command line compressor : C:\Program Files\Exact Audio Copy\FLAC\FLAC.EXE
Additional command line options : -6 -V -T "ARTIST=%a" -T "TITLE=%t" -T "ALBUM=%g" -T "DATE=%y" -T "TRACKNUMBER=%n" -T "GENRE=%m" -T "COMMENT=%e" %s -o %d
TOC of the extracted CD
Track | Start | Length | Start sector | End sector
---------------------------------------------------------
1 | 0:00.00 | 19:51.55 | 0 | 89379
2 | 19:51.55 | 9:59.18 | 89380 | 134322
3 | 29:50.73 | 5:22.65 | 134323 | 158537
Track 1
Filename E:\1111\Evgeni_Mravinsky_Edition.12CD\CD12\01 - Wagner Overture - Tannhauser (Orchestral rehearsal).wav
Pre-gap length 0:00:02.00
Peak level 90.0 %
Track quality 100.0 %
Test CRC 0E344270
Copy CRC 0E344270
Accurately ripped (confidence 3) [1C24C7FB]
Copy OK
Track 2
Filename E:\1111\Evgeni_Mravinsky_Edition.12CD\CD12\02 - Wagner Prelude - Die Meistersinger (Orchestral rehearsal).wav
Pre-gap length 0:00:05.17
Peak level 92.2 %
Track quality 100.0 %
Test CRC 04477890
Copy CRC 04477890
Accurately ripped (confidence 3) [014F9C1B]
Copy OK
Track 3
Filename E:\1111\Evgeni_Mravinsky_Edition.12CD\CD12\03 - Evgeny Mravinsky on Life and Nature.wav
Pre-gap length 0:00:10.15
Peak level 72.1 %
Track quality 100.0 %
Test CRC 66DB4AD6
Copy CRC 66DB4AD6
Accurately ripped (confidence 3) [4DB5CDFB]
Copy OK
All tracks accurately ripped
No errors occurred
End of status report
Доп. информация: Наименования треков, CUE, логи и даты под спойлером. Сканы в отдельной папке.
ЗКР АСО Ленинградской филармонии.
Все записи с концертов в Большом зале Ленинградской филармонии.
Эти записи получены через советскую внешнеторговую фирму Sovtelexport из Золотого фонда питерского радио.
Download
Для скачивания .torrent файлов необходима регистрация
Сайт не распространяет и не хранит электронные версии произведений, а лишь предоставляет доступ к создаваемому пользователями каталогу ссылок на торрент-файлы, которые содержат только списки хеш-сумм
[Профиль]  [ЛС] 

troppo

Стаж: 11 лет 4 месяца

Сообщений: 1520

troppo · 05-Ноя-09 00:33 (спустя 3 часа)

[Цитировать] 

самые лучшие и технически качественные записи Мравинского, самое последнее их переиздание...
Совершенно гениальное исполнение увертюры к "Тангейзеру"... (да простят меня вагнерианцы, но с этой записью мало кто вообще может "стать рядом". Да и "Майстерзингеры" замечательные!)
[Профиль]  [ЛС] 

GFox

Стаж: 11 лет 9 месяцев

Сообщений: 15034

GFox · 05-Ноя-09 20:26 (спустя 19 часов)

[Цитировать] 

Ещё бы кто этих корейцев правильно настраивать ЕАС научил:
Цитата:
읽기 방식 : 안전 (C2 가능, 정밀한 전송 가능, 캐쉬 무효 가능)
결합된 읽기/쓰기 오프셋 교정 : 0
С2 включён, комбинированное смещение чтения/записи 0.
[Профиль]  [ЛС] 

troppo

Стаж: 11 лет 4 месяца

Сообщений: 1520

troppo · 05-Ноя-09 20:30 (спустя 4 мин.)

[Цитировать] 

GFox писал(а):
Ещё бы кто этих корейцев правильно настраивать ЕАС научил
но на звук-то это ведь никак не влияет...!
[Профиль]  [ЛС] 

PANOVNIK

Стаж: 9 лет

Сообщений: 289


PANOVNIK · 05-Ноя-09 20:54 (спустя 23 мин.)

[Цитировать] 

GFox писал(а):
Цитата:
Ещё бы кто этих корейцев правильно настраивать ЕАС научил
OK!
[Профиль]  [ЛС] 

PANOVNIK

Стаж: 9 лет

Сообщений: 289


PANOVNIK · 22-Янв-10 19:20 (спустя 2 месяца 16 дней)

[Цитировать] 

Купил эту коробочку. Через месяц думаю сделать рипы и перезалить.
[Профиль]  [ЛС] 

juniorBro

Стаж: 9 лет 5 месяцев

Сообщений: 4


juniorBro · 31-Янв-10 14:21 (спустя 8 дней)

[Цитировать] 

ничего в этом деле не понимаю, поэтому подскажите-почему не выкладывать звук в формате mp3??? и как слушать после скачки,чем открывать!?
[Профиль]  [ЛС] 

PANOVNIK

Стаж: 9 лет

Сообщений: 289


PANOVNIK · 04-Фев-10 23:50 (спустя 4 дня)

[Цитировать] 

juniorBro спросил (а):
Цитата:
ничего в этом деле не понимаю, поэтому подскажите-почему не выкладывать звук в формате mp3??? и как слушать после скачки,чем открывать!?
Руководство пользователю. Что такое Monkey’s Audio (.ape)?
http://rutracker.org/forum/viewtopic.php?t=101251
[Профиль]  [ЛС] 

PANOVNIK

Стаж: 9 лет

Сообщений: 289


PANOVNIK · 21-Фев-10 18:28 (спустя 16 дней)

[Цитировать] 

Сделал рип со своих дисков. Вроде всё проверил и прослушал.
Торрент перезалит 21.10.2010.
[Профиль]  [ЛС] 

waldvogel

Стаж: 11 лет

Сообщений: 8272

waldvogel · 22-Фев-10 10:31 (спустя 16 часов)

[Цитировать] 

PANOVNIK
Согласно новым правилам, при оформлении раздач потрековых рипов требуется показывать CUE-файлы (под спойлерами, как и логи). Пожалуйста, дополните описание раздачи.
[Профиль]  [ЛС] 

PANOVNIK

Стаж: 9 лет

Сообщений: 289


PANOVNIK · 23-Фев-10 16:02 (спустя 1 день 5 часов)

[Цитировать] 

waldvogel писал(а):
Цитата:
Согласно новым правилам, при оформлении раздач потрековых рипов требуется показывать CUE-файлы (под спойлерами, как и логи). Пожалуйста, дополните описание раздачи.
Сделал.
[Профиль]  [ЛС] 

aLEXis013

Стаж: 9 лет 3 месяца

Сообщений: 6

aLEXis013 · 27-Фев-10 16:51 (спустя 4 дня)

[Цитировать] 

CD 1 Шостакович на Д миноре - Модерато какая-то сволочь в фоне покашливает. А в общем звук хороший и впечатление от прослушивания тоже.
[Профиль]  [ЛС] 

InkuBy

Стаж: 8 лет 9 месяцев

Сообщений: 84

InkuBy · 04-Сен-10 18:24 (спустя 6 месяцев, ред. 04-Сен-10 18:24)

[Цитировать] 

aLEXis013 писал(а):
CD 1 Шостакович на Д миноре - Модерато какая-то сволочь в фоне покашливает. А в общем звук хороший и впечатление от прослушивания тоже.
да... сволочь ещё та!!! нет бы в каком-нибудь пафосном моменте с тутти меди...
спасибо большое!!! Мравинский - гений!
исправьте только пожалуйста заголовок, где написано, что рип - образ ape...
[Профиль]  [ЛС] 

troppo

Стаж: 11 лет 4 месяца

Сообщений: 1520

troppo · 04-Сен-10 19:25 (спустя 1 час)

[Цитировать] 

InkuBy писал(а):
исправьте только пожалуйста заголовок, где написано, что рип - образ ape...
да, ошибочка (возможно, после перезаливки торрента...)!
[Профиль]  [ЛС] 

PANOVNIK

Стаж: 9 лет

Сообщений: 289


PANOVNIK · 10-Сен-10 18:24 (спустя 5 дней)

[Цитировать] 

InkuBy писал(а):
Цитата:
исправьте только пожалуйста заголовок, где написано, что рип - образ ape...
Исправил. СПАСИБО!
А кашляют - климат такой в Питере.
[Профиль]  [ЛС] 

Л. М. Гога

VIP (Заслуженный)

Стаж: 9 лет 11 месяцев

Сообщений: 15865

Л. М. Гога · 22-Фев-11 17:19 (спустя 5 месяцев 11 дней)

[Цитировать] 

Спасибо!
GFox писал(а):
Ещё бы кто этих корейцев правильно настраивать ЕАС научил
Так надо нашу инструкцию перевести на корейский и заслать им. Равно, как и в Китай.
aLEXis013 писал(а):
CD 1 Шостакович на Д миноре - Модерато какая-то сволочь в фоне покашливает.
InkuBy писал(а):
нет бы в каком-нибудь пафосном моменте с тутти меди...
Там, где пафосные моменты с тутти меди, тоже кашляют, просто это не слышно.
[Профиль]  [ЛС] 

GFox

Стаж: 11 лет 9 месяцев

Сообщений: 15034

GFox · 22-Фев-11 21:45 (спустя 4 часа)

[Цитировать] 

Л. М. Гога писал(а):
Так надо нашу инструкцию перевести на корейский и заслать им. Равно, как и в Китай.
Займётесь?
[Профиль]  [ЛС] 

Л. М. Гога

VIP (Заслуженный)

Стаж: 9 лет 11 месяцев

Сообщений: 15865

Л. М. Гога · 23-Фев-11 01:13 (спустя 3 часа, ред. 23-Фев-11 01:13)

[Цитировать] 

Нe... корейским на таком уровне не владею...
[Профиль]  [ЛС] 

ars1986

Top Seed 01* 40r

Стаж: 11 лет 6 месяцев

Сообщений: 716

ars1986 · 23-Июн-11 12:45 (спустя 4 месяца)

[Цитировать] 

Отлчие 10ой со второго диска в этой раздаче от вот этой http://rutracker.org/forum/viewtopic.php?t=270984 есть какое-нибудь?
[Профиль]  [ЛС] 

PANOVNIK

Стаж: 9 лет

Сообщений: 289


PANOVNIK · 30-Июн-11 18:34 (спустя 7 дней)

[Цитировать] 

ars1986 писал(а):
Цитата:
Отлчие 10ой со второго диска в этой раздаче от вот этой http://rutracker.org/forum/viewtopic.php?t=270984 есть какое-нибудь?
Тоже самое.
[Профиль]  [ЛС] 

da02111906

Стаж: 8 лет 3 месяца

Сообщений: 52


da02111906 · 21-Окт-11 17:48 (спустя 3 месяца 20 дней)

[Цитировать] 

Уважаемый автор выкладки, в содержании CD 11 ошибочно
"05-06. Lohengrin : Preludes to Acts I & II",
а надо, разумеется, "to Acts I & III".
[Профиль]  [ЛС] 

artart2

Стаж: 11 лет 1 месяц

Сообщений: 551


artart2 · 15-Июн-12 07:56 (спустя 7 месяцев)

[Цитировать] 

уххх кайф получил
спсибочки
[Профиль]  [ЛС] 

vadimmus

Стаж: 10 лет 7 месяцев

Сообщений: 1920

vadimmus · 19-Июн-12 19:46 (спустя 4 дня)

[Цитировать] 

Сейчас слушаю 6 Бетховена в исполнении Е.А. - очень впечатляет, но в одном месте, увы, дорожка перескачила где-то такта на 3 вперёд (это не данная раздача).
Интересно, здесь нет такой фигни!?
Кстати, здесь записи - моно, стерео или вперемежку???
(кстати, к слову о кашле на концерте - видимо, причина ещё и в очень близком расположении микрофонов к зрителям, а также (это моё предположение) - чрезвычайно расширенная панорама)
[Профиль]  [ЛС] 

alexlekh

Стаж: 9 лет 5 месяцев

Сообщений: 436


alexlekh · 16-Янв-14 10:07 (спустя 1 год 6 месяцев, ред. 16-Янв-14 12:52)

[Цитировать] 

aLEXis013 писал(а):
32708255CD 1 Шостакович на Д миноре - Модерато какая-то сволочь в фоне покашливает
Это дело можно исправить в iZotope RX2
Вот исправленный файл
скрытый текст
[Профиль]  [ЛС] 
 
Ответить
Loading...
Error