(Pop, Latin) Ricky Martin - A Medio Vivir - 1995, FLAC (tracks+.cue), lossless

Страницы:  1

Ответить
Автор
Сообщение

Shwartzenegger

VIP (Заслуженный)

Стаж: 9 лет 7 месяцев

Сообщений: 2464

Shwartzenegger · 29-Мар-09 01:51 (9 лет 1 месяц назад, ред. 01-Апр-12 23:07)

Ricky Martin - A Medio Vivir

Жанр
: Pop, Latin
Страна-производитель диска: USA
Год издания диска: 1995
Издатель (лейбл): Sony Latin
Номер по каталогу: CDZ-81651/2-479882
Страна: USA
Аудио кодек: FLAC (*.flac)
Тип рипа: tracks+.cue
Битрейт аудио: lossless
Продолжительность: 00:52:41
Источник (релизер): Собственный диск, Shwartzenegger
Наличие сканов в содержимом раздачи: нет
Трэклист:
01. Fugeo De Noche, Nieva De Dia (05:37)
02. A Medio Vivir (04:42)
03. Maria (04:25)
04. Te Extrano, Te Olvido, Te Amo (04:41)
05. Donde Estaras (03:51)
06. Volveras (04:52)
07. Revolucion (03:51)
08. Somos La Semilla (03:56)
09. Como Decirte Adios (03:00)
10. Bombon De Azucar (05:00)
11. Corazon (04:21)
12. Nada Es Imposible (04:18)

Лог создания рипа
Exact Audio Copy V1.0 beta 3 from 29. August 2011
EAC extraction logfile from 1. April 2012, 21:09
Ricky Martin / A Medio Vivir
Used drive : _NEC DVD_RW ND-4571A Adapter: 0 ID: 0
Read mode : Secure
Utilize accurate stream : Yes
Defeat audio cache : Yes
Make use of C2 pointers : No
Read offset correction : 48
Overread into Lead-In and Lead-Out : No
Fill up missing offset samples with silence : Yes
Delete leading and trailing silent blocks : No
Null samples used in CRC calculations : Yes
Used interface : Native Win32 interface for Win NT & 2000
Gap handling : Appended to previous track
Used output format : Internal WAV Routines
Sample format : 44.100 Hz; 16 Bit; Stereo
TOC of the extracted CD
Track | Start | Length | Start sector | End sector
---------------------------------------------------------
1 | 0:00.00 | 5:37.50 | 0 | 25324
2 | 5:37.50 | 4:42.40 | 25325 | 46514
3 | 10:20.15 | 4:25.60 | 46515 | 66449
4 | 14:46.00 | 4:41.53 | 66450 | 87577
5 | 19:27.53 | 3:51.65 | 87578 | 104967
6 | 23:19.43 | 4:52.45 | 104968 | 126912
7 | 28:12.13 | 3:51.35 | 126913 | 144272
8 | 32:03.48 | 3:56.40 | 144273 | 162012
9 | 36:00.13 | 3:00.42 | 162013 | 175554
10 | 39:00.55 | 5:00.18 | 175555 | 198072
11 | 44:00.73 | 4:21.50 | 198073 | 217697
12 | 48:22.48 | 4:18.52 | 217698 | 237099
Track 1
Filename C:\Documents and Settings\Schwarzenegger\Рабочий стол\EAC\01 Fuego De Noche, Nieve De Dia.wav
Pre-gap length 0:00:02.00
Peak level 100.0 %
Extraction speed 2.8 X
Track quality 99.9 %
Test CRC 2C4A3440
Copy CRC 2C4A3440
Cannot be verified as accurate (confidence 4) [1FA559DD], AccurateRip returned [EC9BBFB7] (AR v2)
Copy OK
Track 2
Filename C:\Documents and Settings\Schwarzenegger\Рабочий стол\EAC\02 A Medio Vivir.wav
Pre-gap length 0:00:01.67
Peak level 100.0 %
Extraction speed 3.1 X
Track quality 99.9 %
Test CRC 36DF1DEB
Copy CRC 36DF1DEB
Cannot be verified as accurate (confidence 4) [3460C79C], AccurateRip returned [FE0B0129] (AR v2)
Copy OK
Track 3
Filename C:\Documents and Settings\Schwarzenegger\Рабочий стол\EAC\03 Maria.wav
Pre-gap length 0:00:00.67
Peak level 100.0 %
Extraction speed 3.7 X
Track quality 100.0 %
Test CRC F54B3F9C
Copy CRC F54B3F9C
Cannot be verified as accurate (confidence 5) [8E7C865B], AccurateRip returned [0998B9FD] (AR v2)
Copy OK
Track 4
Filename C:\Documents and Settings\Schwarzenegger\Рабочий стол\EAC\04 Te Extraсo, Te Olvido, Te Amo.wav
Pre-gap length 0:00:03.17
Peak level 100.0 %
Extraction speed 4.0 X
Track quality 100.0 %
Test CRC 16D843CA
Copy CRC 16D843CA
Cannot be verified as accurate (confidence 4) [5A7503C2], AccurateRip returned [9E7016E8] (AR v2)
Copy OK
Track 5
Filename C:\Documents and Settings\Schwarzenegger\Рабочий стол\EAC\05 Donde Estaras.wav
Pre-gap length 0:00:02.53
Peak level 100.0 %
Extraction speed 4.2 X
Track quality 100.0 %
Test CRC 5823DC71
Copy CRC 5823DC71
Cannot be verified as accurate (confidence 4) [B8F85DE2], AccurateRip returned [90703244] (AR v2)
Copy OK
Track 6
Filename C:\Documents and Settings\Schwarzenegger\Рабочий стол\EAC\06 Volveras.wav
Pre-gap length 0:00:02.50
Peak level 100.0 %
Extraction speed 4.6 X
Track quality 100.0 %
Test CRC 2ED533EE
Copy CRC 2ED533EE
Cannot be verified as accurate (confidence 4) [8D21EDBE], AccurateRip returned [C01395F1] (AR v2)
Copy OK
Track 7
Filename C:\Documents and Settings\Schwarzenegger\Рабочий стол\EAC\07 Revolucion.wav
Pre-gap length 0:00:02.35
Peak level 100.0 %
Extraction speed 4.7 X
Track quality 100.0 %
Test CRC EAAF49A2
Copy CRC EAAF49A2
Cannot be verified as accurate (confidence 4) [5FC5F2CC], AccurateRip returned [DB0D30C2] (AR v2)
Copy OK
Track 8
Filename C:\Documents and Settings\Schwarzenegger\Рабочий стол\EAC\08 Somos La Semilla.wav
Pre-gap length 0:00:02.28
Peak level 100.0 %
Extraction speed 4.8 X
Track quality 100.0 %
Test CRC 1F5130A0
Copy CRC 1F5130A0
Cannot be verified as accurate (confidence 4) [32E8B6F1], AccurateRip returned [B64DC757] (AR v2)
Copy OK
Track 9
Filename C:\Documents and Settings\Schwarzenegger\Рабочий стол\EAC\09 Como Decirte Adios.wav
Pre-gap length 0:00:03.53
Peak level 100.0 %
Extraction speed 4.1 X
Track quality 99.9 %
Test CRC 05BA9164
Copy CRC 05BA9164
Cannot be verified as accurate (confidence 4) [9F356EDE], AccurateRip returned [BCDC088F] (AR v2)
Copy OK
Track 10
Filename C:\Documents and Settings\Schwarzenegger\Рабочий стол\EAC\10 Bombom De Azucar.wav
Pre-gap length 0:00:03.10
Peak level 100.0 %
Extraction speed 5.3 X
Track quality 100.0 %
Test CRC 2D7A1B11
Copy CRC 2D7A1B11
Cannot be verified as accurate (confidence 4) [608F1DCA], AccurateRip returned [BCF7A086] (AR v2)
Copy OK
Track 11
Filename C:\Documents and Settings\Schwarzenegger\Рабочий стол\EAC\11 Corazon.wav
Pre-gap length 0:00:02.25
Peak level 100.0 %
Extraction speed 4.3 X
Track quality 99.9 %
Test CRC F885CA86
Copy CRC F885CA86
Cannot be verified as accurate (confidence 4) [48981A36], AccurateRip returned [21484758] (AR v2)
Copy OK
Track 12
Filename C:\Documents and Settings\Schwarzenegger\Рабочий стол\EAC\12 Nada Es Imposible.wav
Pre-gap length 0:00:03.13
Peak level 100.0 %
Extraction speed 5.7 X
Track quality 100.0 %
Test CRC FBFC5BCA
Copy CRC FBFC5BCA
Cannot be verified as accurate (confidence 4) [06189495], AccurateRip returned [91D8A4B8] (AR v2)
Copy OK
No tracks could be verified as accurate
You may have a different pressing from the one(s) in the database
No errors occurred
End of status report
Содержание индексной карты (.CUE)
REM GENRE "Latin Pop"
REM DATE 1995
REM DISCID A20C590C
REM COMMENT "ExactAudioCopy v1.0b3"
PERFORMER "Ricky Martin"
TITLE "A Medio Vivir"
FILE "01. Fugeo De Noche, Nieva De Dia.wav" WAVE
TRACK 01 AUDIO
TITLE "Fuego De Noche, Nieve De Dia"
PERFORMER "Ricky Martin"
INDEX 01 00:00:00
TRACK 02 AUDIO
TITLE "A Medio Vivir"
PERFORMER "Ricky Martin"
INDEX 00 05:35:58
FILE "02. A Medio Vivir.wav" WAVE
INDEX 01 00:00:00
TRACK 03 AUDIO
TITLE "Maria"
PERFORMER "Ricky Martin"
INDEX 00 04:41:48
FILE "03. Maria.wav" WAVE
INDEX 01 00:00:00
TRACK 04 AUDIO
TITLE "Te Extraсo, Te Olvido, Te Amo"
PERFORMER "Ricky Martin"
INDEX 00 04:22:43
FILE "04. Te Extrano, Te Olvido, Te Amo.wav" WAVE
INDEX 01 00:00:00
TRACK 05 AUDIO
TITLE "Donde Estaras"
PERFORMER "Ricky Martin"
INDEX 00 04:39:00
FILE "05. Donde Estaras.wav" WAVE
INDEX 01 00:00:00
TRACK 06 AUDIO
TITLE "Volveras"
PERFORMER "Ricky Martin"
INDEX 00 03:49:15
FILE "06. Volveras.wav" WAVE
INDEX 01 00:00:00
TRACK 07 AUDIO
TITLE "Revolucion"
PERFORMER "Ricky Martin"
INDEX 00 04:50:10
FILE "07. Revolucion.wav" WAVE
INDEX 01 00:00:00
TRACK 08 AUDIO
TITLE "Somos La Semilla"
PERFORMER "Ricky Martin"
INDEX 00 03:49:07
FILE "08. Somos La Semilla.wav" WAVE
INDEX 01 00:00:00
TRACK 09 AUDIO
TITLE "Como Decirte Adios"
PERFORMER "Ricky Martin"
INDEX 00 03:52:62
FILE "09. Como Decirte Adios.wav" WAVE
INDEX 01 00:00:00
TRACK 10 AUDIO
TITLE "Bombom De Azucar"
PERFORMER "Ricky Martin"
INDEX 00 02:57:32
FILE "10. Bombon De Azucar.wav" WAVE
INDEX 01 00:00:00
TRACK 11 AUDIO
TITLE "Corazon"
PERFORMER "Ricky Martin"
INDEX 00 04:57:68
FILE "11. Corazon.wav" WAVE
INDEX 01 00:00:00
TRACK 12 AUDIO
TITLE "Nada Es Imposible"
PERFORMER "Ricky Martin"
INDEX 00 04:18:37
FILE "12. Nada Es Imposible.wav" WAVE
INDEX 01 00:00:00
Download
Для скачивания .torrent файлов необходима регистрация
Сайт не распространяет и не хранит электронные версии произведений, а лишь предоставляет доступ к создаваемому пользователями каталогу ссылок на торрент-файлы, которые содержат только списки хеш-сумм
[Профиль]  [ЛС] 

relaxat

Стаж: 9 лет 4 месяца

Сообщений: 140

relaxat · 19-Янв-11 00:58 (спустя 1 год 9 месяцев)

[Цитировать] 

Новый клип Рики Мартина http://rutracker.org/forum/viewtopic.php?t=3378454
[Профиль]  [ЛС] 

Shwartzenegger

VIP (Заслуженный)

Стаж: 9 лет 7 месяцев

Сообщений: 2464

Shwartzenegger · 01-Апр-12 23:09 (спустя 1 год 2 месяца)

[Цитировать] 

Перезалил. Заменил APE (image + .cue) на более популярный FLAC (tracks+.cue)
[Профиль]  [ЛС] 

kanom

Стаж: 5 лет 10 месяцев

Сообщений: 2


kanom · 15-Янв-15 21:43 (спустя 2 года 9 месяцев)

[Цитировать] 

muy buen aporte gracias
[Профиль]  [ЛС] 

mr.nikitin

Стаж: 1 год 1 месяц

Сообщений: 50


mr.nikitin · 24-Июн-17 13:39 (спустя 2 года 5 месяцев)

[Цитировать] 

Мой любимый испаноязычный альбом Рики! Большое спасибо!
[Профиль]  [ЛС] 
 
Ответить
Loading...
Error