(Pop, Latin) Ricky Martin - The Cup Of Life (Maxi-Single) - 1998, FLAC (image+.cue), lossless

Страницы:  1

Ответить
Автор
Сообщение

alex-altai

VIP (Заслуженный)

Стаж: 11 лет 3 месяца

Сообщений: 1717

alex-altai · 07-Мар-09 23:19 (9 лет 4 месяца назад, ред. 07-Мар-09 23:20)

Ricky Martin - The Cup Of Life (Maxi-Single)
Жанр: Pop, Latin
Год выпуска диска: 1998
Производитель диска: Austria
Аудио кодек: FLAC
Тип рипа: image+.cue
Битрейт аудио: lossless
Продолжительность: 00:22:18

Треклист:
01. The Cup Of Life (4:33)
02. The Cup Of Life (Remix - Long Version) (8:40)
03. La Copa De La Vida (Spanglish Remix - Radio Edit) (4:38)
04. La Copa De La Vida (Album Version) (4:28)
Отчёт EAC
Exact Audio Copy V0.99 prebeta 4 from 23. January 2008
Отчёт EAC об извлечении, выполненном 6. марта 2009, 20:50
Ricky Martin / The Cup Of Life
Дисковод: TSSTcorpDVD-ROM SH-D162C Adapter: 2 ID: 1
Режим чтения : Достоверность
Использование точного потока : Да
Отключение кэша аудио : Да
Использование указателей C2 : Нет
Коррекция смещения при чтении : 6
Способность читать области Lead-in и Lead-out : Нет
Заполнение пропущенных сэмплов тишиной : Да
Удаление блоков с тишиной в начале и конце : Нет
При вычислениях CRC использовались нулевые сэмплы : Да
Интерфейс : Установленный внешний ASPI-интерфейс
Выходной формат : Внутренние WAV-операции
Формат сэмплов : 44.100 Гц; 16 бит; стерео
TOC извлечённого CD
Трек | Старт | Длительность | Начальный сектор | Конечный сектор
---------------------------------------------------------------------
1 | 0:00.00 | 4:32.70 | 0 | 20469
2 | 4:32.70 | 8:40.07 | 20470 | 59476
3 | 13:13.02 | 4:38.03 | 59477 | 80329
4 | 17:51.05 | 4:27.60 | 80330 | 100414
Характеристики диапазона извлечения и сообщения об ошибках
Выбранный диапазон
Имя файла K:\Lossless\1998.Ricky Martin - The Cup Of Life (Maxi)\Ricky Martin - The Cup Of Life.wav
Пиковый уровень 100.0 %
Качество диапазона 100.0 %
CRC теста 414E28C4
CRC копии 414E28C4
Копирование... OK
Ошибок не произошло
AccurateRip: сводка
Трек 1 точное извлечение (доверие 7) [8A4A6957]
Трек 2 точное извлечение (доверие 7) [7ABDC99C]
Трек 3 точное извлечение (доверие 7) [29822423]
Трек 4 точное извлечение (доверие 6) [FD3A686B]
Все треки извлечены точно
Конец отчёта
Download
Для скачивания .torrent файлов необходима регистрация
Сайт не распространяет и не хранит электронные версии произведений, а лишь предоставляет доступ к создаваемому пользователями каталогу ссылок на торрент-файлы, которые содержат только списки хеш-сумм
[Профиль]  [ЛС] 

dolfik

Стаж: 10 лет 2 месяца

Сообщений: 76

dolfik · 30-Мар-09 14:43 (спустя 23 дня)

[Цитировать] 

извиняюсь за оффтоп, обложка чем нарисована?
[Профиль]  [ЛС] 

relaxat

Стаж: 9 лет 6 месяцев

Сообщений: 140

relaxat · 19-Янв-11 01:00 (спустя 1 год 9 месяцев)

[Цитировать] 

Новый клип Мартина http://rutracker.org/forum/viewtopic.php?t=3378454
[Профиль]  [ЛС] 

tonybandana

Стаж: 7 лет 4 месяца

Сообщений: 15

tonybandana · 10-Окт-11 17:27 (спустя 8 месяцев, ред. 13-Окт-11 13:35)

[Цитировать] 

А-Ууу-у...!!!Дайте песню Кубка ЧМ-1998 скачать
Большое СПАСИБО!
[Профиль]  [ЛС] 
 
Ответить
Loading...
Error