ПРОСЬБА К ЮЗЕРАМ, ПОМОЧЬ МОДЕРАТОРАМ

Страницы :   Пред.  1, 2, 3 ... , 56, 57, 58  След.

Ответить
Автор
Сообщение

КОГОТЬ

Top Seed 02* 80r

Стаж: 9 лет 1 месяц

Сообщений: 1512

КОГОТЬ · 20-Фев-18 02:44 (4 месяца 25 дней назад)

[Цитировать] 

г о т о в о
http://rutracker.org/forum/viewtopic.php?t=3258957
постер
Код:
[img=right]http://i1.imageban.ru/out/2018/02/19/53f3f98e74a6739d00c07d73489760fd.jpg[/img]
скрины
Код:
[align=center][URL=http://imageban.ru/show/2018/02/19/0ec1dccd79b623b47bf0a6dc005abc0b/png][IMG]http://i5.imageban.ru/thumbs/2018.02.19/0ec1dccd79b623b47bf0a6dc005abc0b.png[/IMG][/URL] [URL=http://imageban.ru/show/2018/02/19/54378af00ca5a622a05498b332069347/png][IMG]http://i5.imageban.ru/thumbs/2018.02.19/54378af00ca5a622a05498b332069347.png[/IMG][/URL] [URL=http://imageban.ru/show/2018/02/19/0e2e20c5ae43b85132578e85562b9ca8/png][IMG]http://i6.imageban.ru/thumbs/2018.02.19/0e2e20c5ae43b85132578e85562b9ca8.png[/IMG][/URL]
[URL=http://imageban.ru/show/2018/02/19/b99dbea5a6bbdebb6a49e78e90ca4ea9/png][IMG]http://i2.imageban.ru/thumbs/2018.02.19/b99dbea5a6bbdebb6a49e78e90ca4ea9.png[/IMG][/URL] [URL=http://imageban.ru/show/2018/02/19/eaa65e718437d4f69bf2382ae1a185fa/png][IMG]http://i2.imageban.ru/thumbs/2018.02.19/eaa65e718437d4f69bf2382ae1a185fa.png[/IMG][/URL] [URL=http://imageban.ru/show/2018/02/19/cdb6624b692f4e4f255b567f950e7c1d/png][IMG]http://i2.imageban.ru/thumbs/2018.02.19/cdb6624b692f4e4f255b567f950e7c1d.png[/IMG][/URL]
[URL=http://imageban.ru/show/2018/02/19/64b8f00c1418e0ba8f5fd1d69a1708b9/png][IMG]http://i3.imageban.ru/thumbs/2018.02.19/64b8f00c1418e0ba8f5fd1d69a1708b9.png[/IMG][/URL] [URL=http://imageban.ru/show/2018/02/19/3d4d55eefe024def5a15028acfa6cf45/png][IMG]http://i1.imageban.ru/thumbs/2018.02.19/3d4d55eefe024def5a15028acfa6cf45.png[/IMG][/URL] [URL=http://imageban.ru/show/2018/02/19/587bac71c8236f7cbc3c021d40eed3d2/png][IMG]http://i2.imageban.ru/thumbs/2018.02.19/587bac71c8236f7cbc3c021d40eed3d2.png[/IMG][/URL][/align]
[Профиль]  [ЛС] 

<Security>

Стаж: 7 лет 8 месяцев

Сообщений: 114

<Security> · 24-Фев-18 21:43 (спустя 4 дня)

[Цитировать] 

Кидалы
Постер
Код:
http://i102.fastpic.ru/big/2018/0224/3d/5ff5fc815a3c8e71e3c8203046c08e3d.jpg
Скриншоты
Код:
[URL=http://fastpic.ru/view/102/2018/0224/18dd277a0d934303564b5202449ff031.jpg.html][IMG]http://i102.fastpic.ru/thumb/2018/0224/31/18dd277a0d934303564b5202449ff031.jpeg[/IMG][/URL]
[URL=http://fastpic.ru/view/102/2018/0224/36a6d6252ad88bf2300174e290ccb987.jpg.html][IMG]http://i102.fastpic.ru/thumb/2018/0224/87/36a6d6252ad88bf2300174e290ccb987.jpeg[/IMG][/URL]
[URL=http://fastpic.ru/view/99/2018/0224/e1209d6cd01dd1fcbc1855cdf15f3b77.jpg.html][IMG]http://i99.fastpic.ru/thumb/2018/0224/77/e1209d6cd01dd1fcbc1855cdf15f3b77.jpeg[/IMG][/URL]
[URL=http://fastpic.ru/view/103/2018/0224/b145c32b55d654202cee1e21a72dd8fb.jpg.html][IMG]http://i103.fastpic.ru/thumb/2018/0224/fb/b145c32b55d654202cee1e21a72dd8fb.jpeg[/IMG][/URL]
[URL=http://fastpic.ru/view/99/2018/0224/3313678ab8ae16111a788049d9c2ac83.jpg.html][IMG]http://i99.fastpic.ru/thumb/2018/0224/83/3313678ab8ae16111a788049d9c2ac83.jpeg[/IMG][/URL]
[URL=http://fastpic.ru/view/100/2018/0224/6ed90d8a8a76e01eadd898ecee22ac57.jpg.html][IMG]http://i100.fastpic.ru/thumb/2018/0224/57/6ed90d8a8a76e01eadd898ecee22ac57.jpeg[/IMG][/URL]
[URL=http://fastpic.ru/view/99/2018/0224/90adbe5c405711a186e81d2bc2fa1929.jpg.html][IMG]http://i99.fastpic.ru/thumb/2018/0224/29/90adbe5c405711a186e81d2bc2fa1929.jpeg[/IMG][/URL]
[URL=http://fastpic.ru/view/103/2018/0224/16a5374a8114f49016b333cd1eeaeb04.jpg.html][IMG]http://i103.fastpic.ru/thumb/2018/0224/04/16a5374a8114f49016b333cd1eeaeb04.jpeg[/IMG][/URL]
MediaInfo
Код:
Общее
Полное имя                               : The Grifters.1990.HDRip.avi
Формат                                   : AVI
Формат/Информация                        : Audio Video Interleave
Размер файла                             : 1,46 Гбайт
Продолжительность                        : 1 ч. 50 м.
Общий поток                              : 1893 Кбит/сек
Программа кодирования                    : VirtualDubMod 1.5.10.2 (build 2540/release)
Библиотека кодирования                   : VirtualDubMod build 2540/release
Видео
Идентификатор                            : 0
Формат                                   : MPEG-4 Visual
Профиль формата                          : Advanced [email protected]
Настройки формата                        : BVOP1 / Custom Matrix
Параметр BVOP формата                    : 1
Параметр QPel формата                    : Нет
Параметр GMC формата                     : Без точки перехода
Параметр матрицы формата                 : Выборочная
Идентификатор кодека                     : XVID
Идентификатор кодека/Подсказка           : XviD
Продолжительность                        : 1 ч. 50 м.
Битрейт                                  : 1436 Кбит/сек
Ширина                                   : 704 пикселя
Высота                                   : 384 пикселя
Соотношение сторон                       : 1,85:1
Частота кадров                           : 23,976 (24000/1001) кадра/сек
Цветовое пространство                    : YUV
Субдискретизация насыщенности            : 4:2:0
Битовая глубина                          : 8 бит
Тип развёртки                            : Прогрессивная
Метод сжатия                             : С потерями
Бит/(Пиксели*Кадры)                      : 0.221
Размер потока                            : 1,11 Гбайт (76%)
Библиотека кодирования                   : XviD 1.2.1 (UTC 2008-12-04)
Аудио
Идентификатор                            : 1
Формат                                   : AC-3
Формат/Информация                        : Audio Coding 3
Идентификатор кодека                     : 2000
Продолжительность                        : 1 ч. 50 м.
Вид битрейта                             : Постоянный
Битрейт                                  : 448 Кбит/сек
Каналы                                   : 6 каналов
Расположение каналов                     : Front: L C R, Side: L R, LFE
Частота                                  : 48,0 КГц
Частота кадров                           : 31,250 кадров/сек (1536 SPF)
Битовая глубина                          : 16 бит
Метод сжатия                             : С потерями
Размер потока                            : 355 Мбайт (24%)
Выравнивание                             : Разделение по промежуткам
Продолжительность промежутка             : 42  мс. (1,00 видеокадр)
Время предзагрузки промежутка            : 500  мс.
ServiceKind/String                       : Complete Main
[Профиль]  [ЛС] 

порошков

Помощник модератора

Стаж: 9 лет 5 месяцев

Сообщений: 10823

порошков · 24-Фев-18 21:55 (спустя 12 мин.)

[Цитировать] 

<Security>
Готово, можно было и в личку написать, раздача то моя)
[Профиль]  [ЛС] 

Maksmet

Стаж: 9 лет

Сообщений: 769

Maksmet · 27-Фев-18 18:08 (спустя 2 дня 20 часов)

[Цитировать] 

г о т о в о
http://rutracker.org/forum/viewtopic.php?t=4048325
скриншоты
Код:
[URL=http://fastpic.ru/view/100/2018/0227/30e344d416575852b621347c952af0e6.png.html][IMG]http://i100.fastpic.ru/thumb/2018/0227/e6/30e344d416575852b621347c952af0e6.jpeg[/IMG][/URL] [URL=http://fastpic.ru/view/100/2018/0227/fcae8a96dca84ccb47fd142f91ee1075.png.html][IMG]http://i100.fastpic.ru/thumb/2018/0227/75/fcae8a96dca84ccb47fd142f91ee1075.jpeg[/IMG][/URL] [URL=http://fastpic.ru/view/100/2018/0227/b9d80052ac6ecbde23bd2385430c4923.png.html][IMG]http://i100.fastpic.ru/thumb/2018/0227/23/b9d80052ac6ecbde23bd2385430c4923.jpeg[/IMG][/URL] [URL=http://fastpic.ru/view/100/2018/0227/4618ab395020f7b528744b64b285a965.png.html][IMG]http://i100.fastpic.ru/thumb/2018/0227/65/4618ab395020f7b528744b64b285a965.jpeg[/IMG][/URL] [URL=http://fastpic.ru/view/100/2018/0227/d942a4eb343899bf97af593263364754.png.html][IMG]http://i100.fastpic.ru/thumb/2018/0227/54/d942a4eb343899bf97af593263364754.jpeg[/IMG][/URL] [URL=http://fastpic.ru/view/100/2018/0227/fa0f7b69f2e90f313e2ed7546124f430.png.html][IMG]http://i100.fastpic.ru/thumb/2018/0227/30/fa0f7b69f2e90f313e2ed7546124f430.jpeg[/IMG][/URL]
[Профиль]  [ЛС] 

Maksmet

Стаж: 9 лет

Сообщений: 769

Maksmet · 27-Фев-18 18:24 (спустя 15 мин.)

[Цитировать] 

г о т о в о
http://rutracker.org/forum/viewtopic.php?t=4048325
хотя еще утром он там был жив....
постер
Код:
http://i103.fastpic.ru/big/2018/0227/30/d3b3605ec34a56a4cb939ae87b420a30.png
[Профиль]  [ЛС] 

Maksmet

Стаж: 9 лет

Сообщений: 769

Maksmet · 02-Мар-18 01:53 (спустя 2 дня 7 часов)

[Цитировать] 

г о т о в о
http://rutracker.org/forum/viewtopic.php?t=3553967
постер
Код:
http://i101.fastpic.ru/big/2018/0301/bb/4402ce89d21866d907b391146c9f6fbb.png
[Профиль]  [ЛС] 

Maksmet

Стаж: 9 лет

Сообщений: 769

Maksmet · 08-Мар-18 15:35 (спустя 6 дней)

[Цитировать] 

г о т о в о
http://rutracker.org/forum/viewtopic.php?t=2380903
постер
Код:
http://i102.fastpic.ru/big/2018/0308/61/fdf9a466ca5143f48b6fdf8b15bb0f61.jpg
скриншоты
Код:
[URL=http://fastpic.ru/view/101/2018/0308/ba9a9f7ad0ae86192bc6758dbfe8e784.png.html][IMG]http://i101.fastpic.ru/thumb/2018/0308/84/ba9a9f7ad0ae86192bc6758dbfe8e784.jpeg[/IMG][/URL] [URL=http://fastpic.ru/view/101/2018/0308/02d008170a63c724bd7d0e6e5c3afcf7.png.html][IMG]http://i101.fastpic.ru/thumb/2018/0308/f7/02d008170a63c724bd7d0e6e5c3afcf7.jpeg[/IMG][/URL] [URL=http://fastpic.ru/view/101/2018/0308/481a69808116a0d8b2bacf205e5fe5c9.png.html][IMG]http://i101.fastpic.ru/thumb/2018/0308/c9/481a69808116a0d8b2bacf205e5fe5c9.jpeg[/IMG][/URL] [URL=http://fastpic.ru/view/101/2018/0308/1e058ef0d3217cefa93e6adc662ba3c7.png.html][IMG]http://i101.fastpic.ru/thumb/2018/0308/c7/1e058ef0d3217cefa93e6adc662ba3c7.jpeg[/IMG][/URL] [URL=http://fastpic.ru/view/101/2018/0308/10b6e953a38ecca5379de15b3c54ed33.png.html][IMG]http://i101.fastpic.ru/thumb/2018/0308/33/10b6e953a38ecca5379de15b3c54ed33.jpeg[/IMG][/URL]
[Профиль]  [ЛС] 

Kyon99

Top Seed 02* 80r

Стаж: 6 лет 3 месяца

Сообщений: 953

Kyon99 · 09-Мар-18 16:04 (спустя 1 день)

[Цитировать] 

г о т о в о
Красотка / Pretty Woman
скрытый текст
постер:
Код:
http://i102.fastpic.ru/big/2018/0309/50/b26e0c6b3b1d2ac53b41d77d4e465250.jpg
скрины:
Код:
[url=http://i102.fastpic.ru/big/2018/0309/1b/3a545093b37dd5ff092cc97860f4de1b.png][img]http://i101.fastpic.ru/big/2018/0309/ef/f8fca2e9c60ce8c13ea6f189f4131def.png[/img][/url]  [url=http://i99.fastpic.ru/big/2018/0309/7c/45dfaa17e27394c4d62fb920f134397c.png][img]http://i99.fastpic.ru/big/2018/0309/f6/7a631dc3858306dd919b6343c898a7f6.png[/img][/url]  [url=http://i102.fastpic.ru/big/2018/0309/ef/59b52a7505c34d53c7aa8c753fa5aaef.png][img]http://i101.fastpic.ru/big/2018/0309/96/3c0c01f47f8fec535fb6b634b4c3f996.png[/img][/url]  [url=http://i101.fastpic.ru/big/2018/0309/6d/4067bbd723c27b46ec4aa90020fe396d.png][img]http://i101.fastpic.ru/big/2018/0309/20/74373bd401eaac75d73802b551574a20.png[/img][/url]
[url=http://i100.fastpic.ru/big/2018/0309/ab/c8b5cb3526dfd9710bb5c71242ac73ab.png][img]http://i103.fastpic.ru/big/2018/0309/88/6402db0881c45074aaf621e1a4f8bf88.png[/img][/url]  [url=http://i101.fastpic.ru/big/2018/0309/bd/e6d06f564461de8b1e269d3b92991ebd.png][img]http://i103.fastpic.ru/big/2018/0309/c6/3ffb7e71163639861e840112d01b76c6.png[/img][/url]  [url=http://i100.fastpic.ru/big/2018/0309/ba/48d9f5644d81338977fd17786e4e96ba.png][img]http://i101.fastpic.ru/big/2018/0309/08/10f729d89134ea4e361c3e4654137508.png[/img][/url]  [url=http://i103.fastpic.ru/big/2018/0309/e2/ee6d9e58aca9361059d49e9694c964e2.png][img]http://i102.fastpic.ru/big/2018/0309/bb/7a81facf2b0e9f0332f7005aa3aebebb.png[/img][/url]
MediaInfo
Общее
Полное имя : Pretty_Woman.avi
Формат : AVI
Формат/Информация : Audio Video Interleave
Размер файла : 1,46 Гбайт
Продолжительность : 1 ч. 59 м.
Общий поток : 1745 Кбит/сек
Программа кодирования : VirtualDubMod 1.5.10.2 (build 2540/release)
Библиотека кодирования : VirtualDubMod build 2540/release
Видео
Идентификатор : 0
Формат : MPEG-4 Visual
Профиль формата : Advanced [email protected]
Параметр BVOP формата : 2
Параметр QPel формата : Нет
Параметр GMC формата : Без точки перехода
Параметр матрицы формата : Выборочная
Идентификатор кодека : XVID
Идентификатор кодека/Подсказка : XviD
Продолжительность : 1 ч. 59 м.
Битрейт : 1544 Кбит/сек
Ширина : 704 пикселя
Высота : 384 пикселя
Соотношение сторон : 1,85:1
Частота кадров : 23,976 (23976/1000) кадра/сек
Цветовое пространство : YUV
Субдискретизация насыщенности : 4:2:0
Битовая глубина : 8 бит
Тип развёртки : Прогрессивная
Метод сжатия : С потерями
Бит/(Пиксели*Кадры) : 0.238
Размер потока : 1,29 Гбайт (88%)
Библиотека кодирования : XviD 1.2.0.dev47 (UTC 2006-11-01)
Аудио
Идентификатор : 1
Формат : AC-3
Формат/Информация : Audio Coding 3
Расширение режима : CM (complete main)
Параметр Endianness формата : Big
Идентификатор кодека : 2000
Продолжительность : 1 ч. 59 м.
Вид битрейта : Постоянный
Битрейт : 192 Кбит/сек
Каналы : 2 канала
Расположение каналов : Front: L R
Частота : 48,0 КГц
Частота кадров : 31,250 кадров/сек (1536 spf)
Метод сжатия : С потерями
Размер потока : 164 Мбайт (11%)
Выравнивание : Разделение по промежуткам
Продолжительность промежутка : 42 мс. (1,00 видеокадр)
Время предзагрузки промежутка : 500 мс.
[Профиль]  [ЛС] 

Dreven

Top Seed 04* 320r

Стаж: 8 лет 8 месяцев

Сообщений: 1244

Dreven · 11-Мар-18 10:48 (спустя 1 день 18 часов)

[Цитировать] 

http://rutracker.org/forum/viewtopic.php?t=214475 AVO (Сергей Визгунов)
http://rutracker.org/forum/viewtopic.php?t=62053 AVO (Сергей Визгунов)
http://rutracker.org/forum/viewtopic.php?t=1720168 AVO (Сергей Визгунов)
http://rutracker.org/forum/viewtopic.php?t=201007 DVO (Видеофильм Интернешнл)
[Профиль]  [ЛС] 

miha2154

Стаж: 10 лет

Сообщений: 9017

miha2154 · 20-Мар-18 18:32 (спустя 9 дней)

[Цитировать] 

скрытый текст
[Профиль]  [ЛС] 

старик Рутгер

Стаж: 3 месяца 22 дня

Сообщений: 1

старик Рутгер · 25-Мар-18 20:29 (спустя 5 дней)

[Цитировать] 

скрытый текст
http://rutracker.org/forum/viewtopic.php?t=294006 - пер. Сергей Кузнецов
http://rutracker.org/forum/viewtopic.php?t=321839 - пер. Евгений Рудой
http://rutracker.org/forum/viewtopic.php?t=3060644 - пер. А. Дольский
[Профиль]  [ЛС] 

Maksmet

Стаж: 9 лет

Сообщений: 769

Maksmet · 26-Мар-18 09:33 (спустя 13 часов)

[Цитировать] 

[Профиль]  [ЛС] 

Trans_X

Top Seed 02* 80r

Стаж: 7 лет 6 месяцев

Сообщений: 693

Trans_X · 27-Мар-18 13:31 (спустя 1 день 3 часа)

[Цитировать] 

[Профиль]  [ЛС] 

Dreven

Top Seed 04* 320r

Стаж: 8 лет 8 месяцев

Сообщений: 1244

Dreven · 30-Мар-18 18:41 (спустя 3 дня)

[Цитировать] 

Спасибо. Готово
http://rutracker.org/forum/viewtopic.php?t=706402 апконверт с этой раздачи http://rutracker.org/forum/viewtopic.php?t=483262
Сравнение
иван.niku | operkot





[Профиль]  [ЛС] 

Trans_X

Top Seed 02* 80r

Стаж: 7 лет 6 месяцев

Сообщений: 693

Trans_X · 31-Мар-18 11:42 (спустя 17 часов, ред. 02-Апр-18 08:02)

[Цитировать] 

Сделано
Один и тот же фильм "Chacun sa vie" реж.Claude Lelouch
http://rutracker.org/forum/viewtopic.php?t=5530567
http://rutracker.org/forum/viewtopic.php?t=5528481
находится в Арт-хаус и авторское кино (HD Video), название "12 мелодий любви / У каждого своя жизнь и своё внутреннее убеждение"
http://rutracker.org/forum/viewtopic.php?t=5527903
находится в Фильмы 2016-2017, название "12 мелодий любви"
http://rutracker.org/forum/viewtopic.php?t=5455726
находится в Арт-хаус и авторское кино, название "У каждого своя жизнь и своё внутреннее убеждение / У каждого своя жизнь и свой приговор".
Скорее всего, надо перенести в Арт-хаус и везде дополнить названия.
[Профиль]  [ЛС] 

Maksmet

Стаж: 9 лет

Сообщений: 769

Maksmet · 01-Апр-18 14:57 (спустя 1 день 3 часа)

[Цитировать] 

Готово
http://rutracker.org/forum/viewtopic.php?t=3413995
постер
Код:
https://c.radikal.ru/c39/1804/18/bfadf40d971c.jpg
скриншоты
Код:
[URL=http://fastpic.ru/view/103/2018/0401/580fda5e38ced5687076522f2ca30043.png.html][IMG]http://i103.fastpic.ru/thumb/2018/0401/43/580fda5e38ced5687076522f2ca30043.jpeg[/IMG][/URL] [URL=http://fastpic.ru/view/103/2018/0401/e01611247575bbb8c505f298d097cda0.png.html][IMG]http://i103.fastpic.ru/thumb/2018/0401/a0/e01611247575bbb8c505f298d097cda0.jpeg[/IMG][/URL] [URL=http://fastpic.ru/view/103/2018/0401/d128f771fd9e15cff0914be50af351a8.png.html][IMG]http://i103.fastpic.ru/thumb/2018/0401/a8/d128f771fd9e15cff0914be50af351a8.jpeg[/IMG][/URL] [URL=http://fastpic.ru/view/103/2018/0401/dfab3a1016592c3dcbf35fbb07fda5fc.png.html][IMG]http://i103.fastpic.ru/thumb/2018/0401/fc/dfab3a1016592c3dcbf35fbb07fda5fc.jpeg[/IMG][/URL]
[Профиль]  [ЛС] 

runtotheriver

Стаж: 4 месяца 9 дней

Сообщений: 32

runtotheriver · 22-Апр-18 11:11 (спустя 20 дней)

[Цитировать] 

Перенесено, куда полагается
http://rutracker.org/forum/tracker.php?nm=La%20Reine%20Margot%201994
sd раздачи стоит перенести в арт-хаус -все фильмы этого режиссера в том разделе
[Профиль]  [ЛС] 

Maksmet

Стаж: 9 лет

Сообщений: 769

Maksmet · 24-Апр-18 20:34 (спустя 2 дня 9 часов)

[Цитировать] 

Готово
http://rutracker.org/forum/viewtopic.php?t=3321903 http://rutracker.org/forum/viewtopic.php?t=1029633
постер
Код:
http://i105.fastpic.ru/big/2018/0424/27/a2ad9ad9eeaee227f2062a809989f627.png
[Профиль]  [ЛС] 

Друг Mодераторов

Стаж: 2 месяца 21 день

Сообщений: 2


Друг Mодераторов · 25-Апр-18 23:23 (спустя 1 день 2 часа)

[Цитировать] 

http://rutracker.org/forum/viewtopic.php?t=4486442 - переводит Константин Дьяконов
http://rutracker.org/forum/viewtopic.php?t=4966589 - переводит Константин Дьяконов
http://rutracker.org/forum/viewtopic.php?t=5134224 - переводит Константин Дьяконов
http://rutracker.org/forum/viewtopic.php?t=5134225 - переводит Константин Дьяконов
http://rutracker.org/forum/viewtopic.php?t=1937606 - переводит Константин Дьяконов
[Профиль]  [ЛС] 

RogerWilko

Стаж: 8 лет 3 месяца

Сообщений: 8673

RogerWilko · 26-Апр-18 00:45 (спустя 1 час 22 мин.)

[Цитировать] 

перемещено
http://rutracker.org/forum/viewtopic.php?t=5406687
Только эта раздача в подразделе "Фильмы 1991-2000", остальные - в "Арт-хаус и авторское кино".
[Профиль]  [ЛС] 

Dreven

Top Seed 04* 320r

Стаж: 8 лет 8 месяцев

Сообщений: 1244

Dreven · 01-Май-18 18:59 (спустя 5 дней)

[Цитировать] 

исправлено
[Профиль]  [ЛС] 

tovarisch f.

Стаж: 5 лет 5 месяцев

Сообщений: 923

tovarisch f. · 01-Май-18 20:17 (спустя 1 час 18 мин.)

[Цитировать] 

Г о т о в о
http://rutracker.org/forum/viewtopic.php?t=345282
постер
Код:
http://i2.imageban.ru/out/2018/05/01/81d0e048d14dd5de4c47b32067011a01.jpg
скрины
Код:
[URL=https://imageban.ru/show/2018/05/01/a8379dab04d23e0da17796828b3dfcc8/png][IMG]http://i4.imageban.ru/thumbs/2018.05.01/a8379dab04d23e0da17796828b3dfcc8.png[/IMG][/URL] [URL=https://imageban.ru/show/2018/05/01/856b0c15550345a747eaa05c909fe4bd/png][IMG]http://i1.imageban.ru/thumbs/2018.05.01/856b0c15550345a747eaa05c909fe4bd.png[/IMG][/URL] [URL=https://imageban.ru/show/2018/05/01/0992d8b4fad67987535904392dcf0dcb/png][IMG]http://i1.imageban.ru/thumbs/2018.05.01/0992d8b4fad67987535904392dcf0dcb.png[/IMG][/URL] [URL=https://imageban.ru/show/2018/05/01/0c088eac29dcac8d8db882b2520d9126/png][IMG]http://i1.imageban.ru/thumbs/2018.05.01/0c088eac29dcac8d8db882b2520d9126.png[/IMG][/URL] [URL=https://imageban.ru/show/2018/05/01/f81a5e2caf477499f73abe13630a7e03/png][IMG]http://i2.imageban.ru/thumbs/2018.05.01/f81a5e2caf477499f73abe13630a7e03.png[/IMG][/URL] [URL=https://imageban.ru/show/2018/05/01/c53964d80b6206cccfcf3fd45ecef510/png][IMG]http://i4.imageban.ru/thumbs/2018.05.01/c53964d80b6206cccfcf3fd45ecef510.png[/IMG][/URL] [URL=https://imageban.ru/show/2018/05/01/36b7f36b8687c12facb527dec7783842/png][IMG]http://i6.imageban.ru/thumbs/2018.05.01/36b7f36b8687c12facb527dec7783842.png[/IMG][/URL]
кнопкоКП
Код:
[url=https://www.kinopoisk.ru/film/mstiteli-igra-dlya-dvoikh-1998-12103/][img]https://rating.kinopoisk.ru/12103.gif[/img][/url]
[Профиль]  [ЛС] 

Diablo3th

Стаж: 5 лет 5 месяцев

Сообщений: 204

Diablo3th · 03-Май-18 16:38 (спустя 1 день 20 часов, ред. 03-Май-18 16:38)

[Цитировать] 

http://rutracker.org/forum/viewtopic.php?t=4929603
в видеоряде имеется вшитая реклама стороннего ресурса
скрытый текст
вырезана заставка кинокомпании в начале и подрезаны конечные титры в конце
скрытый текст
+нужно изменить название в сабже, поиск не находит.
https://www.imdb.com/title/tt0074083/
http://www.blu-ray.com/movies/Shadows-in-an-Empty-Room-Blu-ray/146889/
[Профиль]  [ЛС] 

RyanParker

Стаж: 1 год

Сообщений: 22


RyanParker · 08-Май-18 16:43 (спустя 5 дней)

[Цитировать] 

Г о т о в о
Долорес Клэйборн / Dolores Claiborne

http://rutracker.org/forum/viewtopic.php?t=3244916
Постер
Код:
http://img12.lostpic.net/2018/05/06/b1e7f1a2641f396d3a5b1c732ffed04b.jpg

Рейтинг
Код:
[url=http://www.imdb.com/title/tt0109642][img]https://tracker.0day.kiev.ua/imdb/imdb_tt0109642.gif[/img][/url] [url=http://www.kinopoisk.ru/film/4465][img]http://www.kinopoisk.ru/rating/4465.gif[/img][/url]
Скриншоты
Код:
[url=http://lostpic.net/image/cEbK][img]http://img12.lostpic.net/2018/05/06/2fa79f286aeb072fc8ecf666c063b28d.th.png[/img][/url] [url=http://lostpic.net/image/cEbg][img]http://img12.lostpic.net/2018/05/06/3253bfd8b89b6fa3af39919b67cb41d2.th.png[/img][/url] [url=http://lostpic.net/image/cEbv][img]http://img12.lostpic.net/2018/05/06/124dd249225b4c60eba6ccc90fba1525.th.png[/img][/url] [url=http://lostpic.net/image/cEuH][img]http://img12.lostpic.net/2018/05/06/42f9c39aa090dfcaa78e97bc717aadf5.th.png[/img][/url]
[url=http://lostpic.net/image/cEuM][img]http://img12.lostpic.net/2018/05/06/f24926b2b2e7d8c8987ccce2260fb511.th.png[/img][/url] [url=http://lostpic.net/image/cEuQ][img]http://img12.lostpic.net/2018/05/06/0b4facfaddb3f999365a35456747b815.th.png[/img][/url] [url=http://lostpic.net/image/cEuc][img]http://img12.lostpic.net/2018/05/06/d3852abe8efbf592e45145f237c86f73.th.png[/img][/url] [url=http://lostpic.net/image/cEun][img]http://img12.lostpic.net/2018/05/06/57ddbb7db2399475ca6a3380fe584340.th.png[/img][/url]
[url=http://lostpic.net/image/cEur][img]http://img12.lostpic.net/2018/05/06/18ba1942825785ecea2c11e01eb5e910.th.png[/img][/url] [url=http://lostpic.net/image/cEuw][img]http://img12.lostpic.net/2018/05/06/5d9c318d6a5978c5ea28a8546b8ba54f.th.png[/img][/url] [url=http://lostpic.net/image/cEuU][img]http://img12.lostpic.net/2018/05/06/6259de10f3f70ce92d6516f8c9187ff3.th.png[/img][/url] [url=http://lostpic.net/image/cEuY][img]http://img12.lostpic.net/2018/05/06/17a1378e2728b31fc8391fd1b00df8bb.th.png[/img][/url]
[Профиль]  [ЛС] 

Maksmet

Стаж: 9 лет

Сообщений: 769

Maksmet · 20-Май-18 09:13 (спустя 11 дней)

[Цитировать] 

Готово
http://rutracker.org/forum/viewtopic.php?t=3355555
Постер
Код:
http://i104.fastpic.ru/big/2018/0520/37/8c4e908caaf7e4159ae52055d40a7137.png
скриншоты
Код:
[URL=http://fastpic.ru/view/104/2018/0520/72eca302664a9e2c99c1cafe95bf6bd0.png.html][IMG]http://i104.fastpic.ru/thumb/2018/0520/d0/72eca302664a9e2c99c1cafe95bf6bd0.jpeg[/IMG][/URL] [URL=http://fastpic.ru/view/104/2018/0520/69a3c84633a89eebd8d3c24681dc8693.png.html][IMG]http://i104.fastpic.ru/thumb/2018/0520/93/69a3c84633a89eebd8d3c24681dc8693.jpeg[/IMG][/URL] [URL=http://fastpic.ru/view/104/2018/0520/c37decda0fa396e9f7e6786b6b9636f7.png.html][IMG]http://i104.fastpic.ru/thumb/2018/0520/f7/c37decda0fa396e9f7e6786b6b9636f7.jpeg[/IMG][/URL] [URL=http://fastpic.ru/view/104/2018/0520/9bd027ea0c1ad6bf2b28941ce1e10eee.png.html][IMG]http://i104.fastpic.ru/thumb/2018/0520/ee/9bd027ea0c1ad6bf2b28941ce1e10eee.jpeg[/IMG][/URL] [URL=http://fastpic.ru/view/104/2018/0520/f106009530788ec99a1bee9af5255859.png.html][IMG]http://i104.fastpic.ru/thumb/2018/0520/59/f106009530788ec99a1bee9af5255859.jpeg[/IMG][/URL] [URL=http://fastpic.ru/view/104/2018/0520/439a845c6f521acac97d0418792b47ce.png.html][IMG]http://i104.fastpic.ru/thumb/2018/0520/ce/439a845c6f521acac97d0418792b47ce.jpeg[/IMG][/URL]
[Профиль]  [ЛС] 

Maksmet

Стаж: 9 лет

Сообщений: 769

Maksmet · 25-Май-18 06:37 (спустя 4 дня, ред. 25-Май-18 06:37)

[Цитировать] 

г о т о в о
http://rutracker.org/forum/viewtopic.php?t=2899784
постер
Код:
http://s015.radikal.ru/i331/1507/56/9958513d015e.jpg
==========================================
http://rutracker.org/forum/viewtopic.php?t=4670858
скриншоты
Код:
[URL=http://fastpic.ru/view/105/2018/0524/1483b8db6b3397825916c659123955a0.png.html][IMG]http://i105.fastpic.ru/thumb/2018/0524/a0/1483b8db6b3397825916c659123955a0.jpeg[/IMG][/URL] [URL=http://fastpic.ru/view/105/2018/0524/1d442aa40b5603fe200fb5c766516870.png.html][IMG]http://i105.fastpic.ru/thumb/2018/0524/70/1d442aa40b5603fe200fb5c766516870.jpeg[/IMG][/URL] [URL=http://fastpic.ru/view/105/2018/0524/5933af430015e4a2856a8ff0b8a77b47.png.html][IMG]http://i105.fastpic.ru/thumb/2018/0524/47/5933af430015e4a2856a8ff0b8a77b47.jpeg[/IMG][/URL] [URL=http://fastpic.ru/view/105/2018/0524/cef75cef0535b100cb667acd5ff50c12.png.html][IMG]http://i105.fastpic.ru/thumb/2018/0524/12/cef75cef0535b100cb667acd5ff50c12.jpeg[/IMG][/URL] [URL=http://fastpic.ru/view/105/2018/0524/f77f988d6846c68c7e63b0e5e64ae3df.png.html][IMG]http://i105.fastpic.ru/thumb/2018/0524/df/f77f988d6846c68c7e63b0e5e64ae3df.jpeg[/IMG][/URL] [URL=http://fastpic.ru/view/105/2018/0524/629dd27a10674c154780ebb654b17cde.png.html][IMG]http://i105.fastpic.ru/thumb/2018/0524/de/629dd27a10674c154780ebb654b17cde.jpeg[/IMG][/URL]
=======================================================================
http://rutracker.org/forum/viewtopic.php?t=3693622
постер
Код:
http://i104.fastpic.ru/big/2018/0525/5a/c17d7e7bafae5c8f50974c647aa4ec5a.jpg
[Профиль]  [ЛС] 

OGORODNIKOFFF

Стаж: 3 года 6 месяцев

Сообщений: 437

OGORODNIKOFFF · 29-Май-18 09:16 (спустя 4 дня)

[Цитировать] 

готово
Помпеи: апокалипсис - почему-то в разных подразделах...
[Профиль]  [ЛС] 

Maksmet

Стаж: 9 лет

Сообщений: 769

Maksmet · 30-Май-18 20:55 (спустя 1 день 11 часов)

[Цитировать] 

Готово
http://rutracker.org/forum/viewtopic.php?t=2119378 рус название Комбинация с кинопоиска
постер
Код:
http://i104.fastpic.ru/big/2018/0530/55/925890b4ae9347ad065348b4105c9655.jpg
скриншоты
Код:
[URL=http://fastpic.ru/view/105/2018/0530/0c70b59c5b35799119a7bfed3f21fe10.png.html][IMG]http://i105.fastpic.ru/thumb/2018/0530/10/0c70b59c5b35799119a7bfed3f21fe10.jpeg[/IMG][/URL] [URL=http://fastpic.ru/view/105/2018/0530/51e1b259d10a92e26455162dbe457b2e.png.html][IMG]http://i105.fastpic.ru/thumb/2018/0530/2e/51e1b259d10a92e26455162dbe457b2e.jpeg[/IMG][/URL] [URL=http://fastpic.ru/view/105/2018/0530/0b9881eec26fd4556d2be20548630fda.png.html][IMG]http://i105.fastpic.ru/thumb/2018/0530/da/0b9881eec26fd4556d2be20548630fda.jpeg[/IMG][/URL] [URL=http://fastpic.ru/view/105/2018/0530/1737970381256c8b39f060b14769494f.png.html][IMG]http://i105.fastpic.ru/thumb/2018/0530/4f/1737970381256c8b39f060b14769494f.jpeg[/IMG][/URL] [URL=http://fastpic.ru/view/105/2018/0530/b2d3afe3c8236cc92d787933e05cd528.png.html][IMG]http://i105.fastpic.ru/thumb/2018/0530/28/b2d3afe3c8236cc92d787933e05cd528.jpeg[/IMG][/URL] [URL=http://fastpic.ru/view/105/2018/0530/c037b7dc9d6b6775ce720c9b3c4833d4.png.html][IMG]http://i105.fastpic.ru/thumb/2018/0530/d4/c037b7dc9d6b6775ce720c9b3c4833d4.jpeg[/IMG][/URL]
[Профиль]  [ЛС] 

Dreven

Top Seed 04* 320r

Стаж: 8 лет 8 месяцев

Сообщений: 1244

Dreven · 02-Июн-18 15:15 (спустя 2 дня 18 часов)

[Цитировать] 

Готово
http://rutracker.org/forum/viewtopic.php?t=157222 AVO (Павел Санаев)
Постер
Код:
http://i4.imageban.ru/out/2018/06/02/438f7974f6afd1b7c7d69f434a77f79e.png
Скриншоты
Код:
[URL=https://imageban.ru/show/2018/06/02/be59ad247127cd826330fcfb41e47258/png][IMG]http://i6.imageban.ru/thumbs/2018.06.02/be59ad247127cd826330fcfb41e47258.png[/IMG][/URL][URL=https://imageban.ru/show/2018/06/02/694f548f2aa7f5b4564501c7abd92e97/png][IMG]http://i3.imageban.ru/thumbs/2018.06.02/694f548f2aa7f5b4564501c7abd92e97.png[/IMG][/URL][URL=https://imageban.ru/show/2018/06/02/50a99ce1408960047ae38677fc360e31/png][IMG]http://i2.imageban.ru/thumbs/2018.06.02/50a99ce1408960047ae38677fc360e31.png[/IMG][/URL][URL=https://imageban.ru/show/2018/06/02/6d5d7fe775b0ef0b430d3e29d6742ca5/png][IMG]http://i5.imageban.ru/thumbs/2018.06.02/6d5d7fe775b0ef0b430d3e29d6742ca5.png[/IMG][/URL][URL=https://imageban.ru/show/2018/06/02/32d8521e3f9d32d483680595b6c0fdfc/png][IMG]http://i5.imageban.ru/thumbs/2018.06.02/32d8521e3f9d32d483680595b6c0fdfc.png[/IMG][/URL]
MediaInfo
General
Complete name : D:\квартирка джо.avi
Format : AVI
Format/Info : Audio Video Interleave
File size : 700 MiB
Duration : 1 h 19 min
Overall bit rate mode : Variable
Overall bit rate : 1 225 kb/s
Writing application : VirtualDubMod 1.5.10.1 (build 2366/release)
Writing library : VirtualDubMod build 2366/release
Video
ID : 0
Format : MPEG-4 Visual
Format settings : BVOP1 / GMC2
Format settings, BVOP : 1
Format settings, QPel : No
Format settings, GMC : 2 warppoints
Format settings, Matrix : Default (H.263)
Muxing mode : Packed bitstream
Codec ID : DX50
Codec ID/Hint : DivX 5
Duration : 1 h 19 min
Bit rate : 1 112 kb/s
Nominal bit rate : 7 800 kb/s
Width : 640 pixels
Height : 480 pixels
Display aspect ratio : 4:3
Frame rate : 23.976 (24000/1001) FPS
Color space : YUV
Chroma subsampling : 4:2:0
Bit depth : 8 bits
Scan type : Progressive
Compression mode : Lossy
Bits/(Pixel*Frame) : 0.151
Stream size : 636 MiB (91%)
Writing library : DivX 5.1.1 (Maupiti) (UTC 2003-11-19)
Audio
ID : 1
Format : MPEG Audio
Format version : Version 1
Format profile : Layer 3
Format settings : Joint stereo / MS Stereo
Codec ID : 55
Codec ID/Hint : MP3
Duration : 1 h 19 min
Bit rate mode : Variable
Bit rate : 96.0 kb/s
Channel(s) : 2 channels
Sampling rate : 44.1 kHz
Frame rate : 38.281 FPS (1152 SPF)
Compression mode : Lossy
Stream size : 57.2 MiB (8%)
Alignment : Aligned on interleaves
Interleave, duration : 26 ms (0.63 video frame)
Writing library : LAME3.95
Encoding settings : -m j -V 4 -q 2 -lowpass 16 --abr 96
[Профиль]  [ЛС] 

Maksmet

Стаж: 9 лет

Сообщений: 769

Maksmet · 06-Июн-18 16:02 (спустя 4 дня)

[Цитировать] 

Готово
http://rutracker.org/forum/viewtopic.php?t=2917042
постер
Код:
http://i104.fastpic.ru/big/2018/0606/e1/50e383c234796fda1d27efcb657dcee1.jpg
скриншоты
Код:
[url=https://d.radikal.ru/d21/1806/11/2fb925e1ba84.png][img]https://d.radikal.ru/d21/1806/11/2fb925e1ba84t.jpg[/img][/url] [url=https://d.radikal.ru/d08/1806/d3/219ce1df92a0.png][img]https://d.radikal.ru/d08/1806/d3/219ce1df92a0t.jpg[/img][/url] [url=https://b.radikal.ru/b20/1806/58/1cae7c3d9deb.png][img]https://b.radikal.ru/b20/1806/58/1cae7c3d9debt.jpg[/img][/url] [url=https://b.radikal.ru/b04/1806/c4/6d03d29e5c6e.png][img]https://b.radikal.ru/b04/1806/c4/6d03d29e5c6et.jpg[/img][/url] [url=https://d.radikal.ru/d32/1806/d5/b6e4335d1a98.png][img]https://d.radikal.ru/d32/1806/d5/b6e4335d1a98t.jpg[/img][/url] [url=https://d.radikal.ru/d16/1806/00/90d32281b4ab.png][img]https://d.radikal.ru/d16/1806/00/90d32281b4abt.jpg[/img][/url]
[Профиль]  [ЛС] 
 
Ответить
Loading...
Error