(Pop) Ricky Martin - La Historia - 2001, APE (image+.cue), lossless

Страницы:  1

Ответить
Автор
Сообщение

sinkopa525

Top Seed 02* 80r

Стаж: 10 лет 5 месяцев

Сообщений: 202

sinkopa525 · 30-Авг-08 23:24 (9 лет 8 месяцев назад)

Ricky Martin - La Historia
Жанр: Pop
Год выпуска диска: 2001
Аудио кодек: APE
Тип рипа: image+.cue
Битрейт аудио: lossless
Продолжительность: 1:12:57
Трэклист:
01. Maria (Spanglish Radio Edit) [0:04:31.73]
02. Vuelve [0:05:08.40]
03. Bella (She's All I ever had) [0:04:57.00]
04. La bomba [0:04:37.26]
05. A Medio Vivir [0:04:43.13]
06. Perdido Sin Ti [0:04:11.66]
07. Livin' La Vida Loca (Spanish Version) [0:04:04.93]
08. Volveras [0:04:49.56]
09. La Copa De La Vida (La Cancion OficialdeLa CopaMundial, Francia '98) (Spanish) [0:04:29.86]
10. Fuego De Noche, Nieve De Dia [0:05:36.13]
11. She Bangs (Spanish Version) [0:04:36.64]
12. Bombon De Azucar [0:04:59.62]
13. Fuego Contra Fuego [0:04:26.86]
14. Te Extrano, Te Olvido, Te Amo [0:04:39.13]
15. Por Arriba, Por Abajo [0:03:07.73]
16. El Amor De Mi Vida [0:03:57.40]
Отчёт EAC
Exact Audio Copy V0.99 prebeta 4 from 23. January 2008
Отчёт EAC об извлечении, выполненном 31. августа 2008, 0:04
Ricky Martin / La Historia
Дисковод: PLEXTOR DVDR PX-716A Adapter: 0 ID: 1
Режим чтения : Достоверность
Использование точного потока : Да
Отключение кэша аудио : Да
Использование указателей C2 : Нет
Коррекция смещения при чтении : 30
Способность читать области Lead-in и Lead-out : Да
Заполнение пропущенных сэмплов тишиной : Да
Удаление блоков с тишиной в начале и конце : Нет
При вычислениях CRC использовались нулевые сэмплы : Да
Интерфейс : Встроенный Win32-интерфейс для Win NT/2000
Выходной формат : Monkey's Audio Lossless Encoder v3.99 DLL
Формат сэмплов : Fast Lossless Compression
TOC извлечённого CD
Трек | Старт | Длительность | Начальный сектор | Конечный сектор
---------------------------------------------------------------------
1 | 0:00.00 | 4:31.55 | 0 | 20379
2 | 4:31.55 | 5:08.30 | 20380 | 43509
3 | 9:40.10 | 4:57.00 | 43510 | 65784
4 | 14:37.10 | 4:37.20 | 65785 | 86579
5 | 19:14.30 | 4:43.10 | 86580 | 107814
6 | 23:57.40 | 4:11.50 | 107815 | 126689
7 | 28:09.15 | 4:04.70 | 126690 | 145059
8 | 32:14.10 | 4:49.42 | 145060 | 166776
9 | 37:03.52 | 4:29.65 | 166777 | 187016
10 | 41:33.42 | 5:36.10 | 187017 | 212226
11 | 47:09.52 | 4:36.48 | 212227 | 232974
12 | 51:46.25 | 4:59.47 | 232975 | 255446
13 | 56:45.72 | 4:26.65 | 255447 | 275461
14 | 61:12.62 | 4:39.10 | 275462 | 296396
15 | 65:51.72 | 3:07.55 | 296397 | 310476
16 | 68:59.52 | 3:57.30 | 310477 | 328281
Характеристики диапазона извлечения и сообщения об ошибках
Выбранный диапазон
Имя файла J:\Ricky Martin\Ricky Martin - La Historia.ape
Пиковый уровень 99.8 %
Качество диапазона 100.0 %
CRC теста 7A31F28A
CRC копии 7A31F28A
Копирование... OK
Ошибок не произошло
Конец отчёта
Download
Для скачивания .torrent файлов необходима регистрация
Сайт не распространяет и не хранит электронные версии произведений, а лишь предоставляет доступ к создаваемому пользователями каталогу ссылок на торрент-файлы, которые содержат только списки хеш-сумм
[Профиль]  [ЛС] 

relaxat

Стаж: 9 лет 4 месяца

Сообщений: 140

relaxat · 19-Янв-11 00:53 (спустя 2 года 4 месяца)

[Цитировать] 

Новый клип Рики Мартина http://rutracker.org/forum/viewtopic.php?t=3378454
[Профиль]  [ЛС] 
 
Ответить
Loading...
Error