Аты-баты, шли солдаты... (Леонид Быков) [1976, СССР, военная драма, WEB-DL 720p] + Original Rus

Страницы:  1

Ответить
Автор
Сообщение

mpv777

Admin

Стаж: 11 лет 1 месяц

Сообщений: 25713

mpv777 · 29-Дек-16 20:01 (2 года 5 месяцев назад)

Аты-баты, шли солдаты...
Страна: СССР
Студия: Киностудия им. А.Довженко
Жанр: военная драма
Год выпуска: 1976
Продолжительность: 01:22:27
Перевод: Не требуется
Субтитры: нет
Оригинальная аудиодорожка: русский
Режиссер: Леонид Быков
В ролях: Леонид Быков, Владимир Конкин, Елена Шанина, Леонид Бакштаев, Евгения Уралова, Гия Авалишвили, Богдан Бенюк, Николай Гринько, Отабек Ганиев, Иван Гаврилюк, Владимир Герасимов, Михаил Езепов, Нина Кирьякова, Маргарита Кошелева, Борис Кудрявцев, Пётр Любешкин, Виктор Мирошниченко, Леонид Марченко, А. Медведева, Наталья Наум, Вилорий Пащенко, Николай Сектименко, Борис Химичев, Юрий Шерстнёв, Аида Юнусова, Вано Янтбелидзе
Описание: Последний фильм Леонида Быкова и его последняя роль в кино...
Они погибли 18 марта 1944 года, их было всего восемнадцать человек – комсомольский взвод, остановивший колонну немецких танков. Трагическое и комедийное, героическое и лирическое сплелись на экране в необычную ткань повествования об отцах, навсегда оставшихся молодыми, и о детях, пришедших туда, где ровно тридцать лет назад приняли свой последний смертный бой самые родные для них люди...
Сэмпл: http://sendfile.su/1294746
Тип релиза: WEB-DL 720p
Контейнер: MKV
Видео: x264/AVC, 1280x720 (16:9), 3200kbps, 24.000fps
Аудио: русский, AAC, 2 channels, 44.1 kHz, 103kbps
MediaInfo
General
Unique ID : 232199617516196917371613559699223749073 (0xAEB0050773EA8027A5D6BEFADDC621D1)
Complete name : C:\Аты баты, шли солдаты...(1976).mkv
Format : Matroska
Format version : Version 4 / Version 2
File size : 1.92 GiB
Duration : 1 h 22 min
Overall bit rate : 3 326 kb/s
Encoded date : UTC 2016-12-29 16:03:41
Writing application : mkvmerge v9.6.0 ('Slave To Your Mind') 64bit
Writing library : libebml v1.3.4 + libmatroska v1.4.5
Video
ID : 1
Format : AVC
Format/Info : Advanced Video Codec
Format profile : [email protected]
Format settings, CABAC : Yes
Format settings, ReFrames : 5 frames
Codec ID : V_MPEG4/ISO/AVC
Duration : 1 h 22 min
Bit rate : 3 200 kb/s
Width : 1 280 pixels
Height : 720 pixels
Display aspect ratio : 16:9
Frame rate mode : Constant
Frame rate : 24.000 FPS
Color space : YUV
Chroma subsampling : 4:2:0
Bit depth : 8 bits
Scan type : Progressive
Bits/(Pixel*Frame) : 0.145
Stream size : 1.86 GiB (97%)
Writing library : x264 core 142
Encoding settings : cabac=1 / ref=5 / deblock=1:0:0 / analyse=0x3:0x113 / me=umh / subme=8 / psy=1 / psy_rd=1.00:0.00 / mixed_ref=1 / me_range=16 / chroma_me=1 / trellis=1 / 8x8dct=1 / cqm=0 / deadzone=21,11 / fast_pskip=1 / chroma_qp_offset=-2 / threads=1 / lookahead_threads=1 / sliced_threads=0 / nr=0 / decimate=1 / interlaced=0 / bluray_compat=0 / constrained_intra=0 / bframes=3 / b_pyramid=2 / b_adapt=2 / b_bias=0 / direct=3 / weightb=1 / open_gop=0 / weightp=2 / keyint=96 / keyint_min=24 / scenecut=40 / intra_refresh=0 / rc_lookahead=50 / rc=2pass / mbtree=1 / bitrate=3200 / ratetol=1.0 / qcomp=0.60 / qpmin=0 / qpmax=69 / qpstep=4 / cplxblur=20.0 / qblur=0.5 / ip_ratio=1.40 / aq=1:1.00
Default : Yes
Forced : No
Audio
ID : 2
Format : AAC
Format/Info : Advanced Audio Codec
Format profile : LC
Codec ID : A_AAC
Duration : 1 h 22 min
Bit rate : 103 kb/s
Channel(s) : 2 channels
Channel positions : Front: L R
Sampling rate : 44.1 kHz
Frame rate : 43.066 FPS (1024 spf)
Compression mode : Lossy
Delay relative to video : 2 ms
Stream size : 60.6 MiB (3%)
Default : Yes
Forced : No
Скриншоты
Download
Для скачивания .torrent файлов необходима регистрация
Сайт не распространяет и не хранит электронные версии произведений, а лишь предоставляет доступ к создаваемому пользователями каталогу ссылок на торрент-файлы, которые содержат только списки хеш-сумм
[Профиль]  [ЛС] 

osnova46

Стаж: 6 лет 2 месяца

Сообщений: 19


osnova46 · 31-Дек-16 16:16 (спустя 1 день 20 часов)

Спасибо за полный (необрезанный) кадр
[Профиль]  [ЛС] 

moskvashveya

Стаж: 12 лет 2 месяца

Сообщений: 116

moskvashveya · 04-Янв-17 19:51 (спустя 4 дня)

osnova46 писал(а):
72139130Спасибо за полный (необрезанный) кадр
Поддержу, тоже давно искал, теперь в коллекцию закинул.
[Профиль]  [ЛС] 

Selena_a

Фильмографы

Стаж: 9 лет 2 месяца

Сообщений: 2459

Selena_a · 04-Янв-17 20:50 (спустя 59 мин.)

mpv777 писал(а):
72128323Описание: Последний фильм Леонида Быкова и его последняя роль в кино...
Не совсем так! Последний фильм Пришелец, но к сожаления было отснято всего-то чуть-чуть...
[Профиль]  [ЛС] 

mpv777

Admin

Стаж: 11 лет 1 месяц

Сообщений: 25713

mpv777 · 04-Янв-17 20:54 (спустя 3 мин.)

osnova46
moskvashveya
Пожалуйста
Selena_a писал(а):
72164421Последний фильм Пришелец, но к сожаления было отснято всего-то чуть-чуть...
Но он и не был закончен, увы, так что именно фильм - это "Аты-баты.."
[Профиль]  [ЛС] 

rodrigo3

Стаж: 11 лет 7 месяцев

Сообщений: 1162


rodrigo3 · 19-Янв-17 21:28 (спустя 15 дней)

Как говорится, берет за душу.
[Профиль]  [ЛС] 

vinniedoomie

Стаж: 9 лет 10 месяцев

Сообщений: 218


vinniedoomie · 26-Янв-17 21:35 (спустя 7 дней)

osnova46 писал(а):
72139130Спасибо за полный (необрезанный) кадр
Сравнительно с 1:1.88: https://rutracker.org/forum/viewtopic.php?t=5242366
В этой раздаче наполнение по ширине добавилось изрядно, но по высоте там больше чем здесь, и тоже не на два пикселя. Поиски идеала продолжаются.
Цветопередача и свет-контраст различаются незначительно, качество здесь повыше, но не революционно.
Спасибо за хорошие фильмы.
[Профиль]  [ЛС] 

osnova46

Стаж: 6 лет 2 месяца

Сообщений: 19


osnova46 · 01-Мар-17 12:17 (спустя 1 месяц 2 дня, ред. 01-Мар-17 12:17)

vinniedoomie писал(а):
но по высоте там больше чем здесь
Там, судя по тем скриншотам, по высоте у всех людей макушки обрезаны, а здесь нет.
Сам сравнивал несколько кадров видео ради интереса.
Так что здесь на сегодня самый полный размер кадра.
[Профиль]  [ЛС] 

vinniedoomie

Стаж: 9 лет 10 месяцев

Сообщений: 218


vinniedoomie · 02-Мар-17 11:47 (спустя 23 часа)

osnova46 писал(а):
72591415макушки обрезаны
Срезаемые рамкой кадра макушки - распространенная давно и широко практика при компоновке широкоэкранного кинокадра, "доказательством обрезания" это не является.
osnova46 писал(а):
72591415а здесь нет.
Вверху этой страницы есть скрины, хоть на них посмотрели бы - на четырех из восьми "макушки срезаны".
Кому надо найдет парные кадры в двух раздачах и все увидит глазами. Здесь самый полный кадр по ширине, по высоте - нет.
Впрочем, высота хоть и меньше чем в той раздаче, но не критично. Фильм хороший, раздачи хорошие, раздающим спасибо.
[Профиль]  [ЛС] 

ssp43

Стаж: 10 лет 7 месяцев

Сообщений: 748

ssp43 · 09-Апр-17 04:25 (спустя 1 месяц 6 дней, ред. 09-Апр-17 07:51)

Igorehka писал(а):
72712700Видео какбудто поддергивается
Это верно, дёргается.
Это видео имеет 24 fps, а исходник скорее всего был 25 fps.
Перекодировали 25 в 24 fps с сохранением продолжительности, енкодер выкинул каждый 25 кадр.
Очень жаль.
А обрезали для того, чтобы скрыть склейки плёнки:

[Профиль]  [ЛС] 

гордость_нации

Стаж: 9 лет 11 месяцев

Сообщений: 308


гордость_нации · 28-Май-18 04:56 (спустя 1 год 1 месяц)

Файл несмотрибелен абсолютно из-за этих проблем с фпс.
[Профиль]  [ЛС] 

BATMETAL

Стаж: 1 год 2 месяца

Сообщений: 63

BATMETAL · 02-Мар-19 15:55 (спустя 9 месяцев, ред. 02-Мар-19 15:55)

версия с канала нтв
Mediainfo
Общее
Идентификатор : 1 (0x1)
Полное имя : D:\ati_bati_shli_soldati..._1976.ts
Формат : MPEG-TS
Размер файла : 3,40 Гбайт
Продолжительность : 1 ч. 21 м.
Режим общего битрейта : Переменный
Общий поток : 5949 Кбит/сек
Видео
Идентификатор : 201 (0xC9)
Идентификатор меню : 2201 (0x899)
Формат : AVC
Формат/Информация : Advanced Video Codec
Профиль формата : [email protected]
Настройки формата : CABAC / 4 Ref Frames
Параметр CABAC формата : Да
Параметр RefFrames формата : 4 кадра
Идентификатор кодека : 27
Продолжительность : 1 ч. 21 м.
Битрейт : 5461 Кбит/сек
Ширина : 1920 пикселей
Высота : 1080 пикселей
Соотношение сторон : 16:9
Частота кадров : 25,000 кадров/сек
Стандарт вещания : Component
Цветовое пространство : YUV
Субдискретизация насыщенности : 4:2:0
Битовая глубина : 8 бит
Тип развёртки : Чересстрочная
Метод сохранения типа развёртки : Раздельные поля
Порядок развёртки : Верхнее поле первое
Бит/(Пиксели*Кадры) : 0.105
Размер потока : 3,12 Гбайт (92%)
Цветовой диапазон : Limited
Основные цвета : BT.709
Характеристики трансфера : BT.709
Коэффициенты матрицы : BT.709
Аудио
Идентификатор : 301 (0x12D)
Идентификатор меню : 2201 (0x899)
Формат : MPEG Audio
Версия формата : Version 1
Профиль формата : Layer 2
Идентификатор кодека : 3
Продолжительность : 1 ч. 21 м.
Вид битрейта : Постоянный
Битрейт : 192 Кбит/сек
Каналы : 2 канала
Частота : 48,0 КГц
Частота кадров : 41,667 кадра/сек (1152 SPF)
Метод сжатия : С потерями
Задержка видео : -80 мс.
Размер потока : 112 Мбайт (3%)
Язык : Russian
Скриншоты
[Профиль]  [ЛС] 

malash2007

Стаж: 11 лет 7 месяцев

Сообщений: 8


malash2007 · 03-Мар-19 01:53 (спустя 9 часов)

BATMETAL
спасибо, качество отличное, хотя целиком и не смотрел
[Профиль]  [ЛС] 

FoxAndy

Top Seed 03* 160r

Стаж: 11 лет

Сообщений: 1922

FoxAndy · 07-Май-19 16:00 (спустя 2 месяца 4 дня)

Спасибо, актуальный на послезавтра фильм!
[Профиль]  [ЛС] 
 
Ответить
Loading...
Error