Красный воробей / Red Sparrow (Френсис Лоуренс / Francis Lawrence) [2018, США, Триллер, детектив, DVD9] Dub (R5) + Sub Rus + Original Eng

Страницы:  1

Ответить
Автор
Сообщение

vitolinform

Стаж: 8 месяцев

Сообщений: 173


vitolinform · 19-Сен-18 13:41 (1 месяц 2 дня назад)

Красный воробей / Red Sparrow
Страна: США
Студия: Chernin Entertainment
Жанр: Триллер, детектив
Год выпуска: 2018
Продолжительность: 02:14:31
Перевод: Профессиональный (дублированный) R5 (Двадцатый Век Фокс СНГ)
Субтитры: Английские, датские, финские, итальянские, норвежские, русские, шведские, эстонские, латвийские, литовские, украинские
Оригинальная аудиодорожка: английский
Режиссер: Френсис Лоуренс / Francis Lawrence
В ролях: Дженнифер Лоуренс, Джоэл Эдгертон, Маттиас Шонартс, Шарлотта Рэмплинг, Мэри-Луиз Паркер, Киран Хайндс, Джоэли Ричардсон, Билл Кэмп, Джереми Айронс, Текла Рютен
Описание: После вынужденного окончания карьеры из-за профессиональной травмы Доминика Егорова и ее мать сталкиваются с мрачным и неопределенным будущим. Героиня соглашается стать рекрутом в Школе Воробьев, секретной службе, которая обучает уникальных молодых людей использовать свое тело и ум в качестве опаснейшего оружия. После долгого садистского обучения девушка превращается в самого опасного Воробья за всю историю секретной службы. Теперь бывшая балерина должна примирить в себе человека, которым она была, и силу, которой она овладела, со своей собственной жизнью и жизнью всех, кто ей дорог. В том числе, американского агента ЦРУ, пытающегося убедить ее, что он единственный человек, которому она может доверять.
| IMDb | КиноПоиск | Cэмпл |
За предоставленный DVD, огромное спасибо AKIM2B
Дополнительные материалы на DVD:
- Комментарии режиссера Френсиса Лоуренса.
Вырезанные сцены:
- Подземный туннель / Балет;
- Квартира Нэта;
- Будущее Доменики;
- "Позвони мне";
- "Заслуга перед государством";
- Следуя за Нэтом;
- "И чего она достигла";
- Наблюдая за Мартой;
- "Я уверена, он хотел как лучше".
Меню: Есть, статичное, озвученное, на русском языке
Тип релиза: DVD9
Контейнер: DVD-Video
Видео: PAL 16:9 (720x576) VBR Auto Letterboxed, ~ 6994.23 kbps avg, fps 25.000
Аудио 1: English (Dolby AC3, 6 ch) | AC3, 3/2 (L,C,R,SL,SR)+LFE ch, 448 kbps, 48.0 kHz, 16 bits
Аудио 2: Italiano (Dolby AC3, 6 ch) | AC3, 3/2 (L,C,R,SL,SR)+LFE ch, 384 kbps, 48.0 kHz, 16 bits
Аудио 3: Russian (Dolby AC3, 6 ch) | AC3, 3/2 (L,C,R,SL,SR)+LFE ch, 384 kbps, 48.0 kHz, 16 bits
Аудио 4: Ukrainian (Dolby AC3, 6 ch) | AC3, 3/2 (L,C,R,SL,SR)+LFE ch, 384 kbps, 48.0 kHz, 16 bits
Аудио 5: English (Dolby AC3, 2 ch) | AC3, 2 ch, 192 kbps, 48.0 kHz, 16 bits (Комментарии режиссера)
Формат субтитров: prerendered (DVD/IDX+SUB)
MediaInfo
Title: Krasnyi.Vorobeyi.2019.DVD9
Size: 6.99 Gb ( 7 331 916,00 KBytes ) - DVD-9
Enabled regions: 1, 2, 3, 4, 5, 6, 7, 8
VTS_01 :
Play Length: 00:00:00+00:00:07+00:00:07+00:00:07+00:00:07+00:00:07+00:00:07+00:00:07+00:00:07+00:00:07+00:00:07+00:00:07+{00:00:00}+00:00:05+00:00:05+00:00:05+{00:00:00}+{00:00:00}+00:00:06+00:00:06+00:00:10+{00:00:00}+{00:00:00}+{00:00:00}+{00:00:00}+{00:00:00}
Video: PAL 16:9 (720x576) VBR, Auto Letterboxed
VTS_02 :
Play Length: 00:00:11+00:00:00
Video: PAL 16:9 (720x576) VBR, Auto Letterboxed
Audio:
English, AC3, 3/2 (L,C,R,SL,SR)+LFE ch, 448 kbps, Delay -49 mSec
VTS_03 :
Play Length: 00:00:00+{00:00:00}+{00:00:00}
Video: PAL 16:9 (720x576) VBR, Auto Letterboxed
VTS_04 :
Play Length: 00:00:00+{00:00:00}+{00:00:00}+{00:00:00}+{00:00:00}+{00:00:00}+{00:00:00}+{00:00:00}
Video: PAL 16:9 (720x576) VBR, Auto Letterboxed
VTS_05 :
Play Length: 00:00:00+{00:00:00}+{00:00:00}+{00:00:00}+{00:00:00}+{00:00:00}+{00:00:00}+{00:00:00}+{00:00:00}
Video: PAL 16:9 (720x576) VBR, Auto Letterboxed
VTS_06 :
Play Length: 00:11:56+00:00:52+00:00:24+00:01:47+00:01:50+{00:00:00}+00:00:18+00:02:24+00:00:58+00:01:42+00:00:23+{00:00:52}
Video: PAL 16:9 (720x576) VBR, Auto Letterboxed
Audio:
English, AC3, 2/0 (L,R) ch, 192 kbps, Delay 0 mSec
English, AC3, 2/0 (L,R) ch, 192 kbps, Delay 0 mSec
Subtitles:
Dansk
Suomi
Italiano
Norsk
Russian
Svenska
Dansk
Suomi
Italiano
Norsk
Russian
Svenska
VTS_07 :
Play Length: 00:00:01+02:14:30
Video: PAL 16:9 (720x576) VBR, Auto Letterboxed
Audio:
English, AC3, 3/2 (L,C,R,SL,SR)+LFE ch, 448 kbps, Delay -49 mSec
Italiano, AC3, 3/2 (L,C,R,SL,SR)+LFE ch, 384 kbps, Delay -49 mSec
Russian, AC3, 3/2 (L,C,R,SL,SR)+LFE ch, 384 kbps, Delay -49 mSec
Ukrainian, AC3, 3/2 (L,C,R,SL,SR)+LFE ch, 384 kbps, Delay -49 mSec
English, AC3, 2/0 (L,R) ch, 192 kbps, Delay -49 mSec
Subtitles:
English
Dansk
Suomi
Italiano
Norsk
Russian
Svenska
Estonian
Latvian
Lithuanian
Ukrainian
English
Italiano
Russian
Ukrainian
Dansk
Suomi
Italiano
Norsk
Russian
Svenska
VTS_08 :
Play Length: 00:00:00+{00:00:00}
Video: PAL 16:9 (720x576) VBR, Auto Pan&Scan
VTS_09 :
Play Length: 00:00:00+{00:00:00}+{00:00:00}+{00:00:00}+{00:00:00}+{00:00:00}+{00:00:00}+{00:00:00}+{00:00:00}+{00:00:00}
Video: PAL 16:9 (720x576) VBR, Auto Letterboxed
VTS_10 :
Play Length: 00:00:00+{00:00:00}+{00:00:00}+{00:00:00}+{00:00:00}
Video: PAL 16:9 (720x576) VBR, Auto Letterboxed
VTS_11 :
Play Length: 00:00:00+{00:00:00}
Video: PAL 16:9 (720x576) VBR, Auto Letterboxed
VTS_12 :
Play Length: 00:00:00
Video: PAL 16:9 (720x576) VBR, Auto Letterboxed
VTS_13 :
Play Length: 00:00:00
Video: PAL 16:9 (720x576) VBR, Auto Letterboxed
===============================================
Общее
Полное имя : C:\Users\User\Downloads\Krasnyi.Vorobeyi.2019.DVD9\VIDEO_TS\VTS_07_1.VOB
Формат : MPEG-PS
Размер файла : 1024 Мбайт
Продолжительность : 21 м. 17 с.
Режим общего битрейта : Переменный
Общий поток : 6726 Кбит/сек
Видео
Идентификатор : 224 (0xE0)
Формат : MPEG Video
Версия формата : Version 2
Профиль формата : [email protected]
Настройки формата : CustomMatrix / BVOP
Параметр BVOP формата : Да
Параметр матрицы формата : Выборочная
Параметр GOP формата : Variable
Продолжительность : 21 м. 17 с.
Вид битрейта : Переменный
Битрейт : 4800 Кбит/сек
Ширина : 720 пикселей
Высота : 576 пикселей
Соотношение сторон : 16:9
Частота кадров : 25,000 кадров/сек
Стандарт вещания : PAL
Цветовое пространство : YUV
Субдискретизация насыщенности : 4:2:0
Битовая глубина : 8 бит
Тип развёртки : Прогрессивная
Порядок развёртки : Верхнее поле первое
Метод сжатия : С потерями
Бит/(Пиксели*Кадры) : 0.463
Временной код первого кадра : 00:00:00:00
Оригинал временного кода : Group of pictures header
Размер потока : 731 Мбайт (71%)
Аудио #1
Идентификатор : 189 (0xBD)-128 (0x80)
Формат : AC-3
Формат/Информация : Audio Coding 3
Режим смешивания : DVD-Video
Продолжительность : 21 м. 16 с.
Вид битрейта : Постоянный
Битрейт : 448 Кбит/сек
Каналы : 6 каналов
Расположение каналов : Front: L C R, Side: L R, LFE
Частота : 48,0 КГц
Частота кадров : 31,250 кадров/сек (1536 SPF)
Битовая глубина : 16 бит
Метод сжатия : С потерями
Задержка видео : -50 мс.
Размер потока : 68,2 Мбайт (7%)
ServiceKind/String : Complete Main
Аудио #2
Идентификатор : 189 (0xBD)-129 (0x81)
Формат : AC-3
Формат/Информация : Audio Coding 3
Режим смешивания : DVD-Video
Продолжительность : 21 м. 16 с.
Вид битрейта : Постоянный
Битрейт : 384 Кбит/сек
Каналы : 6 каналов
Расположение каналов : Front: L C R, Side: L R, LFE
Частота : 48,0 КГц
Частота кадров : 31,250 кадров/сек (1536 SPF)
Битовая глубина : 16 бит
Метод сжатия : С потерями
Задержка видео : -50 мс.
Размер потока : 58,5 Мбайт (6%)
ServiceKind/String : Complete Main
Аудио #3
Идентификатор : 189 (0xBD)-130 (0x82)
Формат : AC-3
Формат/Информация : Audio Coding 3
Режим смешивания : DVD-Video
Продолжительность : 21 м. 16 с.
Вид битрейта : Постоянный
Битрейт : 384 Кбит/сек
Каналы : 6 каналов
Расположение каналов : Front: L C R, Side: L R, LFE
Частота : 48,0 КГц
Частота кадров : 31,250 кадров/сек (1536 SPF)
Битовая глубина : 16 бит
Метод сжатия : С потерями
Задержка видео : -50 мс.
Размер потока : 58,5 Мбайт (6%)
ServiceKind/String : Complete Main
Аудио #4
Идентификатор : 189 (0xBD)-131 (0x83)
Формат : AC-3
Формат/Информация : Audio Coding 3
Режим смешивания : DVD-Video
Продолжительность : 21 м. 16 с.
Вид битрейта : Постоянный
Битрейт : 384 Кбит/сек
Каналы : 6 каналов
Расположение каналов : Front: L C R, Side: L R, LFE
Частота : 48,0 КГц
Частота кадров : 31,250 кадров/сек (1536 SPF)
Битовая глубина : 16 бит
Метод сжатия : С потерями
Задержка видео : -50 мс.
Размер потока : 58,5 Мбайт (6%)
ServiceKind/String : Complete Main
Аудио #5
Идентификатор : 189 (0xBD)-132 (0x84)
Формат : AC-3
Формат/Информация : Audio Coding 3
Режим смешивания : DVD-Video
Продолжительность : 21 м. 16 с.
Вид битрейта : Постоянный
Битрейт : 192 Кбит/сек
Каналы : 2 канала
Расположение каналов : Front: L R
Частота : 48,0 КГц
Частота кадров : 31,250 кадров/сек (1536 SPF)
Битовая глубина : 16 бит
Метод сжатия : С потерями
Задержка видео : -50 мс.
Размер потока : 29,2 Мбайт (3%)
ServiceKind/String : Complete Main
Текст #1
Идентификатор : 189 (0xBD)-47 (0x2F)
Формат : RLE
Формат/Информация : Run-length encoding
Режим смешивания : DVD-Video
Текст #2
Идентификатор : 189 (0xBD)-48 (0x30)
Формат : RLE
Формат/Информация : Run-length encoding
Режим смешивания : DVD-Video
Текст #3
Идентификатор : 189 (0xBD)-49 (0x31)
Формат : RLE
Формат/Информация : Run-length encoding
Режим смешивания : DVD-Video
Текст #4
Идентификатор : 189 (0xBD)-50 (0x32)
Формат : RLE
Формат/Информация : Run-length encoding
Режим смешивания : DVD-Video
Текст #5
Идентификатор : 189 (0xBD)-51 (0x33)
Формат : RLE
Формат/Информация : Run-length encoding
Режим смешивания : DVD-Video
Текст #6
Идентификатор : 189 (0xBD)-52 (0x34)
Формат : RLE
Формат/Информация : Run-length encoding
Режим смешивания : DVD-Video
Меню
Скриншоты меню
Скриншоты
Скриншоты доп. материалов
Download
Для скачивания .torrent файлов необходима регистрация
Сайт не распространяет и не хранит электронные версии произведений, а лишь предоставляет доступ к создаваемому пользователями каталогу ссылок на торрент-файлы, которые содержат только списки хеш-сумм
[Профиль]  [ЛС] 

bot · 20-Сен-18 08:22 (спустя 18 часов)

Тема была перенесена из форума DVD Video в форум Зарубежное кино (DVD Video)
perrelcin
 

13noir13

Стаж: 9 лет 7 месяцев

Сообщений: 23


13noir13 · 25-Сен-18 11:46 (спустя 5 дней)

[Цитировать] 

Качаю фильм, за качество и субтитры (мне это очень важно), помогу с раздачей.
[Профиль]  [ЛС] 

cr24

Стаж: 8 лет 8 месяцев

Сообщений: 1123

cr24 · 01-Окт-18 11:52 (спустя 6 дней)

[Цитировать] 

vitolinform и AKIM2B Спасибо за криминальный триллер на DVD9 с доп.материалами )))
[Профиль]  [ЛС] 
 
Ответить
Loading...
Error