(Pop/Vocal/Classic) [CD] Julio Iglesias - Mexico & Amigos - 2017, FLAC (image+.cue), lossless

Страницы:  1

Ответить
Автор
Сообщение

RedHotBlues

Стаж: 6 лет 5 месяцев

Сообщений: 661

RedHotBlues · 09-Июн-17 12:53 (11 месяцев назад)

Julio Iglesias / Mexico & Amigos
Жанр: Pop/Vocal/Classic
Носитель: CD
Страна-производитель диска (релиза): Russia
Год издания: 2017
Издатель (лейбл): Time Blues
Страна исполнителя (группы): Espana
Аудиокодек: FLAC (*.flac)
Тип рипа: image+.cue
Битрейт аудио: lossless
Продолжительность: 43'39''
Источник (релизер): RedHotBlues (собственный диск)
Наличие сканов в содержимом раздачи: да
Треклист:
CD: Julio Iglesias - Mexico & Amigos
01. Julio Iglesias & Diego Torres / Usted [0:03:28.70]
02. Julio Iglesias & Juan Luis Guerra / Jurame [0:04:07.58]
03. Julio Iglesias & Sin Bandera / Ella [0:03:45.49]
04. Julio Iglesias & Placido Domingo / Fallaste Corazon [0:04:01.12]
05. Julio Iglesias & Thalia / Quien Sera [0:03:41.57]
06. Julio Iglesias & Pablo Alboran / Amaneci En Tus Brazos [0:03:17.62]
07. Julio Iglesias & Omara Portuondo / Echame A Mi La Culpa [0:03:36.44]
08. Julio Iglesias & Andres Calamaro / Juan Charrasqueado [0:03:38.20]
09. Julio Iglesias & Joaquin Sabina / Y Nos Dieron Las Diez [0:04:54.17]
10. Julio Iglesias & Eros Ramazzotti / La Media Vuelta [0:03:18.24]
11. Julio Iglesias & Mario Domm / Se Me Olvidу Otra Vez [0:03:00.40]
12. Mexico Lindo [0:02:46.51]
Лог создания рипа
Exact Audio Copy V1.3 from 2. September 2016
Отчёт EAC об извлечении, выполненном 6. июня 2017, 17:29
Julio Iglesias / Mexico & Amigos
Дисковод: _NEC DVD_RW ND-4570A Adapter: 1 ID: 2
Режим чтения : Достоверность
Использование точного потока : Да
Отключение кэша аудио : Да
Использование указателей C2 : Нет
Коррекция смещения при чтении : 48
Способность читать области Lead-in и Lead-out : Нет
Заполнение пропущенных сэмплов тишиной : Да
Удаление блоков с тишиной в начале и конце : Нет
При вычислениях CRC использовались нулевые сэмплы : Да
Интерфейс : Встроенный Win32-интерфейс для Win NT/2000
Выходной формат : Пользовательский кодировщик
Выбранный битрейт : 768 kBit/s
Качество : Высокий
Добавление ID3-тега : Нет
Утилита сжатия : C:\Program Files\Exact Audio Copy\FLAC\FLAC.EXE
Дополнительные параметры : -6 -V -T "ARTIST=%artist%" -T "TITLE=%title%" -T "ALBUM=%albumtitle%" -T "DATE=%year%" -T "TRACKNUMBER=%tracknr%" -T "GENRE=%genre%" -T "COMMENT=%comment%" -T "BAND=%albuminterpret%" -T "ALBUMARTIST=%albuminterpret%" -T "COMPOSER=%composer%" %haslyrics%--tag-from-file=LYRICS="%lyricsfile%"%haslyrics% -T "DISCNUMBER=%cdnumber%" -T "TOTALDISCS=%totalcds%" -T "TOTALTRACKS=%numtracks%" %hascover%--picture="%coverfile%"%hascover% %source% -o %dest%
TOC извлечённого CD
Трек | Старт | Длительность | Начальный сектор | Конечный сектор
---------------------------------------------------------------------
1 | 0:00.00 | 3:28.70 | 0 | 15669
2 | 3:28.70 | 4:07.58 | 15670 | 34252
3 | 7:36.53 | 3:45.49 | 34253 | 51176
4 | 11:22.27 | 4:01.12 | 51177 | 69263
5 | 15:23.39 | 3:41.57 | 69264 | 85895
6 | 19:05.21 | 3:17.62 | 85896 | 100732
7 | 22:23.08 | 3:36.44 | 100733 | 116976
8 | 25:59.52 | 3:38.20 | 116977 | 133346
9 | 29:37.72 | 4:54.17 | 133347 | 155413
10 | 34:32.14 | 3:18.24 | 155414 | 170287
11 | 37:50.38 | 3:00.40 | 170288 | 183827
12 | 40:51.03 | 2:46.51 | 183828 | 196328
Характеристики диапазона извлечения и сообщения об ошибках
Выбранный диапазон
Имя файла F:\New Uploads 01.12.2016\Julio Iglesias - Mexico & Amigos - 2017 43'39''\Julio Iglesias - Mexico & Amigos.wav
Пиковый уровень 98.9 %
Скорость извлечения 6.8 X
Качество диапазона 100.0 %
CRC теста 3E04E0BD
CRC копии 3E04E0BD
Копирование... OK
Ошибок не произошло
Конец отчёта
---- CUETools DB Plugin V2.1.6
[CTDB TOCID: Luta4VOiMdF.16Ze6aNPoDr1C1U-] found
Submit result: Luta4VOiMdF.16Ze6aNPoDr1C1U- has been confirmed
Track | CTDB Status
1 | (2/2) Accurately ripped
2 | (2/2) Accurately ripped
3 | (2/2) Accurately ripped
4 | (2/2) Accurately ripped
5 | (2/2) Accurately ripped
6 | (2/2) Accurately ripped
7 | (2/2) Accurately ripped
8 | (2/2) Accurately ripped
9 | (2/2) Accurately ripped
10 | (2/2) Accurately ripped
11 | (2/2) Accurately ripped
12 | (2/2) Accurately ripped
==== Контрольная сумма отчёта 0D30576E4CED61C63BB13925B4CE7619188BB58B4A91E70B4902280802B46DF2 ====
Содержание индексной карты (.CUE)
REM GENRE Pop
REM DATE 2017
REM DISCID 9F0A390C
REM COMMENT "ExactAudioCopy v1.3"
PERFORMER "Julio Iglesias"
TITLE "Mexico & Amigos"
REM COMPOSER " "
FILE "Julio Iglesias - Mexico & Amigos.flac" WAVE
TRACK 01 AUDIO
TITLE "Usted"
PERFORMER "Julio Iglesias & Diego Torres"
REM COMPOSER "Gabriel Ruiz / Josй Antonio Zorrilla "
INDEX 01 00:00:00
TRACK 02 AUDIO
TITLE "Jurame"
PERFORMER "Julio Iglesias & Juan Luis Guerra"
REM COMPOSER "Maria Grever "
INDEX 01 03:28:70
TRACK 03 AUDIO
TITLE "Ella"
PERFORMER "Julio Iglesias & Sin Bandera"
REM COMPOSER "Jose Alfredo Jimenez "
INDEX 01 07:36:53
TRACK 04 AUDIO
TITLE "Fallaste Corazon"
PERFORMER "Julio Iglesias & Placido Domingo"
REM COMPOSER "Cuco Sanchez "
INDEX 01 11:22:27
TRACK 05 AUDIO
TITLE "Quien Sera"
PERFORMER "Julio Iglesias & Thalia"
REM COMPOSER "Pablo Beltran Ruiz / Luis Demetrio Traconis Molina "
INDEX 01 15:23:39
TRACK 06 AUDIO
TITLE "Amaneci En Tus Brazos"
PERFORMER "Julio Iglesias & Pablo Alboran"
REM COMPOSER "Jose Alfredo Jimenez "
INDEX 01 19:05:21
TRACK 07 AUDIO
TITLE "Echame A Mi La Culpa"
PERFORMER "Julio Iglesias & Omara Portuondo"
REM COMPOSER "Jose Angel Espinoza "
INDEX 01 22:23:08
TRACK 08 AUDIO
TITLE "Juan Charrasqueado"
PERFORMER "Julio Iglesias & Andres Calamaro"
REM COMPOSER "Victor Cordero "
INDEX 01 25:59:52
TRACK 09 AUDIO
TITLE "Y Nos Dieron Las Diez"
PERFORMER "Julio Iglesias & Joaquin Sabina"
REM COMPOSER "Joaquin Sabina "
INDEX 01 29:37:72
TRACK 10 AUDIO
TITLE "La Media Vuelta"
PERFORMER "Julio Iglesias & Eros Ramazzotti"
REM COMPOSER "Jose Alfredo Jimenez "
INDEX 01 34:32:14
TRACK 11 AUDIO
TITLE "Se Me Olvidу Otra Vez"
PERFORMER "Julio Iglesias & Mario Domm"
REM COMPOSER "Alberto Aguilera Valadez "
INDEX 01 37:50:38
TRACK 12 AUDIO
TITLE "Mexico Lindo"
PERFORMER "Julio Iglesias"
REM COMPOSER "Chucho Monge "
INDEX 01 40:51:03
Лог проверки качества
-----------------------
DON'T MODIFY THIS FILE
-----------------------
PERFORMER: auCDtect Task Manager, ver. 1.6.0 RC1 build 1.6.0.1
Copyright (c) 2008-2010 y-soft. All rights reserved
http://y-soft.org
ANALYZER: auCDtect: CD records authenticity detector, version 0.8.2
Copyright (c) 2004 Oleg Berngardt. All rights reserved.
Copyright (c) 2004 Alexander Djourik. All rights reserved.
FILE: Julio Iglesias - Mexico & Amigos.flac
Size: 343508907 Hash: C6CC219769AB810824B17297F803B28B Accuracy: -m0
Conclusion: CDDA 100%
Signature: 1777C9A5E68D902E2DBC80325A07DCF83F1B6EDB
Доп. информация: Новый альбом Иглесиаса (Старшего) просто замечательный!
Подбор материала, участников проекта (друзей), музыкантов - высший пилотаж!
Браво, Хулио!
Download
Для скачивания .torrent файлов необходима регистрация
Сайт не распространяет и не хранит электронные версии произведений, а лишь предоставляет доступ к создаваемому пользователями каталогу ссылок на торрент-файлы, которые содержат только списки хеш-сумм
[Профиль]  [ЛС] 

compgeniy

Top Bonus 05* 10TB

Стаж: 7 лет 2 месяца

Сообщений: 536

compgeniy · 01-Фев-18 01:20 (спустя 7 месяцев)

[Цитировать] 

https://www.discogs.com/release/10367565 это релиз?
[Профиль]  [ЛС] 

anyutcka

Стаж: 8 лет 5 месяцев

Сообщений: 13

anyutcka · 23-Фев-18 16:13 (спустя 22 дня)

[Цитировать] 

Жаль, что заказчик или исполнитель заказа создали фонограмму с клиппингом... Впрочем уже 20 с лишним лет этим занимаються... А так приятно слушать этого певца
[Профиль]  [ЛС] 
 
Ответить
Loading...
Error