(Latin Pop) Julio Iglesias - Collection (9CD + 1CDM) - 1979-2006, FLAC (image+.cue), lossless

Страницы:  1

Ответить
Автор
Сообщение

italia57

Стаж: 10 лет 6 месяцев

Сообщений: 2598

italia57 · 24-Дек-17 21:01 (7 месяцев назад, ред. 20-Май-18 06:56)

★●• Julio Iglesias - Collection •●★
Страна-производитель диска: USA, EUГод издания альбомов: 1979 - 2006
Аудиокодек: FLAC (*.flac)Тип рипа: image+.cueБитрейт аудио: lossless
Общая продолжительность: 6:23:18Cканы в содержимом раздачи: да
Источник (релизер): Рипы оригинальных дисков из личной коллекции




●★● АЛЬБОМЫ ●★●
1979. Innamorarsi alla mia età - 38:55 •●★●• CBS Discos International | USA | CD-80303

01. Non si vive così
02. Innamorarsi alla mia età
03. Quasi un santo
04. La nostra buona educazione
05. Un giorno tu, un giorno io
06. Se tornassi
07. A meno che
08. Quando si ama davvero
09. Chi mi aspettava non è più là
10. Amo te



1980. Amanti - 36:50 •●★●• CBS Discos International | USA | CD-80301

01. Hey!
02. Amanti
03. Insieme
04. Dividila con me
05. Volo
06. Chi è stato?
07. Un sentimentale
08. Ritornare a casa
09. Andiamo a cena fuori
10. Cioui, cioui



1981. Minhas canções preferidas - 39:32 •●★●• CBS Discos International | USA | CD-80300

01. Hey!
02. Pobre diabo
03. Me esqueci de viver
04. Não venho nem vou
05. Inesquecível boemia
06. A menos que
07. Camiñito
08. Velhas tradições
09. Por ela
10. Por você



1982. Momenti - 37:49 •●★●• CBS Discos International | USA | CD-80307

01. Sono un vagabondo
02. La donna che voglio
03. Bella bella
04. Momenti
05. Amor, amor, amor
06. Nathalie
07. Se l'amore se ne va
08. Venezia a settembre
09. Avanti tutta
10. Arrangiati amore



1987. Tutto l'amore che ti manca - 41:03 •●★●• CBS | Austria | CBS 450990 2

01. Un padre come me
02. Tutto l'amore che ti manca
03. America
04. Evadendomi
05. Il miele in corpo
06. Se mi dai una mano tu
07. Innocenza selvaggia
08. Compagna antagonista
09. Un uomo solo
10. Se vuoi continuare cosi



1989. Latinamente - 40:07 •●★●• CBS | Austria | CBS 465374 2

01. Latino
02. Cavallo stanco / Bamboleo
03. Messico
04. Brasile
05. Italia
06. Francia



1992. Anche senza di te - 40:06 •●★●• Columbia | Austria | COL 471835 2

01. Anche senza di te
02. Signora felicità
03. Lia
04. La quiero como es
05. When I Need You
06. Se ora avessi un po' di te
07. Due pazzi d'amore
08. A caña y a café
09. Me ama mô
10. Can't Help Falling in Love



2001. Una donna può cambiar la vita - 52:03 •●★●• Columbia | Austria | COL 502395 2

01. Una donna può cambiar la vita
02. Il destino
03. Chi mi aspettava non è più là
04. Se tornassi
05. Se ora avessi un po' di te
06. Avanti tutta
07. Pensami
08. La sarabanda
09. Non si vive così
10. Momenti
11. La nostra buona educazione
12. Su questa strada
13. Passar di mano
14. Sono un pirata, sono un signore



2006. Romantic Classics - 45:44 •●★●• Columbia | USA | 82876 84619 2

01. Everybody's Talking
02. How Can You Mend a Broken Heart?
03. Careless Whisper
04. Always on My Mind
05. Waiting for a Girl Like You
06. Drive
07. I Want to Know What Love Is
08. Right Here Waiting
09. This Guy's in Love with You
10. The Most Beautiful Girl
11. It's Impossible
12. Just Walk Away - duet with Wendy Moten





●★● СИНГЛ ●★●

1994. When You Tell Me That You Love Me [CDM] - 11:04 •●★●• CBS/Sony | Austria | COL 660685 2

01. When You Tell Me That You Love Me - duet with Dolly Parton
02. L-O-V-E
03. I Keep Telling Myself




Download
Для скачивания .torrent файлов необходима регистрация
Сайт не распространяет и не хранит электронные версии произведений, а лишь предоставляет доступ к создаваемому пользователями каталогу ссылок на торрент-файлы, которые содержат только списки хеш-сумм
[Профиль]  [ЛС] 

italia57

Стаж: 10 лет 6 месяцев

Сообщений: 2598

italia57 · 15-Фев-18 20:35 (спустя 1 месяц 21 день, ред. 23-Апр-18 19:50)

[Цитировать] 


●★● EAC ЛОГИ ●★●
АЛЬБОМЫ И СИНГЛ
1979. Innamorarsi alla mia età
Exact Audio Copy V1.2 from 12. August 2016
EAC extraction logfile from 5. September 2016, 17:23
Julio Iglesias / Innamorarsi alla mia eta
Used drive : TSSTcorpCDDVDW TS-L633C Adapter: 1 ID: 0
Read mode : Secure
Utilize accurate stream : Yes
Defeat audio cache : Yes
Make use of C2 pointers : No
Read offset correction : 6
Overread into Lead-In and Lead-Out : No
Fill up missing offset samples with silence : Yes
Delete leading and trailing silent blocks : No
Null samples used in CRC calculations : Yes
Used interface : Native Win32 interface for Win NT & 2000
Used output format : Internal WAV Routines
Sample format : 44.100 Hz; 16 Bit; Stereo
TOC of the extracted CD
Track | Start | Length | Start sector | End sector
---------------------------------------------------------
1 | 0:00.00 | 4:48.72 | 0 | 21671
2 | 4:48.72 | 5:13.18 | 21672 | 45164
3 | 10:02.15 | 3:01.32 | 45165 | 58771
4 | 13:03.47 | 3:44.48 | 58772 | 75619
5 | 16:48.20 | 3:03.30 | 75620 | 89374
6 | 19:51.50 | 2:51.17 | 89375 | 102216
7 | 22:42.67 | 4:49.43 | 102217 | 123934
8 | 27:32.35 | 4:20.37 | 123935 | 143471
9 | 31:52.72 | 3:32.40 | 143472 | 159411
10 | 35:25.37 | 3:34.63 | 159412 | 175524
Range status and errors
Selected range
Filename D:\Julio Iglesias - Innamorarsi alla mia eta (CD-80303).wav
Peak level 100.0 %
Extraction speed 3.7 X
Range quality 100.0 %
Test CRC 3E3974E5
Copy CRC 3E3974E5
Copy OK
No errors occurred
AccurateRip summary
Track 1 not present in database
Track 2 not present in database
Track 3 not present in database
Track 4 not present in database
Track 5 not present in database
Track 6 not present in database
Track 7 not present in database
Track 8 not present in database
Track 9 not present in database
Track 10 not present in database
None of the tracks are present in the AccurateRip database
End of status report
---- CUETools DB Plugin V2.1.6
[CTDB TOCID: 13SXRbX23eaQAbLmRSw5o4HFrVQ-] found
Submit result: 13SXRbX23eaQAbLmRSw5o4HFrVQ- has been confirmed
Track | CTDB Status
1 | (1/1) Accurately ripped
2 | (1/1) Accurately ripped
3 | (1/1) Accurately ripped
4 | (1/1) Accurately ripped
5 | (1/1) Accurately ripped
6 | (1/1) Accurately ripped
7 | (1/1) Accurately ripped
8 | (1/1) Accurately ripped
9 | (1/1) Accurately ripped
10 | (1/1) Accurately ripped
==== Log checksum B8F12CC2C6752357BB0D6DED983FD9BBFE22E16DE2C7B76DAECBECBD992D0ABC ====
1980. Amanti
Exact Audio Copy V1.3 from 2. September 2016
EAC extraction logfile from 14. August 2017, 19:03
Julio Iglesias / Amanti
Used drive : TSSTcorpCDDVDW SN-S082N Adapter: 1 ID: 1
Read mode : Secure
Utilize accurate stream : Yes
Defeat audio cache : Yes
Make use of C2 pointers : No
Read offset correction : 6
Overread into Lead-In and Lead-Out : No
Fill up missing offset samples with silence : Yes
Delete leading and trailing silent blocks : No
Null samples used in CRC calculations : Yes
Used interface : Native Win32 interface for Win NT & 2000
Used output format : Internal WAV Routines
Sample format : 44.100 Hz; 16 Bit; Stereo
TOC of the extracted CD
Track | Start | Length | Start sector | End sector
---------------------------------------------------------
1 | 0:00.00 | 3:48.47 | 0 | 17146
2 | 3:48.47 | 3:07.53 | 17147 | 31224
3 | 6:56.25 | 4:01.50 | 31225 | 49349
4 | 10:58.00 | 3:53.72 | 49350 | 66896
5 | 14:51.72 | 3:31.05 | 66897 | 82726
6 | 18:23.02 | 4:06.50 | 82727 | 101226
7 | 22:29.52 | 4:01.08 | 101227 | 119309
8 | 26:30.60 | 3:34.05 | 119310 | 135364
9 | 30:04.65 | 3:33.55 | 135365 | 151394
10 | 33:38.45 | 3:12.02 | 151395 | 165796
Range status and errors
Selected range
Filename H:\LOSSLESS\LATIN POP\Julio Iglesias - Collection (FLAC)\1980 - Amanti\Julio Iglesias - Amanti (CD-80301).wav
Peak level 100.0 %
Extraction speed 1.0 X
Range quality 100.0 %
Test CRC E68C5CBF
Copy CRC E68C5CBF
Copy OK
No errors occurred
AccurateRip summary
Track 1 accurately ripped (confidence 1) [6583FD02] (AR v2)
Track 2 accurately ripped (confidence 1) [C5623653] (AR v2)
Track 3 accurately ripped (confidence 1) [DF8C4A45] (AR v2)
Track 4 accurately ripped (confidence 1) [867CFF40] (AR v2)
Track 5 accurately ripped (confidence 1) [C2D9E8AF] (AR v2)
Track 6 accurately ripped (confidence 1) [CCC5D9F9] (AR v2)
Track 7 cannot be verified as accurate (confidence 1) [0A35DCC5], AccurateRip returned [20311523] (AR v2)
Track 8 cannot be verified as accurate (confidence 1) [D7C62519], AccurateRip returned [45B13463] (AR v2)
Track 9 cannot be verified as accurate (confidence 1) [EB65631D], AccurateRip returned [ED2C4044] (AR v2)
Track 10 cannot be verified as accurate (confidence 1) [CFABEFD5], AccurateRip returned [305F6B31] (AR v2)
6 track(s) accurately ripped
4 track(s) could not be verified as accurate
Some tracks could not be verified as accurate
End of status report
---- CUETools DB Plugin V2.1.6
[CTDB TOCID: su1KMHdDB4anuU3wjy4NpVmKGzI-] disk not present in database
Submit result: su1KMHdDB4anuU3wjy4NpVmKGzI- has been uploaded
==== Log checksum 23A14A5D0B4533C4D8BD8C3181E1E674E99B991AB7AA36B203C8FB2E88A4DEFA ====
1981. Minhas canções preferidas
Exact Audio Copy V1.2 from 12. August 2016
EAC extraction logfile from 5. October 2016, 17:57
Julio Iglesias / Minhas cancoes preferidas
Used drive : TSSTcorpCDDVDW TS-L633C Adapter: 1 ID: 0
Read mode : Secure
Utilize accurate stream : Yes
Defeat audio cache : Yes
Make use of C2 pointers : No
Read offset correction : 6
Overread into Lead-In and Lead-Out : No
Fill up missing offset samples with silence : Yes
Delete leading and trailing silent blocks : No
Null samples used in CRC calculations : Yes
Used interface : Native Win32 interface for Win NT & 2000
Used output format : Internal WAV Routines
Sample format : 44.100 Hz; 16 Bit; Stereo
TOC of the extracted CD
Track | Start | Length | Start sector | End sector
---------------------------------------------------------
1 | 0:00.00 | 3:53.20 | 0 | 17494
2 | 3:53.20 | 3:01.47 | 17495 | 31116
3 | 6:54.67 | 4:57.48 | 31117 | 53439
4 | 11:52.40 | 3:30.67 | 53440 | 69256
5 | 15:23.32 | 4:19.65 | 69257 | 88746
6 | 19:43.22 | 5:10.30 | 88747 | 112026
7 | 24:53.52 | 3:33.48 | 112027 | 128049
8 | 28:27.25 | 3:40.50 | 128050 | 144599
9 | 32:08.00 | 3:58.72 | 144600 | 162521
10 | 36:06.72 | 3:25.70 | 162522 | 177966
Range status and errors
Selected range
Filename J:\TorrentShare\Julio Iglesias - Collection (FLAC)\1981 - Minhas cancoes preferidas\Julio Iglesias - Minhas cancoes preferidas (CD-80300).wav
Peak level 57.8 %
Extraction speed 1.2 X
Range quality 100.0 %
Test CRC C53444A6
Copy CRC C53444A6
Copy OK
No errors occurred
AccurateRip summary
Track 1 not present in database
Track 2 not present in database
Track 3 not present in database
Track 4 not present in database
Track 5 not present in database
Track 6 not present in database
Track 7 not present in database
Track 8 not present in database
Track 9 not present in database
Track 10 not present in database
None of the tracks are present in the AccurateRip database
End of status report
---- CUETools DB Plugin V2.1.6
[CTDB TOCID: W5ii3wEEggBF5E06fgfC1mTW_wM-] disk not present in database
Submit result: W5ii3wEEggBF5E06fgfC1mTW_wM- has been uploaded
==== Log checksum 3C291D49C61D6326D222AC104693BA3460F2581151F723EDEB1F213E91BD8EFA ====
1982. Momenti
Exact Audio Copy V1.2 from 12. August 2016
EAC extraction logfile from 22. September 2016, 17:14
Julio Iglesias / Momenti
Used drive : TSSTcorpCDDVDW TS-L633C Adapter: 1 ID: 0
Read mode : Secure
Utilize accurate stream : Yes
Defeat audio cache : Yes
Make use of C2 pointers : No
Read offset correction : 6
Overread into Lead-In and Lead-Out : No
Fill up missing offset samples with silence : Yes
Delete leading and trailing silent blocks : No
Null samples used in CRC calculations : Yes
Used interface : Native Win32 interface for Win NT & 2000
Used output format : Internal WAV Routines
Sample format : 44.100 Hz; 16 Bit; Stereo
TOC of the extracted CD
Track | Start | Length | Start sector | End sector
---------------------------------------------------------
1 | 0:00.00 | 4:03.60 | 0 | 18284
2 | 4:03.60 | 4:09.02 | 18285 | 36961
3 | 8:12.62 | 3:31.68 | 36962 | 52854
4 | 11:44.55 | 3:36.15 | 52855 | 69069
5 | 15:20.70 | 3:22.02 | 69070 | 84221
6 | 18:42.72 | 3:57.53 | 84222 | 102049
7 | 22:40.50 | 3:50.62 | 102050 | 119361
8 | 26:31.37 | 4:22.00 | 119362 | 139011
9 | 30:53.37 | 3:37.55 | 139012 | 155341
10 | 34:31.17 | 3:17.70 | 155342 | 170186
Range status and errors
Selected range
Filename D:\Julio Iglesias - Momenti (CD-80307).wav
Peak level 66.0 %
Extraction speed 3.3 X
Range quality 100.0 %
Test CRC B440BCBD
Copy CRC B440BCBD
Copy OK
No errors occurred
AccurateRip summary
Track 1 accurately ripped (confidence 1) [6E268E02] (AR v2)
Track 2 accurately ripped (confidence 1) [1F2E1EA2] (AR v2)
Track 3 accurately ripped (confidence 1) [7A76408E] (AR v2)
Track 4 accurately ripped (confidence 1) [5C348AB6] (AR v2)
Track 5 accurately ripped (confidence 1) [507AD466] (AR v2)
Track 6 accurately ripped (confidence 1) [64EEA804] (AR v2)
Track 7 accurately ripped (confidence 1) [4C675BC3] (AR v2)
Track 8 accurately ripped (confidence 1) [4C624094] (AR v2)
Track 9 accurately ripped (confidence 1) [AF120774] (AR v2)
Track 10 accurately ripped (confidence 1) [8A45FC1A] (AR v2)
All tracks accurately ripped
End of status report
---- CUETools DB Plugin V2.1.6
[CTDB TOCID: DouK0ZJo3TEyMq9S6VmydLOtgJ0-] disk not present in database
Submit result: DouK0ZJo3TEyMq9S6VmydLOtgJ0- has been uploaded
==== Log checksum FC693C9E5F7350FA967F5D00DE43EE04DAC516DBA3A9BFB9BBFD1AD8D68D39B3 ====
1987. Tutto l'amore che ti manca
Exact Audio Copy V1.2 from 12. August 2016
EAC extraction logfile from 4. October 2016, 19:46
Julio Iglesias / Tutto l'amore che ti manca
Used drive : TSSTcorpCDDVDW SN-S082N Adapter: 1 ID: 1
Read mode : Secure
Utilize accurate stream : Yes
Defeat audio cache : Yes
Make use of C2 pointers : No
Read offset correction : 6
Overread into Lead-In and Lead-Out : No
Fill up missing offset samples with silence : Yes
Delete leading and trailing silent blocks : No
Null samples used in CRC calculations : Yes
Used interface : Native Win32 interface for Win NT & 2000
Used output format : Internal WAV Routines
Sample format : 44.100 Hz; 16 Bit; Stereo
TOC of the extracted CD
Track | Start | Length | Start sector | End sector
---------------------------------------------------------
1 | 0:00.00 | 4:09.35 | 0 | 18709
2 | 4:09.35 | 4:40.20 | 18710 | 39729
3 | 8:49.55 | 4:30.42 | 39730 | 60021
4 | 13:20.22 | 3:52.58 | 60022 | 77479
5 | 17:13.05 | 3:18.12 | 77480 | 92341
6 | 20:31.17 | 4:03.10 | 92342 | 110576
7 | 24:34.27 | 4:20.30 | 110577 | 130106
8 | 28:54.57 | 4:08.23 | 130107 | 148729
9 | 33:03.05 | 3:53.30 | 148730 | 166234
10 | 36:56.35 | 4:06.62 | 166235 | 184746
Range status and errors
Selected range
Filename J:\TorrentShare\Julio Iglesias - Collection (FLAC)\1987 - Tutto l'amore che ti manca\Julio Iglesias - Tutto l'amore che ti manca (CBS 450990 2).wav
Peak level 100.0 %
Extraction speed 1.0 X
Range quality 100.0 %
Test CRC F858ABAB
Copy CRC F858ABAB
Copy OK
No errors occurred
AccurateRip summary
Track 1 not present in database
Track 2 not present in database
Track 3 not present in database
Track 4 not present in database
Track 5 not present in database
Track 6 not present in database
Track 7 not present in database
Track 8 not present in database
Track 9 not present in database
Track 10 not present in database
None of the tracks are present in the AccurateRip database
End of status report
---- CUETools DB Plugin V2.1.6
[CTDB TOCID: kHjiKU4qVxTpfUqxweYxWynHud8-] found
Submit result: kHjiKU4qVxTpfUqxweYxWynHud8- has been confirmed
Track | CTDB Status
1 | (1/1) Accurately ripped
2 | (1/1) Accurately ripped
3 | (1/1) Accurately ripped
4 | (1/1) Accurately ripped
5 | (1/1) Accurately ripped
6 | (1/1) Accurately ripped
7 | (1/1) Accurately ripped
8 | (1/1) Accurately ripped
9 | (1/1) Accurately ripped
10 | (1/1) Accurately ripped
==== Log checksum 930844B5155B1F1ECB4BD8AEF49E35797734C93D816F3422C0D73744C40236D4 ====
1989. Latinamente
Exact Audio Copy V1.2 from 12. August 2016
EAC extraction logfile from 19. October 2016, 18:12
Julio Iglesias / Latinamente
Used drive : TSSTcorpCDDVDW SN-S082N Adapter: 1 ID: 1
Read mode : Secure
Utilize accurate stream : Yes
Defeat audio cache : Yes
Make use of C2 pointers : No
Read offset correction : 6
Overread into Lead-In and Lead-Out : No
Fill up missing offset samples with silence : Yes
Delete leading and trailing silent blocks : No
Null samples used in CRC calculations : Yes
Used interface : Native Win32 interface for Win NT & 2000
Used output format : Internal WAV Routines
Sample format : 44.100 Hz; 16 Bit; Stereo
TOC of the extracted CD
Track | Start | Length | Start sector | End sector
---------------------------------------------------------
1 | 0:00.00 | 7:14.72 | 0 | 32621
2 | 7:14.72 | 4:41.25 | 32622 | 53721
3 | 11:56.22 | 9:15.68 | 53722 | 95414
4 | 21:12.15 | 7:12.55 | 95415 | 127869
5 | 28:24.70 | 6:18.22 | 127870 | 156241
6 | 34:43.17 | 5:24.20 | 156242 | 180561
Range status and errors
Selected range
Filename D:\Julio Iglesias - Latinamente (CBS 465374 2).wav
Peak level 100.0 %
Extraction speed 3.8 X
Range quality 100.0 %
Test CRC 356925F7
Copy CRC 356925F7
Copy OK
No errors occurred
AccurateRip summary
Track 1 not present in database
Track 2 not present in database
Track 3 not present in database
Track 4 not present in database
Track 5 not present in database
Track 6 not present in database
None of the tracks are present in the AccurateRip database
End of status report
---- CUETools DB Plugin V2.1.6
[CTDB TOCID: _imOrJLJFjhUmqQFSnQb5DFqNZ8-] disk not present in database
Submit result: _imOrJLJFjhUmqQFSnQb5DFqNZ8- has been uploaded
==== Log checksum 473AAC3680BE1304035FEE170F2CD57EA03614F2D59DC1588A93DC3815BECFC9 ====
1992. Anche senza di te
Exact Audio Copy V1.3 from 2. September 2016
EAC extraction logfile from 26. October 2016, 10:58
Julio Iglesias / Anche senza di te
Used drive : MATSHITAUJ-840D Adapter: 1 ID: 0
Read mode : Secure
Utilize accurate stream : Yes
Defeat audio cache : Yes
Make use of C2 pointers : No
Read offset correction : 102
Overread into Lead-In and Lead-Out : No
Fill up missing offset samples with silence : Yes
Delete leading and trailing silent blocks : No
Null samples used in CRC calculations : Yes
Used interface : Native Win32 interface for Win NT & 2000
Used output format : Internal WAV Routines
Sample format : 44.100 Hz; 16 Bit; Stereo
TOC of the extracted CD
Track | Start | Length | Start sector | End sector
---------------------------------------------------------
1 | 0:00.00 | 3:51.10 | 0 | 17334
2 | 3:51.10 | 4:04.60 | 17335 | 35694
3 | 7:55.70 | 4:00.37 | 35695 | 53731
4 | 11:56.32 | 4:07.63 | 53732 | 72319
5 | 16:04.20 | 4:17.35 | 72320 | 91629
6 | 20:21.55 | 4:39.30 | 91630 | 112584
7 | 25:01.10 | 3:44.52 | 112585 | 129436
8 | 28:45.62 | 4:23.45 | 129437 | 149206
9 | 33:09.32 | 3:34.50 | 149207 | 165306
10 | 36:44.07 | 3:22.45 | 165307 | 180501
Range status and errors
Selected range
Filename F:\TorrentShare\Julio Iglesias - Collection (FLAC)\1992 - Anche senza di te\Julio Iglesias - Anche senza di te (COL 471835 2).wav
Peak level 100.0 %
Extraction speed 3.0 X
Range quality 99.9 %
Test CRC F1390BBC
Copy CRC F1390BBC
Copy OK
No errors occurred
AccurateRip summary
Track 1 not present in database
Track 2 not present in database
Track 3 not present in database
Track 4 not present in database
Track 5 not present in database
Track 6 not present in database
Track 7 not present in database
Track 8 not present in database
Track 9 not present in database
Track 10 not present in database
None of the tracks are present in the AccurateRip database
End of status report
---- CUETools DB Plugin V2.1.6
[CTDB TOCID: ptK.sOSnwMZTsllQK6L6KrCqgNQ-] disk not present in database
Submit result: ptK.sOSnwMZTsllQK6L6KrCqgNQ- has been uploaded
==== Log checksum E1BDB7108B97CC2DF8CC832337CFE63D66ABC354699A744BBC73684EF8651A6C ====
2001. Una donna può cambiar la vita
Exact Audio Copy V1.3 from 2. September 2016
EAC extraction logfile from 4. March 2017, 17:08
Julio Iglesias / Una donna puo cambiar la vita
Used drive : TSSTcorpCDDVDW SN-S082N Adapter: 1 ID: 1
Read mode : Secure
Utilize accurate stream : Yes
Defeat audio cache : Yes
Make use of C2 pointers : No
Read offset correction : 6
Overread into Lead-In and Lead-Out : No
Fill up missing offset samples with silence : Yes
Delete leading and trailing silent blocks : No
Null samples used in CRC calculations : Yes
Used interface : Native Win32 interface for Win NT & 2000
Used output format : Internal WAV Routines
Sample format : 44.100 Hz; 16 Bit; Stereo
TOC of the extracted CD
Track | Start | Length | Start sector | End sector
---------------------------------------------------------
1 | 0:00.00 | 3:30.25 | 0 | 15774
2 | 3:30.25 | 3:43.05 | 15775 | 32504
3 | 7:13.30 | 3:28.40 | 32505 | 48144
4 | 10:41.70 | 2:46.10 | 48145 | 60604
5 | 13:28.05 | 4:38.25 | 60605 | 81479
6 | 18:06.30 | 3:38.57 | 81480 | 97886
7 | 21:45.12 | 4:04.55 | 97887 | 116241
8 | 25:49.67 | 3:33.65 | 116242 | 132281
9 | 29:23.57 | 4:43.70 | 132282 | 153576
10 | 34:07.52 | 3:32.25 | 153577 | 169501
11 | 37:40.02 | 3:39.18 | 169502 | 185944
12 | 41:19.20 | 4:03.07 | 185945 | 204176
13 | 45:22.27 | 3:43.18 | 204177 | 220919
14 | 49:05.45 | 2:57.40 | 220920 | 234234
Range status and errors
Selected range
Filename D:\Julio Iglesias - Una donna puo cambiar la vita (COL 502395 2).wav
Peak level 98.8 %
Extraction speed 1.0 X
Range quality 99.9 %
Test CRC 0EEA0655
Copy CRC 0EEA0655
Copy OK
No errors occurred
AccurateRip summary
Track 1 accurately ripped (confidence 3) [1CD9E3D5] (AR v2)
Track 2 accurately ripped (confidence 3) [DBAA4B0D] (AR v2)
Track 3 accurately ripped (confidence 3) [D0647569] (AR v2)
Track 4 accurately ripped (confidence 3) [E4E314F4] (AR v2)
Track 5 accurately ripped (confidence 3) [7A3D6F5C] (AR v2)
Track 6 accurately ripped (confidence 3) [D348DAAB] (AR v2)
Track 7 accurately ripped (confidence 3) [60B02D60] (AR v2)
Track 8 accurately ripped (confidence 3) [C53C3844] (AR v2)
Track 9 accurately ripped (confidence 3) [245A452D] (AR v2)
Track 10 accurately ripped (confidence 3) [681D4587] (AR v2)
Track 11 accurately ripped (confidence 3) [D3B7DF3B] (AR v2)
Track 12 accurately ripped (confidence 3) [EEA64D78] (AR v2)
Track 13 accurately ripped (confidence 3) [F906938B] (AR v2)
Track 14 accurately ripped (confidence 3) [8615DFC0] (AR v2)
All tracks accurately ripped
End of status report
---- CUETools DB Plugin V2.1.6
[CTDB TOCID: ytY9pZRnH3JXS5cvaYRTQDlnXxU-] found
Submit result: ytY9pZRnH3JXS5cvaYRTQDlnXxU- has been confirmed
Track | CTDB Status
1 | (9/9) Accurately ripped
2 | (9/9) Accurately ripped
3 | (9/9) Accurately ripped
4 | (9/9) Accurately ripped
5 | (9/9) Accurately ripped
6 | (9/9) Accurately ripped
7 | (9/9) Accurately ripped
8 | (9/9) Accurately ripped
9 | (9/9) Accurately ripped
10 | (9/9) Accurately ripped
11 | (9/9) Accurately ripped
12 | (9/9) Accurately ripped
13 | (9/9) Accurately ripped
14 | (9/9) Accurately ripped
==== Log checksum 294F319359B9B4E0370DD8350F330DE95D6F015AC19020F55F332E3FD4D0FF76 ====
2006. Romantic Classics
Exact Audio Copy V1.3 from 2. September 2016
EAC extraction logfile from 9. February 2018, 18:37
Julio Iglesias / Romantic Classics
Used drive : TSSTcorpCDDVDW TS-L633C Adapter: 1 ID: 0
Read mode : Secure
Utilize accurate stream : Yes
Defeat audio cache : Yes
Make use of C2 pointers : No
Read offset correction : 6
Overread into Lead-In and Lead-Out : No
Fill up missing offset samples with silence : Yes
Delete leading and trailing silent blocks : No
Null samples used in CRC calculations : Yes
Used interface : Native Win32 interface for Win NT & 2000
Used output format : User Defined Encoder
Selected bitrate : 896 kBit/s
Quality : High
Add ID3 tag : No
Command line compressor : C:\Program Files\Exact Audio Copy\Flac\flac.exe
Additional command line options : -V -8 %source%
TOC of the extracted CD
Track | Start | Length | Start sector | End sector
---------------------------------------------------------
1 | 0:00.00 | 2:45.22 | 0 | 12396
2 | 2:45.22 | 3:51.03 | 12397 | 29724
3 | 6:36.25 | 4:34.20 | 29725 | 50294
4 | 11:10.45 | 3:43.72 | 50295 | 67091
5 | 14:54.42 | 4:02.18 | 67092 | 85259
6 | 18:56.60 | 3:52.52 | 85260 | 102711
7 | 22:49.37 | 4:22.03 | 102712 | 122364
8 | 27:11.40 | 4:00.52 | 122365 | 140416
9 | 31:12.17 | 3:48.03 | 140417 | 157519
10 | 35:00.20 | 3:09.15 | 157520 | 171709
11 | 38:09.35 | 3:26.10 | 171710 | 187169
12 | 41:35.45 | 4:08.72 | 187170 | 205841
Range status and errors
Selected range
Filename D:\Julio Iglesias - Romantic Classics (82876 84619 2).wav
Peak level 100.0 %
Extraction speed 3.4 X
Range quality 100.0 %
Test CRC 3C50E613
Copy CRC 3C50E613
Copy OK
No errors occurred
AccurateRip summary
Track 1 accurately ripped (confidence 2) [8AFD16A5] (AR v2)
Track 2 accurately ripped (confidence 2) [9AFC46B4] (AR v2)
Track 3 accurately ripped (confidence 2) [8073A9A0] (AR v2)
Track 4 accurately ripped (confidence 2) [441F5400] (AR v2)
Track 5 accurately ripped (confidence 2) [8FF25C8D] (AR v2)
Track 6 accurately ripped (confidence 2) [59E01ABD] (AR v2)
Track 7 accurately ripped (confidence 2) [CBBA0C83] (AR v2)
Track 8 accurately ripped (confidence 2) [E2BC6382] (AR v2)
Track 9 accurately ripped (confidence 2) [2D04F17E] (AR v2)
Track 10 accurately ripped (confidence 2) [AC101188] (AR v2)
Track 11 accurately ripped (confidence 2) [09A1AE7E] (AR v2)
Track 12 accurately ripped (confidence 2) [A7A7A1A0] (AR v2)
All tracks accurately ripped
End of status report
---- CUETools DB Plugin V2.1.6
[CTDB TOCID: ._uYgTtmb2pWCGtsSF2B3O087rE-] found
Submit result: ._uYgTtmb2pWCGtsSF2B3O087rE- has been confirmed
Track | CTDB Status
1 | (1/1) Accurately ripped
2 | (1/1) Accurately ripped
3 | (1/1) Accurately ripped
4 | (1/1) Accurately ripped
5 | (1/1) Accurately ripped
6 | (1/1) Accurately ripped
7 | (1/1) Accurately ripped
8 | (1/1) Accurately ripped
9 | (1/1) Accurately ripped
10 | (1/1) Accurately ripped
11 | (1/1) Accurately ripped
12 | (1/1) Accurately ripped
==== Log checksum 86A2F24E5EA1D1D8BDDD174ED9D76DEDE49EAB8291368D0ADFD75EC61B1B0EC2 ====


1994. When You Tell Me That You Love Me [CDM]
Exact Audio Copy V1.0 beta 3 from 29. August 2011
EAC extraction logfile from 27. November 2012, 17:11
Julio Iglesias / When You Tell Me That You Love Me {Maxi-CDS} (COL 660685 2)
Used drive : TSSTcorpCDDVDW TS-L633C Adapter: 2 ID: 0
Read mode : Secure
Utilize accurate stream : Yes
Defeat audio cache : Yes
Make use of C2 pointers : No
Read offset correction : 6
Overread into Lead-In and Lead-Out : No
Fill up missing offset samples with silence : Yes
Delete leading and trailing silent blocks : No
Null samples used in CRC calculations : Yes
Used interface : Native Win32 interface for Win NT & 2000
Used output format : Internal WAV Routines
Sample format : 44.100 Hz; 16 Bit; Stereo
TOC of the extracted CD
Track | Start | Length | Start sector | End sector
---------------------------------------------------------
1 | 0:00.00 | 4:01.65 | 0 | 18139
2 | 4:01.65 | 2:44.25 | 18140 | 30464
3 | 6:46.15 | 4:18.05 | 30465 | 49819
Range status and errors
Selected range
Filename C:\Users\user\Desktop\Julio Iglesias - When You Tell Me That You Love Me {Maxi-CDS} (COL 660685 2).wav
Peak level 99.9 %
Extraction speed 1.3 X
Range quality 100.0 %
Test CRC 3E39D5E1
Copy CRC 3E39D5E1
Copy OK
No errors occurred
AccurateRip summary
Track 1 not present in database
Track 2 not present in database
Track 3 not present in database
None of the tracks are present in the AccurateRip database
End of status report


[Профиль]  [ЛС] 
 
Ответить
Loading...
Error