Курилы: восточные рубежи России [2012, документальный, HDTV 1080i]

Страницы:  1

Ответить
Автор
Сообщение

karatak1

Стаж: 9 лет 4 месяца

Сообщений: 616


karatak1 · 27-Янв-18 15:55 (10 месяцев назад, ред. 30-Янв-18 17:00)

Курилы: восточные рубежи России
Год выпуска: 2012
Страна: Россия
Студия: ТВ Новости
Жанр: документальный
Продолжительность: 00:25:36
Перевод: Не требуется
Описание: Курильские острова — рай для настоящих искателей приключений и романтиков. Труднодоступность, необитаемость, географическая обособленность, действующие вулканы - все это делает Курилы привлекательными для истинных ценителей уголков природы, нетронутой цивилизацией.
Тип релиза: HDTV 1080i
Контейнер: TS
Видео: AVC, PAL, 1920x1080, 16x9, 6989 Кbps, 25fps
Аудио: Русский, MP2, 2Ch, 48KHz, 192kbps
MediaInfo
Общее
Идентификатор : 1 (0x1)
Полное имя : H:\Курилы восточные рубежи России (RTD2012).ts
Формат : MPEG-TS
Размер файла : 1,35 Гбайт
Продолжительность : 25 м. 36 с.
Режим общего битрейта : Переменный
Общий поток : 7557 Кбит/сек
Видео
Идентификатор : 1001 (0x3E9)
Идентификатор меню : 1 (0x1)
Формат : AVC
Формат/Информация : Advanced Video Codec
Профиль формата : [email protected]
Параметр CABAC формата : Да
Параметр ReFrames формата : 4 кадра
Идентификатор кодека : 27
Продолжительность : 25 м. 36 с.
Битрейт : 6989 Кбит/сек
Ширина : 1920 пикселей
Высота : 1080 пикселей
Соотношение сторон : 16:9
Частота кадров : 25,000 кадров/сек
Стандарт вещания : Component
Цветовое пространство : YUV
Субдискретизация насыщенности : 4:2:0
Битовая глубина : 8 бит
Тип развёртки : Чересстрочная
Метод сохранения типа развёртки : Раздельные поля
Порядок развёртки : Верхнее поле первое
Бит/(Пиксели*Кадры) : 0.135
Размер потока : 1,25 Гбайт (92%)
Цветовой диапазон : Limited
Основные цвета : BT.709
Характеристики трансфера : BT.709
Коэффициенты матрицы : BT.709
Аудио
Идентификатор : 1004 (0x3EC)
Идентификатор меню : 1 (0x1)
Формат : MPEG Audio
Версия формата : Version 1
Профиль формата : Layer 2
Идентификатор кодека : 3
Продолжительность : 25 м. 36 с.
Вид битрейта : Постоянный
Битрейт : 192 Кбит/сек
Каналы : 2 канала
Частота : 48,0 КГц
Метод сжатия : С потерями
Задержка видео : -120 мс.
Размер потока : 35,2 Мбайт (3%)
Язык : Russian
Скриншоты
Download
Для скачивания .torrent файлов необходима регистрация
Сайт не распространяет и не хранит электронные версии произведений, а лишь предоставляет доступ к создаваемому пользователями каталогу ссылок на торрент-файлы, которые содержат только списки хеш-сумм
[Профиль]  [ЛС] 

anbelk27

Admin

Стаж: 9 лет 7 месяцев

Сообщений: 6501

anbelk27 · 27-Янв-18 23:11 (спустя 7 часов)

[Цитировать] 

karatak1
Скриншоты замените пожалуйста, они должны быть в png формате
[Профиль]  [ЛС] 
 
Ответить
Loading...
Error