Дом. Свидание с планетой / Дом. История путешествия / Home (Янн Артюс-Бертран / Yann Arthus Bertrand) [2009, Документальный, драма, семейный, BDRip 720p] [2-Disc Collector's Edition]

Страницы:  1

Ответить
Автор
Сообщение

[email protected]

Top 20

Стаж: 10 лет

Сообщений: 276

[email protected] · 19-Окт-14 20:34 (4 года 1 месяц назад, ред. 19-Окт-14 22:51)


«A Stunning Visual Portrayal of Earth»
Дом. Свидание с планетой / Дом. История путешествия / Home
{2-Disc Collector's Edition}


Рождению фильма HOME предшествовали 15 лет работы, в течение которых было создано 500'000 фотографий, запечатленных в более чем 100 странах мира, продано 3 миллиона книг, проведено 100 бесплатных open-air выставок с более чем 100 миллионами посетителей, снято 4 документальных фильма со зрительской аудиторией 5 миллионов человек. 5 июня 2009 года, во Всемирный день окружающей среды, эколого-просветительская картина «Home» Янна Артюса-Бертрана и Люка Бессона, стала первым фильмом, премьера которого прошла одновременно в 87 городах разных стран мира и на YouTube.



Дом. Свидание с планетой / Home
Страна: Франция
Студия: Elzévir Films, EuropaCorp, France 2 (FR2)
Жанр: Документальный, драма, семейный
Год выпуска: 2009
Продолжительность: 1:58:25
Перевод: Профессиональный (дублированный) - Студия «Омикрон»
Субтитры: русские, французские
Оригинальная аудиодорожка: французский
Режиссер: Янн Артюс-Бертран / Yann Arthus Bertrand
Продюсер: Люк Бессон, Дени Каро
В ролях: Ян Артус Бертранд, Гленн Клоуз, Жак Гамблен
Описание: Фильм демонстрирует нам красоту планеты и последствия разрушений, нанесенных деятельностью человека. Незаживающие шрамы, нанесенные Земле промышленными производствами, последствия войн, экологических катастроф, раскрывают зрителю реальную ситуацию на планете.
Доп. информация:

Качество: BDRip 720p
Формат: MKV
Видео кодек: MPEG4 AVC
Аудио кодек: DTS
Видео: 1280х720, 16:9, 23.976 fps, ~8259 Kbps
Аудио №1: Русский DTS Audio 5.1, 48 kHz, 24 bit, ~1509 kbps – профессиональный (полное дублирование) |Студия «Омикрон»|
Аудио №2: Французский DTS Audio 5.1, 48 kHz, 24 bit, ~1509 kbps
Аудио №3: Французский DTS Audio 5.1, 48 kHz, 24 bit, ~1509 kbps - |музыкальное сопровождение|
Субтитры: Русские, Французские

Знаете ли вы, что...
  1. Премьера фильма состоялась 5 июня 2009 года, во Всемирный день окружающей среды. Картина одновременно транслировалась на крупнейших площадках 87 стран мира в формате открытого бесплатного показа.
  2. Весь фильм снимался с вертолёта на камеру высокого разрешения Cineflex.
  3. Фильм был создан специально как призыв к объединению для спасения будущего нашей планеты. Именно поэтому он распространяется бесплатно. Владельцы прав на фильм и его распространение (компании PPR Group и EuropaCorp) также согласились не использовать его в коммерческих целях.
  4. За 18 месяцев съемочная группа побывала в 53 странах мира. При этом в некоторых странах, например в Китае и Саудовской Аравии, режиссёру было отказано в проведении воздушной съёмки. В Индии половина отснятых материалов была конфискована, а в Аргентине Артюс-Бертрану и его помощникам пришлось провести неделю в тюрьме.
  5. Рождению фильма HOME предшествовали 15 лет работы, в течение которых было создано 500 тысяч фотографий, запечатленных в более чем 100 странах мира, продано 3 миллиона книг, проведено 100 бесплатных open-air-выставок с более чем 100 миллионами посетителей, снято 4 документальных фильма со зрительской аудиторией 5 миллионов человек.
Ошибки в фильме
  1. В режиссерской версии фильма говорят про Казахстан. Там упоминается, что в этой стране закрывают школы и отправляют детей работать на хлопковые поля. Это не правда, т. к. эта ситуация присуща Узбекистану.
Информация
  1. В природе есть два фильма: "Дом. Свидание с планетой" и "Дом. История путешествия" (при русском издании последний, зачем-то назван "режиссерской версией", хотя это не так. Это абсолютно другой фильм, хоть и на основе тех же сотен часов отснятых режиссером со своего шара Ⓒgarageforsal.
  2. Исходник: Дом. Свидание с планетой / Home (2009) {2-Disc Collector's Edition} Blu-ray 1080p AVC DTS-HD 5.1
  3. Сохранены оригинальные чаптеры как на Blu-ray.
  4. Задействован 1 актер. Русская дорожка получена наложением чистого голоса.
  5. Перевод и озвучивание осуществлено в рамках сервиса "Озвучивание". Спонсоры: RAUL, AntiPro, yuriker, ultrajeka, Кириллка, meil, gelom, Turko, cat_davinchi, LibrarianA, Snow_Leopard, C_Vic, levanevski, DeTorquemada, Andy_Ko, Cheetah, jezburg68, ZeRoNe, farmazon, Insider1, Kacok_321, ultrajeka, Bykolev, tambov68, terminal, Sportage, longru. ВСЕМ СПАСИБО!
Сэмпл
Скриншоты
MediaInfo
General
Unique ID : 193605893098832681771551554732475260927 (0x91A723816088693D89B11DF9092B9FFF)
Complete name : Home [Дом. Свидание с планетой].mkv
Format : Matroska
Format version : Version 4 / Version 2
File size : 10.8 GiB
Duration : 1h 58mn
Overall bit rate : 13.0 Mbps
Movie name : Create by DeTorquemada for HDCLUB
Encoded date : UTC 2014-10-04 17:32:32
Writing application : mkvmerge v7.1.0 ('Good Love') 64bit built on Jul 27 2014 13:06:55
Writing library : libebml v1.3.0 + libmatroska v1.4.1
Video
ID : 1
Format : AVC
Format/Info : Advanced Video Codec
Format profile : [email protected]
Format settings, CABAC : Yes
Format settings, ReFrames : 7 frames
Codec ID : V_MPEG4/ISO/AVC
Duration : 1h 58mn
Bit rate : 8 259 Kbps
Width : 1 280 pixels
Height : 720 pixels
Display aspect ratio : 16:9
Frame rate mode : Constant
Frame rate : 23.976 fps
Color space : YUV
Chroma subsampling : 4:2:0
Bit depth : 8 bits
Scan type : Progressive
Bits/(Pixel*Frame) : 0.374
Stream size : 6.83 GiB (63%)
Title : Дом. Свидание с планетой / Home (2009)- Release for HDCLUB
Writing library : x264 core 142 r2431 ac76440
Encoding settings : cabac=1 / ref=7 / deblock=1:-3:-3 / analyse=0x3:0x113 / me=umh / subme=10 / psy=1 / psy_rd=1.00:0.00 / mixed_ref=1 / me_range=48 / chroma_me=1 / trellis=2 / 8x8dct=1 / cqm=0 / deadzone=21,11 / fast_pskip=1 / chroma_qp_offset=-2 / threads=6 / lookahead_threads=1 / sliced_threads=0 / nr=0 / decimate=1 / interlaced=0 / bluray_compat=0 / constrained_intra=0 / bframes=3 / b_pyramid=2 / b_adapt=2 / b_bias=0 / direct=1 / weightb=1 / open_gop=0 / weightp=2 / keyint=240 / keyint_min=23 / scenecut=40 / intra_refresh=0 / rc_lookahead=65 / rc=crf / mbtree=0 / crf=17.0 / qcomp=0.60 / qpmin=0 / qpmax=69 / qpstep=4 / vbv_maxrate=50000 / vbv_bufsize=62500 / crf_max=0.0 / nal_hrd=none / filler=0 / ip_ratio=1.40 / pb_ratio=1.30 / aq=1:0.80
Language : French
Default : Yes
Forced : No
Matrix coefficients : BT.709
Audio #1
ID : 2
Format : DTS
Format/Info : Digital Theater Systems
Mode : 16
Format settings, Endianness : Big
Codec ID : A_DTS
Duration : 1h 58mn
Bit rate mode : Constant
Bit rate : 1 509 Kbps
Channel(s) : 6 channels
Channel positions : Front: L C R, Side: L R, LFE
Sampling rate : 48.0 KHz
Bit depth : 24 bits
Compression mode : Lossy
Stream size : 1.25 GiB (12%)
Title : 48KHz/24-bit, DTS, 3/2 (L,C,R,l,r) + LFE ch, 1509 kbps - Дубляж, студия «Омикрон»
Language : Russian
Default : Yes
Forced : No
Audio #2
ID : 3
Format : DTS
Format/Info : Digital Theater Systems
Mode : 16
Format settings, Endianness : Big
Codec ID : A_DTS
Duration : 1h 58mn
Bit rate mode : Constant
Bit rate : 1 509 Kbps
Channel(s) : 6 channels
Channel positions : Front: L C R, Side: L R, LFE
Sampling rate : 48.0 KHz
Bit depth : 24 bits
Compression mode : Lossy
Stream size : 1.25 GiB (12%)
Title : 48KHz/24-bit, DTS, 3/2 (L,C,R,l,r) + LFE ch, 1509 kbps
Language : French
Default : No
Forced : No
Audio #3
ID : 4
Format : DTS
Format/Info : Digital Theater Systems
Mode : 16
Format settings, Endianness : Big
Codec ID : A_DTS
Duration : 1h 58mn
Bit rate mode : Constant
Bit rate : 1 509 Kbps
Channel(s) : 6 channels
Channel positions : Front: L C R, Side: L R, LFE
Sampling rate : 48.0 KHz
Bit depth : 24 bits
Compression mode : Lossy
Stream size : 1.25 GiB (12%)
Title : 48KHz/24-bit, DTS, 3/2 (L,C,R,l,r) + LFE ch, 1509 kbps - {Musical}
Default : No
Forced : No
Text #1
ID : 5
Format : UTF-8
Codec ID : S_TEXT/UTF8
Codec ID/Info : UTF-8 Plain Text
Title : Subtitles/Captions
Language : Russian
Default : No
Forced : No
Text #2
ID : 6
Format : UTF-8
Codec ID : S_TEXT/UTF8
Codec ID/Info : UTF-8 Plain Text
Title : Subtitles/Captions
Language : French
Default : No
Forced : No
Menu
00:00:00.000 : en:
00:11:10.670 : en:
00:19:57.696 : en:
00:30:23.530 : en:
00:38:31.475 : en:
00:51:45.185 : en:
01:00:11.983 : en:
01:13:58.559 : en:
01:22:36.534 : en:
01:27:54.727 : en:
01:40:29.231 : en:
01:49:20.804 : en:
01:58:17.215 : en:




Дом. История путешествия / Home: Histoire d'un voyage
Страна: Франция
Студия: Elzévir Films, EuropaCorp, France 2 (FR2)
Жанр: Документальный, драма, семейный
Год выпуска: 2009
Продолжительность: 1:46:48
Перевод: Профессиональный (дублированный) - Blu-ray «Кармен Видео»
Субтитры: Русские
Оригинальная аудиодорожка: французский
Режиссер: Янн Артюс-Бертран / Yann Arthus Bertrand
Продюсер: Люк Бессон, Дени Каро
В ролях: Ян Артус Бертранд, Гленн Клоуз, Жак Гамблен
Описание: Фильм демонстрирует нам красоту планеты и последствия разрушений, нанесенных деятельностью человека. Незаживающие шрамы, нанесенные Земле промышленными производствами, последствия войн, экологических катастроф, раскрывают зрителю реальную ситуацию на планете.
Доп. информация:

Качество: BDRip 720p
Формат: MKV
Видео кодек: MPEG4 AVC
Аудио кодек: DTS
Видео: 1280х720, 16:9, 25.000 fps, ~7754 Kbps
Аудио №1: Русский DTS Audio 5.1, 48 kHz, 16 bit, ~1509 kbps – профессиональный (полное дублирование) |Blu-Ray «Кармен Видео»|
Аудио №2: Французский DTS Audio 2.0, 48 kHz, 24 bit, ~1509 kbps
Субтитры: Русские

Знаете ли вы, что...
  1. Премьера фильма состоялась 5 июня 2009 года, во Всемирный день окружающей среды. Картина одновременно транслировалась на крупнейших площадках 87 стран мира в формате открытого бесплатного показа.
  2. Весь фильм снимался с вертолёта на камеру высокого разрешения Cineflex.
  3. Фильм был создан специально как призыв к объединению для спасения будущего нашей планеты. Именно поэтому он распространяется бесплатно. Владельцы прав на фильм и его распространение (компании PPR Group и EuropaCorp) также согласились не использовать его в коммерческих целях.
  4. За 18 месяцев съемочная группа побывала в 53 странах мира. При этом в некоторых странах, например в Китае и Саудовской Аравии, режиссёру было отказано в проведении воздушной съёмки. В Индии половина отснятых материалов была конфискована, а в Аргентине Артюс-Бертрану и его помощникам пришлось провести неделю в тюрьме.
  5. Рождению фильма HOME предшествовали 15 лет работы, в течение которых было создано 500 тысяч фотографий, запечатленных в более чем 100 странах мира, продано 3 миллиона книг, проведено 100 бесплатных open-air-выставок с более чем 100 миллионами посетителей, снято 4 документальных фильма со зрительской аудиторией 5 миллионов человек.
Ошибки в фильме
  1. В режиссерской версии фильма говорят про Казахстан. Там упоминается, что в этой стране закрывают школы и отправляют детей работать на хлопковые поля. Это не правда, т. к. эта ситуация присуща Узбекистану.
Информация
  1. В природе есть два фильма: "Дом. Свидание с планетой" и "Дом. История путешествия" (при русском издании последний, зачем-то назван "режиссерской версией", хотя это не так. Это абсолютно другой фильм, хоть и на основе тех же сотен часов отснятых режиссером со своего шара Ⓒgarageforsal.
  2. Исходник: Дом. Свидание с планетой / Home (2009) {2-Disc Collector's Edition} Blu-ray 1080p AVC DTS-HD 5.1
  3. Сохранены оригинальные чаптеры как на Blu-ray.
Сэмпл
Скриншоты
MediaInfo
General
Unique ID : 178165776066398013195532113197858646308 (0x86097AF631BCAA8395B48DCF47F56924)
Complete name : Home. Histoire d'un voyage [Дом. История путешествия].mkv
Format : Matroska
Format version : Version 4 / Version 2
File size : 8.20 GiB
Duration : 1h 46mn
Overall bit rate : 11.0 Mbps
Movie name : Create by DeTorquemada for HDCLUB
Encoded date : UTC 2014-10-04 17:40:18
Writing application : mkvmerge v7.1.0 ('Good Love') 64bit built on Jul 27 2014 13:06:55
Writing library : libebml v1.3.0 + libmatroska v1.4.1
Video
ID : 1
Format : AVC
Format/Info : Advanced Video Codec
Format profile : [email protected]
Format settings, CABAC : Yes
Format settings, ReFrames : 7 frames
Codec ID : V_MPEG4/ISO/AVC
Duration : 1h 46mn
Bit rate : 7 754 Kbps
Width : 1 280 pixels
Height : 720 pixels
Display aspect ratio : 16:9
Frame rate mode : Constant
Frame rate : 25.000 fps
Color space : YUV
Chroma subsampling : 4:2:0
Bit depth : 8 bits
Scan type : Progressive
Bits/(Pixel*Frame) : 0.337
Stream size : 5.78 GiB (71%)
Title : Дом. История путешествия / Home: Histoire d'un voyage (2009) - Release for HDCLUB
Writing library : x264 core 142 r2431 ac76440
Encoding settings : cabac=1 / ref=7 / deblock=1:-3:-3 / analyse=0x3:0x113 / me=umh / subme=10 / psy=1 / psy_rd=1.00:0.00 / mixed_ref=1 / me_range=48 / chroma_me=1 / trellis=2 / 8x8dct=1 / cqm=0 / deadzone=21,11 / fast_pskip=1 / chroma_qp_offset=-2 / threads=6 / lookahead_threads=1 / sliced_threads=0 / nr=0 / decimate=1 / interlaced=0 / bluray_compat=0 / constrained_intra=0 / bframes=3 / b_pyramid=2 / b_adapt=2 / b_bias=0 / direct=1 / weightb=1 / open_gop=0 / weightp=2 / keyint=250 / keyint_min=25 / scenecut=40 / intra_refresh=0 / rc_lookahead=65 / rc=crf / mbtree=0 / crf=17.0 / qcomp=0.60 / qpmin=0 / qpmax=69 / qpstep=4 / vbv_maxrate=50000 / vbv_bufsize=62500 / crf_max=0.0 / nal_hrd=none / filler=0 / ip_ratio=1.40 / pb_ratio=1.30 / aq=1:0.80
Language : French
Default : Yes
Forced : No
Matrix coefficients : BT.709
Audio #1
ID : 2
Format : DTS
Format/Info : Digital Theater Systems
Mode : 16
Format settings, Endianness : Big
Codec ID : A_DTS
Duration : 1h 46mn
Bit rate mode : Constant
Bit rate : 1 509 Kbps
Channel(s) : 6 channels
Channel positions : Front: L C R, Side: L R, LFE
Sampling rate : 48.0 KHz
Bit depth : 16 bits
Compression mode : Lossy
Stream size : 1.13 GiB (14%)
Title : 48KHz/16-bit, DTS, 3/2 (L,C,R,l,r) + LFE ch, 1509 kbps - Дубляж, Blu-ray «Кармен Видео»
Language : Russian
Default : Yes
Forced : No
Audio #2
ID : 3
Format : DTS
Format/Info : Digital Theater Systems
Mode : 16
Format settings, Endianness : Big
Codec ID : A_DTS
Duration : 1h 46mn
Bit rate mode : Constant
Bit rate : 1 509 Kbps
Channel(s) : 2 channels
Channel positions : Front: L R
Sampling rate : 48.0 KHz
Bit depth : 24 bits
Compression mode : Lossy
Stream size : 1.13 GiB (14%)
Title : 48KHz/24-bit, DTS, 2.0 (L,R) ch, 1509 kbps
Language : French
Default : No
Forced : No
Text
ID : 4
Format : UTF-8
Codec ID : S_TEXT/UTF8
Codec ID/Info : UTF-8 Plain Text
Title : Subtitles/Captions
Language : Russian
Default : No
Forced : No
Menu
00:00:00.000 : en:
00:03:58.400 : en:
00:06:41.520 : en:
00:11:37.000 : en:
00:16:23.400 : en:
00:21:54.760 : en:
00:28:40.840 : en:
00:31:22.880 : en:
00:35:17.400 : en:
00:38:54.520 : en:
00:41:46.120 : en:
00:45:25.200 : en:
00:49:14.800 : en:
00:52:53.800 : en:
00:57:02.480 : en:
01:00:58.800 : en:
01:06:50.880 : en:
01:11:24.160 : en:
01:15:50.640 : en:
01:19:00.080 : en:
01:22:50.760 : en:
01:25:39.280 : en:
01:28:09.479 : en:
01:32:16.600 : en:
01:34:37.120 : en:
01:38:23.560 : en:
01:40:31.320 : en:
01:45:18.920 : en:
01:46:47.479 : en:




Дом. История создания / Home: Making of
Страна: Франция
Студия: Elzévir Films, EuropaCorp, France 2 (FR2)
Жанр: Документальный, драма, семейный
Год выпуска: 2009
Продолжительность: 0:35:10
Перевод: Авторский (одноголосый закадровый) - Студия «Омикрон»
Субтитры: Нет
Оригинальная аудиодорожка: французский
Режиссер: Янн Артюс-Бертран / Yann Arthus Bertrand
Продюсер: Люк Бессон, Дени Каро
В ролях: Ян Артус Бертранд, Гленн Клоуз, Жак Гамблен
Описание: Фильм демонстрирует нам красоту планеты и последствия разрушений, нанесенных деятельностью человека. Незаживающие шрамы, нанесенные Земле промышленными производствами, последствия войн, экологических катастроф, раскрывают зрителю реальную ситуацию на планете.
Доп. информация:

Качество: BDRip 720p
Формат: MKV
Видео кодек: MPEG4 AVC
Аудио кодек: DTS
Видео: 1280х720, 16:9, 25.000 fps, ~7603 Kbps
Аудио №1: Русский DTS Audio 2.0, 48 kHz, 24 bit, ~1509 kbps - авторский (одноголосый закадровый) |Студия «Омикрон»|
Аудио №2: Французский DTS Audio 2.0, 48 kHz, 16 bit, ~256 kbps

Знаете ли вы, что...
  1. Премьера фильма состоялась 5 июня 2009 года, во Всемирный день окружающей среды. Картина одновременно транслировалась на крупнейших площадках 87 стран мира в формате открытого бесплатного показа.
  2. Весь фильм снимался с вертолёта на камеру высокого разрешения Cineflex.
  3. Фильм был создан специально как призыв к объединению для спасения будущего нашей планеты. Именно поэтому он распространяется бесплатно. Владельцы прав на фильм и его распространение (компании PPR Group и EuropaCorp) также согласились не использовать его в коммерческих целях.
  4. За 18 месяцев съемочная группа побывала в 53 странах мира. При этом в некоторых странах, например в Китае и Саудовской Аравии, режиссёру было отказано в проведении воздушной съёмки. В Индии половина отснятых материалов была конфискована, а в Аргентине Артюс-Бертрану и его помощникам пришлось провести неделю в тюрьме.
  5. Рождению фильма HOME предшествовали 15 лет работы, в течение которых было создано 500 тысяч фотографий, запечатленных в более чем 100 странах мира, продано 3 миллиона книг, проведено 100 бесплатных open-air-выставок с более чем 100 миллионами посетителей, снято 4 документальных фильма со зрительской аудиторией 5 миллионов человек.
Ошибки в фильме
  1. В режиссерской версии фильма говорят про Казахстан. Там упоминается, что в этой стране закрывают школы и отправляют детей работать на хлопковые поля. Это не правда, т. к. эта ситуация присуща Узбекистану.
Информация
  1. В природе есть два фильма: "Дом. Свидание с планетой" и "Дом. История путешествия" (при русском издании последний, зачем-то назван "режиссерской версией", хотя это не так. Это абсолютно другой фильм, хоть и на основе тех же сотен часов отснятых режиссером со своего шара Ⓒgarageforsal.
  2. Исходник: Дом. Свидание с планетой / Home (2009) {2-Disc Collector's Edition} Blu-ray 1080p AVC DTS-HD 5.1
  3. Сохранены оригинальные чаптеры как на Blu-ray.
  4. Задействован 1 актер. Русская дорожка получена наложением чистого голоса.
  5. Перевод и озвучивание осуществлено в рамках сервиса "Озвучивание". Спонсоры: RAUL, AntiPro, yuriker, ultrajeka, Кириллка, meil, gelom, Turko, cat_davinchi, LibrarianA, Snow_Leopard, C_Vic, levanevski, DeTorquemada, Andy_Ko, Cheetah, jezburg68, ZeRoNe, farmazon, Insider1, Kacok_321, ultrajeka, Bykolev, tambov68, terminal, Sportage, longru. ВСЕМ СПАСИБО!
Сэмпл
Скриншоты
MediaInfo
General
Unique ID : 249252746634718697289614674709976765027 (0xBB8455356CE7382A81511E461418D263)
Complete name : Home. Making of [Дом. История создания].mkv
Format : Matroska
Format version : Version 4 / Version 2
File size : 2.35 GiB
Duration : 35mn 10s
Overall bit rate : 9 558 Kbps
Movie name : Create by DeTorquemada for HDCLUB
Encoded date : UTC 2014-10-04 17:47:08
Writing application : mkvmerge v7.1.0 ('Good Love') 64bit built on Jul 27 2014 13:06:55
Writing library : libebml v1.3.0 + libmatroska v1.4.1
Video
ID : 1
Format : AVC
Format/Info : Advanced Video Codec
Format profile : [email protected]
Format settings, CABAC : Yes
Format settings, ReFrames : 7 frames
Codec ID : V_MPEG4/ISO/AVC
Duration : 35mn 10s
Bit rate : 7 603 Kbps
Width : 1 280 pixels
Height : 720 pixels
Display aspect ratio : 16:9
Frame rate mode : Constant
Frame rate : 25.000 fps
Color space : YUV
Chroma subsampling : 4:2:0
Bit depth : 8 bits
Scan type : Progressive
Bits/(Pixel*Frame) : 0.330
Stream size : 1.87 GiB (80%)
Title : Как это снималось / Making of / Le Making of (2009)- Release for HDCLUB
Writing library : x264 core 142 r2431 ac76440
Encoding settings : cabac=1 / ref=7 / deblock=1:-3:-3 / analyse=0x3:0x113 / me=umh / subme=10 / psy=1 / psy_rd=1.00:0.00 / mixed_ref=1 / me_range=48 / chroma_me=1 / trellis=2 / 8x8dct=1 / cqm=0 / deadzone=21,11 / fast_pskip=1 / chroma_qp_offset=-2 / threads=6 / lookahead_threads=1 / sliced_threads=0 / nr=0 / decimate=1 / interlaced=0 / bluray_compat=0 / constrained_intra=0 / bframes=3 / b_pyramid=2 / b_adapt=2 / b_bias=0 / direct=1 / weightb=1 / open_gop=0 / weightp=2 / keyint=250 / keyint_min=25 / scenecut=40 / intra_refresh=0 / rc_lookahead=65 / rc=crf / mbtree=0 / crf=17.0 / qcomp=0.60 / qpmin=0 / qpmax=69 / qpstep=4 / vbv_maxrate=50000 / vbv_bufsize=62500 / crf_max=0.0 / nal_hrd=none / filler=0 / ip_ratio=1.40 / pb_ratio=1.30 / aq=1:0.80
Language : French
Default : Yes
Forced : No
Matrix coefficients : BT.709
Audio #1
ID : 2
Format : DTS
Format/Info : Digital Theater Systems
Mode : 16
Format settings, Endianness : Big
Codec ID : A_DTS
Duration : 35mn 10s
Bit rate mode : Constant
Bit rate : 1 509 Kbps
Channel(s) : 2 channels
Channel positions : Front: L R
Sampling rate : 48.0 KHz
Bit depth : 24 bits
Compression mode : Lossy
Stream size : 380 MiB (16%)
Title : 48KHz/24-bit, DTS, 2.0 (L,R) ch, 1509 kbps - Одноголосый закадровый, студия «Омикрон»
Language : Russian
Default : Yes
Forced : No
Audio #2
ID : 3
Format : DTS
Format/Info : Digital Theater Systems
Mode : 16
Format settings, Endianness : Big
Codec ID : A_DTS
Duration : 35mn 10s
Bit rate mode : Constant
Bit rate : 255 Kbps
Channel(s) : 2 channels
Channel positions : Front: L R
Sampling rate : 48.0 KHz
Bit depth : 16 bits
Compression mode : Lossy
Stream size : 64.2 MiB (3%)
Title : 48KHz/16-bit, DTS, 2.0 (L,R) ch, 255 kbps
Language : French
Default : No
Forced : No
Menu
00:00:00.000 : en:
00:04:05.320 : en:
00:08:29.000 : en:
00:13:38.160 : en:
00:20:41.119 : en:
00:26:41.480 : en:
00:31:48.239 : en:
00:35:09.880 : en:


Релиз Озвучено студией «Омикрон» специально для HDCLUB.
Download
Для скачивания .torrent файлов необходима регистрация
Сайт не распространяет и не хранит электронные версии произведений, а лишь предоставляет доступ к создаваемому пользователями каталогу ссылок на торрент-файлы, которые содержат только списки хеш-сумм
[Профиль]  [ЛС] 

DonSerjio

Top Bonus 04* 3TB

Стаж: 9 лет 11 месяцев

Сообщений: 4219

DonSerjio · 11-Апр-16 22:39 (спустя 1 год 5 месяцев)

[Цитировать] 

Замечательнейшие документалки. Очень красивые и назидательные съемки. Впечатлен.
Спасибо! Такое надо смотреть.
[Профиль]  [ЛС] 

pafic_man

Стаж: 8 лет 7 месяцев

Сообщений: 15

pafic_man · 15-Ноя-17 15:52 (спустя 1 год 7 месяцев)

[Цитировать] 

Действительно супер!!! Спасибо Вам большое!!
Подскажите пожалуйста, аудиодорожки к фильмам в AAC/AC3/MP3 (не в DTS) можно где то достать, а то выковыривать и декодировать не хочется, а телек с DTS увы не дружит((
[Профиль]  [ЛС] 
 
Ответить
Loading...
Error