Страны (Сверху виднее) / Pays (Гильем Бернард / Guillaume Bernard) / 17 серий из 17 [2014, 2016, Документальный, познавательный, HDTVRip 720p]

Страницы:  1

Ответить
Автор
Сообщение

san007

Стаж: 10 лет 1 месяц

Сообщений: 660

san007 · 07-Янв-16 18:19 (2 года 11 месяцев назад, ред. 09-Июл-17 23:37)

Страны (Сверху виднее)Pays

Годы выпуска: 2014, 2016
Страна: Франция
Производство: Electron Libre Productions, France 5
Жанр: Документальный, познавательный, путешествия, страны, города
Продолжительность: 17 x ~00:51:00
Режиссёры: Гильем Бернард (Guillaume Bernard), Ксавье Лефевр (Xavier Lefebvre)
Перевод: Профессиональный (двухголосый, закадровый) [Студия АРК ТВ - Денис Некрасов]
Русские субтитры: нет
Описание: Отправляйтесь вместе с нами в потрясающее путешествие по небу без границ! Сверху все видно гораздо лучше! Вы увидите замечательные панорамы городов и природных ландшафтов с высоты птичьего полета. Послушаете реальные истории жителей о современной жизни в их странах, познакомитесь с культурой, обычаями и традиционными ремеслами. А также, вы узнаете необычные факты из истории 17 разных стран.
Тип релиза: HDTVRip 720p
Контейнер: MKV
Видео: AVC H.264, 1280x720p (16:9), 25p fps, ~3200 kbps, ~0.13,9 bits/pixel
Аудио 1: Russian, MP2, 48KHz, 2 channels, 192 kbps
Аудио 2: French, MP2, 48KHz, 2 channels, 192 kbps (только в сериях E01-E12)
Источник: Рип с HDTV-записи телеканала Travel+Adventure HD
Автор рипа - san007

Дополнительная информация: У данной передачи нет своего оригинального названия. Даже по каналу France 5 во Франции передача шла просто как список стран. Поэтому пришлось программу тоже назвать Pays, что в переводе с французского - Страны. Телеканал Travel+Adventure HD дал название передаче Сверху виднее, т.к. свыше половины видеоряда в каждой серии - это потрясающие панорамные съёмки, снятые на небольшой высоте с помощью квадрокоптера. Телеканал Travel+Adventure HD почти во всех своих программах обрезает финальные титры. Поэтому не удивляйтесь тому, что каждая серия будет резко заканчиваться через 1-2 секунды после последнего слова сказанного переводчиком.
Раздача в HDTV 1080i
Раздачи с Travel+Adventure HD
Путешествие на край света с Артом Вольфом: 1080i, 720p
Спасти Армана: 1080i, 720p
О чем не напишут в путеводителе: 1080i, 720p
Кругосветное путешествие джентльмена: 1080i, 720p
Каменные джунгли: 1080i, 720p
Вояж по-французски: 1080i, 720p
Путешествие за красотой: 1080i, 720p
Безумные приключения: 1080i, 720p
Лыжная горячка: 1080i, 720p
Приключения на троих: 1080i, 720p
Путешествие по священной реке Ганг: 1080i, 720p
Список эпизодов и трейлеры к сериям
E01 Arménie / Armenia / Армения [Трейлер]
E02 Cambodge / Cambodia / Камбоджа [Трейлер]
E03 Islande / Iceland / Исландия [Трейлер]
E04 Jourdanie / Jordan / Иордания [Трейлер]
E05 Maroc / Morocco / Марокко [Трейлер]
E06 Costa Rica / Costa Rica / Коста-Рика [Трейлер]
E07 Portugal / Portugal / Португалия [Трейлер]
E08 Tunisie / Tunisia / Тунис [Трейлер]
E09 Nouvelle Zélande / New Zealand / Новая Зеландия [Трейлер]
E10 Oman / Oman / Оман [Трейлер]
E11 Écosse / Scotland / Шотландия
E12 Corée du Sud / South Korea / Южная Корея

E13 Roumanie / Romania / Румыния*
E14 Taïwan / Taiwan / Тайвань*
E15 Georgie / Georgia / Грузия*
E16 Laos / Laos / Лаос*
E17 Sri Lanka / Sri Lanka / Шри-Ланка*

* - отсутствует оригинальная французская аудиодорожка
MediaInfo
General
Format : Matroska
Format version : Version 4 / Version 2
File size : 1.29 GiB
Duration : 51mn 18s
Overall bit rate : 3 587 Kbps
Writing application : mkvmerge v7.7.0 ('Six Voices') 64bit
Writing library : libebml v1.3.1 + libmatroska v1.4.2
Video
ID : 1
Format : AVC
Format/Info : Advanced Video Codec
Format profile : [email protected]
Format settings, CABAC : Yes
Format settings, ReFrames : 8 frames
Codec ID : V_MPEG4/ISO/AVC
Duration : 51mn 18s
Bit rate : 3 200 Kbps
Width : 1 280 pixels
Height : 720 pixels
Display aspect ratio : 16:9
Frame rate mode : Constant
Frame rate : 25.000 fps
Color space : YUV
Chroma subsampling : 4:2:0
Bit depth : 8 bits
Scan type : Progressive
Bits/(Pixel*Frame) : 0.139
Stream size : 1.12 GiB (87%)
Writing library : x264 core 144 r2525 40bb568
Encoding settings : cabac=1 / ref=8 / deblock=1:-1:-1 / analyse=0x3:0x133 / me=umh / subme=9 / psy=1 / psy_rd=1.00:0.10 / mixed_ref=1 / me_range=24 / chroma_me=1 / trellis=2 / 8x8dct=1 / cqm=0 / deadzone=21,11 / fast_pskip=1 / chroma_qp_offset=-3 / threads=6 / lookahead_threads=1 / sliced_threads=0 / nr=0 / decimate=1 / interlaced=0 / bluray_compat=0 / constrained_intra=0 / bframes=8 / b_pyramid=2 / b_adapt=2 / b_bias=0 / direct=3 / weightb=1 / open_gop=0 / weightp=2 / keyint=250 / keyint_min=25 / scenecut=40 / intra_refresh=0 / rc_lookahead=60 / rc=2pass / mbtree=1 / bitrate=3200 / ratetol=1.0 / qcomp=0.60 / qpmin=0 / qpmax=69 / qpstep=4 / cplxblur=20.0 / qblur=0.5 / ip_ratio=1.40 / aq=1:1.00
Default : Yes
Forced : No
Audio #1
ID : 2
Format : MPEG Audio
Format version : Version 1
Format profile : Layer 2
Mode : Joint stereo
Mode extension : Intensity Stereo + MS Stereo
Codec ID : A_MPEG/L2
Codec ID/Hint : MP2
Duration : 51mn 18s
Bit rate mode : Constant
Bit rate : 192 Kbps
Channel(s) : 2 channels
Sampling rate : 48.0 KHz
Compression mode : Lossy
Stream size : 70.5 MiB (5%)
Title : Russian
Language : Russian
Default : Yes
Forced : No
Audio #2
ID : 3
Format : MPEG Audio
Format version : Version 1
Format profile : Layer 2
Mode : Joint stereo
Mode extension : Intensity Stereo + MS Stereo
Codec ID : A_MPEG/L2
Codec ID/Hint : MP2
Duration : 51mn 18s
Bit rate mode : Constant
Bit rate : 192 Kbps
Channel(s) : 2 channels
Sampling rate : 48.0 KHz
Compression mode : Lossy
Stream size : 70.5 MiB (5%)
Title : French
Language : French
Default : No
Forced : No
Download
Для скачивания .torrent файлов необходима регистрация
Сайт не распространяет и не хранит электронные версии произведений, а лишь предоставляет доступ к создаваемому пользователями каталогу ссылок на торрент-файлы, которые содержат только списки хеш-сумм
[Профиль]  [ЛС] 

san007

Стаж: 10 лет 1 месяц

Сообщений: 660

san007 · 07-Янв-16 18:40 (спустя 20 мин., ред. 01-Мар-16 23:27)

[Цитировать] 

Ещё 5-6 лет назад подобные съёмки велись с вертолета и не отличались плавностью видеоряда. Плюс к этому, было опасно или невозможно подлететь или пролететь очень близко возле снимаемого объекта. Теперь, благодаря квадрокоптерам, с помощью которых была отснята большая часть программы, это стало реальностью и вы можете наслаждаться потрясающими съемками, близкими пролетами и отличной плавностью видеокартинки. Всё снято нереально красиво. Это видно и по скриншотам, и по трейлерам к каждой серии, ссылки на которые находятся вместе со списком эпизодов.
Во всех сериях также присутствует оригинальная аудиодорожка для знающих или изучающих французский язык.
[Профиль]  [ЛС] 

san007

Стаж: 10 лет 1 месяц

Сообщений: 660

san007 · 01-Мар-16 23:27 (спустя 1 месяц 25 дней, ред. 15-Мар-16 01:31)

[Цитировать] 

Добавлена последняя 12-я серия.
Раздача завершена.
[Профиль]  [ЛС] 

osserg

Стаж: 10 лет

Сообщений: 29

osserg · 04-Июн-16 15:34 (спустя 3 месяца 2 дня)

[Цитировать] 

Спасибо за раздачу. Долго искал везде, нигде не нашел, даже здесь искал и уже отчаялся и нечаянно наткнулся на вашу раздачу, да ещё и другие передачи от Travel+Adventure тут нашел.
[Профиль]  [ЛС] 

san007

Стаж: 10 лет 1 месяц

Сообщений: 660

san007 · 09-Июл-17 23:21 (спустя 1 год 1 месяц)

[Цитировать] 

Добавлены 5 серий отснятых в 2016-м году. К сожалению, оригинальной французской аудиодорожки в них нет, т.к. канал вместо нее транслировал в эфир вторую русскую.
Раздача завершена.
[Профиль]  [ЛС] 

onkeltem

Стаж: 6 лет 2 месяца

Сообщений: 27


onkeltem · 11-Ноя-18 18:59 (спустя 1 год 4 месяца)

[Цитировать] 

Класс, спасибо большое! Отличные фильмы. Жаль не про все страны
[Профиль]  [ЛС] 

onkeltem

Стаж: 6 лет 2 месяца

Сообщений: 27


onkeltem · 23-Ноя-18 02:25 (спустя 11 дней)

[Цитировать] 

san007 писал(а):
...
Спасибо за раздачу. К сожалению со звуковой дорожкой проблема - на PS4Pro звука нет.
[Профиль]  [ЛС] 

san007

Стаж: 10 лет 1 месяц

Сообщений: 660

san007 · 25-Ноя-18 23:51 (спустя 2 дня 21 час)

[Цитировать] 

onkeltem писал(а):
К сожалению со звуковой дорожкой проблема - на PS4Pro звука нет.
Странно, что такая навороченная коробка конца 2018 года неспособна проигрывать формат аудиофайлов представленный еще в 1993г.
[Профиль]  [ЛС] 
 
Ответить
Loading...
Error