Гавр / Le Havre (Аки Каурисмяки / Aki Kaurismaki) [2011, Финляндия, Франция, Германия, драма, комедия, BDRemux 1080p] [Criterion Collection] MVO (студия "Омикрон") + AVO (А. Алексеев) + Sub Rus, Eng + Original Fra

Страницы:  1

Ответить
Автор
Сообщение

vedigo

RG Orient Extreme

Стаж: 9 лет 4 месяца

Сообщений: 2021

vedigo · 24-Янв-17 03:43 (1 год 10 месяцев назад, ред. 24-Янв-17 03:57)

Гавр / Le Havre
Страна: Финляндия, Франция, Германия
Студия: Sputnik, Pyramide Productions, Pandora Filmproduktion
Жанр: драма, комедия
Год выпуска: 2011
Продолжительность: 01:33:56
Перевод 1: Профессиональный (многоголосый закадровый) студия "Омикрон"
Перевод 2: Авторский (одноголосый закадровый) А. Алексеев
Субтитры: русские (sonnyb), английские
Оригинальная аудиодорожка: французский
Режиссер: Аки Каурисмяки / Aki Kaurismaki
В ролях: Андре Вилмс, Кати Оутинен, Жан-Пьер Дарруссен, Элина Сало, Эвелин Диди, Жан-Пьер Лео, Пьер Этекс
Описание: Марсель Маркс, в прошлом богемный писатель, переселяется в портовый город Гавр и становится чистильщиком сапог. Занятие, хоть и не очень хлебное, дает Марселю ощущение пользы для людей. Поставив крест на своих писательских амбициях, Марсель вполне доволен жизнью, проводя ее между работой, домом и ближайшим кабаком. Но однажды судьба сталкивает его с ребенком-иммигрантом из Черной Африки, а жена Марселя Арлетти тяжело заболевает. И вновь Марсель оказывается перед холодной стеной равнодушия и пробует победить слепую государственную машину, надвигающуюся на ребенка-беженца. Оружие Марселя - только врожденный оптимизм и поддержка многочисленных друзей. Сможет ли он победить в этой неравной борьбе?..
II Сэмпл II IMDB II
Доп. информация:
За перевод студии "Омикрон" спасибо LibrarianA (hdclub). Спонсоры перевода gelom, timur1965, Andy_Ko, Merwos, Кириллка, GenRipper, Baron0580, Dervish, bob_smit, meil, vanuuatuu, АСАВ, LeXX_DanceR
За голос Антона Алексеева спасибо Kabukiman
Тип релиза: BDRemux 1080p
Контейнер: MKV
Видео: AVC / 1920x1080 / 16:9 / 23.976fps / 33995Kbps / [email protected]
Аудио 1: DTS-HD MA / 48.0 KHz / 6ch / 3291kbps / 24bit (DTS Core 48.0 KHz / 6ch / 1509kbps / 24bit) MVO / студия "Омикрон"
Аудио 2: DTS-HD MA / 48.0 KHz / 6ch / 3193kbps / 24bit (DTS Core 48.0 KHz / 6ch / 1509kbps / 24bit) AVO / А. Алексеев
Аудио 3: DTS-HD MA / 48.0 KHz / 6ch / 3072kbps / 24bit (DTS Core 48.0 KHz / 6ch / 1509kbps / 24bit) Fre
Формат субтитров: softsub (SRT)
MediaInfo
Общее
Уникальный идентификатор : 187450527710706014774999115356088952798 (0x8D05A88F959A16F9A7B743DCE869E7DE)
Полное имя : D:\torrent\Le.Havre.2011.BDRemux.1080p_by_vedigo.mkv
Формат : Matroska
Версия формата : Version 4 / Version 2
Размер файла : 28,5 Гбайт
Продолжительность : 1 ч. 34 м.
Режим общего битрейта : Переменный
Общий поток : 43,4 Мбит/сек
Название фильма : Le.Havre.2011.BDRemux.1080p_by_vedigo
Дата кодирования : UTC 2017-01-23 08:01:50
Программа кодирования : mkvmerge v9.8.0 ('Kuglblids') 64bit
Библиотека кодирования : libebml v1.3.4 + libmatroska v1.4.5
Видео
Идентификатор : 1
Формат : AVC
Формат/Информация : Advanced Video Codec
Профиль формата : [email protected]
Параметр CABAC формата : Да
Параметр ReFrames формата : 4 кадра
Идентификатор кодека : V_MPEG4/ISO/AVC
Продолжительность : 1 ч. 33 м.
Вид битрейта : Переменный
Битрейт : 33,9 Мбит/сек
Максимальный битрейт : 37,0 Мбит/сек
Ширина : 1920 пикселей
Высота : 1080 пикселей
Соотношение сторон : 16:9
Режим частоты кадров : Постоянный
Частота кадров : 23,976 (24000/1001) кадра/сек
Цветовое пространство : YUV
Субдискретизация насыщенности : 4:2:0
Битовая глубина : 8 бит
Тип развёртки : Прогрессивная
Бит/(Пиксели*Кадры) : 0.682
Размер потока : 22,2 Гбайт (78%)
Заголовок : Le.Havre.2011.BDRemux.1080p_by_vedigo
Default : Да
Forced : Нет
Аудио #1
Идентификатор : 2
Формат : DTS
Формат/Информация : Digital Theater Systems
Профиль формата : MA / Core
Режим : 16
Параметр Endianness формата : Big
Идентификатор кодека : A_DTS
Продолжительность : 1 ч. 34 м.
Вид битрейта : Переменный / Постоянный
Битрейт : 3291 Кбит/сек / 1509 Кбит/сек
Каналы : 6 каналов
Расположение каналов : Front: L C R, Side: L R, LFE
Частота : 48,0 КГц
Частота кадров : 93,750 кадра/сек (512 spf)
Битовая глубина : 24 бит
Метод сжатия : Без потерь / Lossy
Размер потока : 2,17 Гбайт (8%)
Заголовок : MVO @ студия "Омикрон"
Язык : Russian
Default : Да
Forced : Нет
Аудио #2
Идентификатор : 3
Формат : DTS
Формат/Информация : Digital Theater Systems
Профиль формата : MA / Core
Режим : 16
Параметр Endianness формата : Big
Идентификатор кодека : A_DTS
Продолжительность : 1 ч. 33 м.
Вид битрейта : Переменный / Постоянный
Битрейт : 3193 Кбит/сек / 1509 Кбит/сек
Каналы : 6 каналов
Расположение каналов : Front: L C R, Side: L R, LFE
Частота : 48,0 КГц
Частота кадров : 93,750 кадра/сек (512 spf)
Битовая глубина : 24 бит
Метод сжатия : Без потерь / Lossy
Размер потока : 2,09 Гбайт (7%)
Заголовок : AVO @ А. Алексеев
Язык : Russian
Default : Нет
Forced : Нет
Аудио #3
Идентификатор : 4
Формат : DTS
Формат/Информация : Digital Theater Systems
Профиль формата : MA / Core
Режим : 16
Параметр Endianness формата : Big
Идентификатор кодека : A_DTS
Продолжительность : 1 ч. 33 м.
Вид битрейта : Переменный / Постоянный
Битрейт : 3072 Кбит/сек / 1509 Кбит/сек
Каналы : 6 каналов
Расположение каналов : Front: L C R, Side: L R, LFE
Частота : 48,0 КГц
Частота кадров : 93,750 кадра/сек (512 spf)
Битовая глубина : 24 бит
Метод сжатия : Без потерь / Lossy
Размер потока : 2,03 Гбайт (7%)
Заголовок : Original
Язык : French
Default : Нет
Forced : Нет
Текст #1
Идентификатор : 5
Формат : UTF-8
Идентификатор кодека : S_TEXT/UTF8
Идентификатор кодека/Информация : UTF-8 Plain Text
Продолжительность : 1 ч. 28 м.
Битрейт : 56 бит/сек
Count of elements : 724
Размер потока : 36,5 Кбайт (0%)
Заголовок : Subtitle rus @ sonnyb
Язык : Russian
Default : Нет
Forced : Нет
Текст #2
Идентификатор : 6
Формат : UTF-8
Идентификатор кодека : S_TEXT/UTF8
Идентификатор кодека/Информация : UTF-8 Plain Text
Продолжительность : 1 ч. 27 м.
Битрейт : 28 бит/сек
Count of elements : 723
Размер потока : 18,2 Кбайт (0%)
Заголовок : Subtitle eng
Язык : English
Default : Нет
Forced : Нет
Меню
00:00:00.000 : en:00:00:00.000
00:05:08.141 : en:00:05:08.141
00:08:06.444 : en:00:08:06.444
00:10:03.728 : en:00:10:03.728
00:11:44.704 : en:00:11:44.704
00:15:27.343 : en:00:15:27.343
00:18:18.389 : en:00:18:18.389
00:21:57.900 : en:00:21:57.900
00:24:36.016 : en:00:24:36.016
00:27:22.641 : en:00:27:22.641
00:30:11.059 : en:00:30:11.059
00:33:17.996 : en:00:33:17.996
00:35:40.180 : en:00:35:40.180
00:39:47.135 : en:00:39:47.135
00:44:27.248 : en:00:44:27.248
00:47:58.125 : en:00:47:58.125
00:50:54.468 : en:00:50:54.468
00:53:29.498 : en:00:53:29.498
00:59:31.276 : en:00:59:31.276
01:03:36.855 : en:01:03:36.855
01:08:11.087 : en:01:08:11.087
01:10:34.021 : en:01:10:34.021
01:14:56.033 : en:01:14:56.033
01:19:55.582 : en:01:19:55.582
01:23:31.256 : en:01:23:31.256
01:26:53.834 : en:01:26:53.834
01:30:27.422 : en:01:30:27.422
Скриншоты
Сведения об исходнике
Disc Title: LE_HAVRE_v99
Disc Size: 47 763 818 476 bytes
Protection: AACS
BD-Java: Yes
BDInfo: 0.5.8
PLAYLIST REPORT:
Name: 00001.MPLS
Length: 1:33:55.671 (h:m:s.ms)
Size: 27 504 168 960 bytes
Total Bitrate: 39,04 Mbps
VIDEO:
Codec Bitrate Description
----- ------- -----------
MPEG-4 AVC Video 33995 kbps 1080p / 23,976 fps / 16:9 / High Profile 4.1
AUDIO:
Codec Language Bitrate Description
----- -------- ------- -----------
DTS-HD Master Audio French 3096 kbps 5.1 / 48 kHz / 3096 kbps / 24-bit (DTS Core: 5.1 / 48 kHz / 1509 kbps / 24-bit)
SUBTITLES:
Codec Language Bitrate Description
----- -------- ------- -----------
Presentation Graphics English 23,256 kbps
Download
Для скачивания .torrent файлов необходима регистрация
Сайт не распространяет и не хранит электронные версии произведений, а лишь предоставляет доступ к создаваемому пользователями каталогу ссылок на торрент-файлы, которые содержат только списки хеш-сумм
[Профиль]  [ЛС] 

elfkfz

Стаж: 10 лет 2 месяца

Сообщений: 336

elfkfz · 26-Янв-17 13:13 (спустя 2 дня 9 часов)

[Цитировать] 

dmyan писал(а):
72337838vedigo
Большое спасибо за хороший релиз хорошего фильма!
Присоединяюсь к благодарности, уважаемый vedigo. Респект Вам от всех почитателей авторского кино на этом ресурсе. Всех благ)))
[Профиль]  [ЛС] 

vedigo

RG Orient Extreme

Стаж: 9 лет 4 месяца

Сообщений: 2021

vedigo · 26-Янв-17 15:37 (спустя 2 часа 23 мин., ред. 27-Янв-17 10:29)

[Цитировать] 

Буду разбавлять азиатские фильмы фильмами из Criterion Collection, есть еще несколько дисков, следите за релизами...
[Профиль]  [ЛС] 

VasyaSS

Top User 06

Стаж: 9 лет 9 месяцев

Сообщений: 327

VasyaSS · 08-Мар-17 23:17 (спустя 1 месяц 13 дней)

[Цитировать] 

Таки решился посмотреть по случаю, преодолев нагнанные страхи. Короче: кто давно знает и любит Каурисмяков - смотреть смело. Зрители и правители меняются, а Аки все тот же - никому он не продался. Спасибо.
[Профиль]  [ЛС] 

mcombo

Стаж: 11 лет 4 месяца

Сообщений: 235


mcombo · 28-Сен-18 19:08 (спустя 1 год 6 месяцев)

[Цитировать] 

А бонусы доложить отдельной папочкой не могли бы?
[Профиль]  [ЛС] 
 
Ответить
Loading...
Error