Шахматы Онлайн видео-партий А. Гемльмана [2011-2012, Шахматы, WEBRip, RUS] (Видеоурок)

Страницы:  1

Ответить
Автор
Сообщение

killme_777

Стаж: 6 лет 9 месяцев

Сообщений: 5


killme_777 · 03-Фев-12 14:32 (6 лет 4 месяца назад, ред. 03-Фев-12 19:05)

Шахматы Онлайн видео-партий А. Гельмана
Страна: Россия
Тематика: Шахматы
Тип раздаваемого материала: Видеоурок
Продолжительность: 1:34:46
Год выпуска: 2011-2012
Язык: Русский
Перевод: Не требуется
Описание: Международный тренер Александр Гельман( рейтинг ФИДЕ 2430. максимальный рейтинг на шахматной планете 3011) играя в 3х минутный блиц в интернете, комментирует свою игру в режиме realtime, рассказывая о идеях, ловушках и пр. В партиях присутствуют жертвы, тактические приемы и даже зевки. Его видео носит не только обучающий но и развлекательный характер. Некоторые партии в конце анализируются на поиск ошибок, лучших позиций и пр. . В раздаче, видео-партии которых нету в свободном доступе на официальном канале автора http://www.youtube.com/user/Super300476 и Фэн группе вконтакте http://vk.com/club31590615
Качество: WEBRip
Формат: MP4
Аудио кодек: AAC
Видео: : MPEG4 Video (H264) 610x360 14.998fps [VideoHandler - MPEG4 Video (H264)]
Аудио: AAC 44100Hz stereo 95kbps [IsoMedia File Produced by Google, 5-11-2011 - MPEG-4 Audio]
Список раздаваемого материала:
1. Агрессивный Рети
2. Английское начало. схемы с с5
3. Английское начало. съел в конце почти всё
4. Гамбит фрома
5. Дошёл таки до 3000
6. Каталонское начало,вязкий центр
7. Маленький ударчик в королевском гамбите
8. Нарушил принципы дебюта
9. Непростая партия с филиппинцем
10. Позиционно переиграл соперника
11. Пошёл королём мат ставить!
12. Сицилианский гамбит
13. слоны против коней
14. Староиндийская защита,подрывы с6 и f5
15. Французкая с 3.е5,победа
Скриншоты
MediaInfo
General
Complete name : C:\Users\Misha\Desktop\А. Гельман\Французкая с 3.е5,победа.mp4
Format : MPEG-4
Format profile : Base Media / Version 2
Codec ID : mp42
File size : 15.5 MiB
Duration : 8mn 24s
Overall bit rate mode : Variable
Overall bit rate : 258 Kbps
Encoded date : UTC 2012-01-24 09:41:26
Tagged date : UTC 2012-01-24 09:41:26
gsst : 0
gstd : 504846
gssd : BADC205C3MH1328120662683192
gshh : o-o.preferred.lhr14s11.v13.lscache5.c.youtube.com
Video
ID : 1
Format : AVC
Format/Info : Advanced Video Codec
Format profile : [email protected]
Format settings, CABAC : No
Format settings, ReFrames : 1 frame
Codec ID : avc1
Codec ID/Info : Advanced Video Coding
Duration : 8mn 24s
Bit rate : 160 Kbps
Maximum bit rate : 649 Kbps
Width : 610 pixels
Height : 360 pixels
Display aspect ratio : 1.694
Frame rate mode : Constant
Frame rate : 15.000 fps
Color space : YUV
Chroma subsampling : 4:2:0
Bit depth : 8 bits
Scan type : Progressive
Bits/(Pixel*Frame) : 0.049
Stream size : 9.63 MiB (62%)
Tagged date : UTC 2012-01-24 09:41:26
Audio
ID : 2
Format : AAC
Format/Info : Advanced Audio Codec
Format profile : LC
Codec ID : 40
Duration : 8mn 24s
Bit rate mode : Variable
Bit rate : 96.0 Kbps
Maximum bit rate : 119 Kbps
Channel(s) : 2 channels
Channel positions : Front: L R
Sampling rate : 44.1 KHz
Compression mode : Lossy
Stream size : 5.77 MiB (37%)
Title : IsoMedia File Produced by Google, 5-11-2011
Encoded date : UTC 2012-01-24 09:41:26
Tagged date : UTC 2012-01-24 09:41:26
Download
Для скачивания .torrent файлов необходима регистрация
Сайт не распространяет и не хранит электронные версии произведений, а лишь предоставляет доступ к создаваемому пользователями каталогу ссылок на торрент-файлы, которые содержат только списки хеш-сумм
[Профиль]  [ЛС] 

baggo17879

Top Seed 08* 5120r

Стаж: 8 лет 9 месяцев

Сообщений: 31347

baggo17879 · 03-Фев-12 16:40 (спустя 2 часа 7 мин., ред. 03-Фев-12 16:40)

[Цитировать] 

Очень интересно
Спасибо
Как говаривал великий Ося - Эх, давненько я не брал в руки ̶ш̶а̶ш̶к̶и̶ шахматы
[Профиль]  [ЛС] 

baggo17879

Top Seed 08* 5120r

Стаж: 8 лет 9 месяцев

Сообщений: 31347

baggo17879 · 03-Фев-12 17:17 (спустя 36 мин.)

[Цитировать] 

killme_777
Благ дружище!
Посмотрю на досуге.
Я ведь раньше очень недурно играл.
В детстве умудрился (а может дядя Лева так был нетрезв ) сыграть в ничью с Полугаевским.
Мой отчим был в свое время у него секундантом.
[Профиль]  [ЛС] 

Earl2905

Стаж: 8 лет

Сообщений: 4


Earl2905 · 18-Фев-12 18:13 (спустя 15 дней)

[Цитировать] 

Отличное видео, на ютубе смотрю, на канал его подписался))
Поучительно, и настроение поднимает)
[Профиль]  [ЛС] 

bl_br

Стаж: 8 лет

Сообщений: 13


bl_br · 21-Ноя-12 17:30 (спустя 9 месяцев)

[Цитировать] 

исправьте название, а то поиск не находит
[Профиль]  [ЛС] 

Chaotic133

Стаж: 9 лет 11 месяцев

Сообщений: 22

Chaotic133 · 25-Фев-15 11:52 (спустя 2 года 3 месяца)

[Цитировать] 

Благодаря видео Александра я вдохновился на возврат к изучению шахмат! Большое спасибо за раздачу.
Он сейчас удалил уже многие свои прежние партии с ютюба, так что в некотором роде данная раздача уникальна! Поддержу!
[Профиль]  [ЛС] 

Koshmarotron

Стаж: 9 лет 2 месяца

Сообщений: 158

Koshmarotron · 01-Апр-16 03:42 (спустя 1 год 1 месяц)

[Цитировать] 

Международный тренер? Может, международный МАСТЕР?
[Профиль]  [ЛС] 
 
Ответить
Loading...
Error