(Reggae) Мангол - Песня - 2002, APE (image+.cue), lossless

Страницы:  1

Ответить
Автор
Сообщение

ivanchenko.andrey

Стаж: 10 лет 6 месяцев

Сообщений: 1773

ivanchenko.andrey · 23-Дек-08 21:31 (9 лет 11 месяцев назад, ред. 24-Дек-08 20:52)

Мангол - Песня
Жанр: Reggae
Год выпуска диска: 2002
Производитель диска: Украина
Аудио кодек: APE
Тип рипа: image+.cue
Битрейт аудио: lossless
Трэклист:
"Песня"
"Вибрация"
"Ping pong"
"Hello"
"Джамайка"
"Summertime"
"Банго буги"
"С краю"
"abbarirura"
"Гениальный сыщик"
"Hello (rmx)"
"Summertime (rmx)"

Доп. информация:
В раздаче также:
- 3 видеоклипа (с оригинального диска);
- Сканы обложек и блина (Covers).
Отчёт EAC
Exact Audio Copy V0.99 prebeta 4 from 23. January 2008
Отчёт EAC об извлечении, выполненном 23. декабря 2008, 18:28
Unknown Artist / Unknown Title
Дисковод: _NEC DVD_RW ND-3540A Adapter: 1 ID: 1
Режим чтения : Достоверность
Использование точного потока : Да
Отключение кэша аудио : Да
Использование указателей C2 : Нет
Коррекция смещения при чтении : 48
Способность читать области Lead-in и Lead-out : Нет
Заполнение пропущенных сэмплов тишиной : Да
Удаление блоков с тишиной в начале и конце : Нет
При вычислениях CRC использовались нулевые сэмплы : Да
Интерфейс : Установленный внешний ASPI-интерфейс
Выходной формат : Внутренние WAV-операции
Формат сэмплов : 44.100 Гц; 16 бит; стерео
TOC извлечённого CD
Трек | Старт | Длительность | Начальный сектор | Конечный сектор
---------------------------------------------------------------------
1 | 0:00.00 | 4:02.02 | 0 | 18151
2 | 4:02.02 | 4:07.02 | 18152 | 36678
3 | 8:09.04 | 2:49.02 | 36679 | 49355
4 | 10:58.06 | 3:42.02 | 49356 | 66007
5 | 14:40.08 | 4:31.02 | 66008 | 86334
6 | 19:11.10 | 4:25.02 | 86335 | 106211
7 | 23:36.12 | 3:33.02 | 106212 | 122188
8 | 27:09.14 | 3:44.02 | 122189 | 138990
9 | 30:53.16 | 3:06.02 | 138991 | 152942
10 | 33:59.18 | 2:15.02 | 152943 | 163069
11 | 36:14.20 | 3:43.02 | 163070 | 179796
12 | 39:57.22 | 4:33.02 | 179797 | 200273
13 | 47:02.24 | 12:15.44 | 211674 | 266842
Характеристики диапазона извлечения и сообщения об ошибках
Выбранный диапазон
Имя файла C:\мангол\Unknown Artist - Unknown Title.wav
Пиковый уровень 98.8 %
Качество диапазона 100.0 %
CRC копии 75119B65
Копирование... OK
Ошибок не произошло
Конец отчёта
TAU
Выражаю благодарность Jack Ripper из Monster Jack за диск...
МпЗ здесь http://rutracker.org/forum/viewtopic.php?p=15927506#15927506
Раздаю по вечерам в будни, и целый день в выходные...
Download
Для скачивания .torrent файлов необходима регистрация
Сайт не распространяет и не хранит электронные версии произведений, а лишь предоставляет доступ к создаваемому пользователями каталогу ссылок на торрент-файлы, которые содержат только списки хеш-сумм
[Профиль]  [ЛС] 

ivanchenko.andrey

Стаж: 10 лет 6 месяцев

Сообщений: 1773

ivanchenko.andrey · 01-Янв-09 22:57 (спустя 9 дней)

[Цитировать] 

ну как?
[Профиль]  [ЛС] 

bedny

Стаж: 12 лет

Сообщений: 113

bedny · 14-Ноя-09 23:56 (спустя 10 месяцев)

[Цитировать] 

ivanchenko.andrey писал(а):
ну как?
Атлична!
[Профиль]  [ЛС] 

ivanchenko.andrey

Стаж: 10 лет 6 месяцев

Сообщений: 1773

ivanchenko.andrey · 15-Ноя-09 10:57 (спустя 11 часов)

[Цитировать] 

bedny писал(а):
Атлична!
уже не жаль времени потраченного на рип
[Профиль]  [ЛС] 

bedny

Стаж: 12 лет

Сообщений: 113

bedny · 22-Ноя-09 23:03 (спустя 7 дней)

[Цитировать] 

Кстати, давно искал этот диск в продаже - так и не нашёл. Аранжировки для этого альбома делал мой приятель - в своё время не догадался попросить у него один из авторских экземпляров, а потом их не осталось. Так что в любом случае - спасибо!
[Профиль]  [ЛС] 

Kostik1111

Стаж: 10 лет 7 месяцев

Сообщений: 4


Kostik1111 · 11-Окт-11 00:12 (спустя 1 год 10 месяцев)

[Цитировать] 

Отличная позитивная музыка, спасибо.
[Профиль]  [ЛС] 

logikal

Стаж: 10 лет 8 месяцев

Сообщений: 1063

logikal · 03-Дек-12 17:59 (спустя 1 год 1 месяц)

[Цитировать] 

То не децибелы, не мегагерцы - это вибрация моего сердца
[Профиль]  [ЛС] 

bear55

Стаж: 11 лет 2 месяца

Сообщений: 40

bear55 · 21-Янв-14 19:35 (спустя 1 год 1 месяц)

[Цитировать] 

Вот спасибо!!! Правда давно искал, в продаже не нашел
[Профиль]  [ЛС] 

Сергей Goodwin

Стаж: 5 лет 10 месяцев

Сообщений: 2


Сергей Goodwin · 23-Мар-15 07:06 (спустя 1 год 2 месяца)

[Цитировать] 

народ! раздайте кто-нибудь!! неделю на закачке висит- тишина(((
[Профиль]  [ЛС] 

NaBerlin

Стаж: 10 лет 6 месяцев

Сообщений: 416

NaBerlin · 05-Апр-15 13:36 (спустя 13 дней)

[Цитировать] 

народ! раздайте кто-нибудь!! неделю на закачке висит- тишина(((
[Профиль]  [ЛС] 

musikkoptor

Стаж: 9 лет 10 месяцев

Сообщений: 107


musikkoptor · 30-Ноя-15 14:54 (спустя 7 месяцев)

[Цитировать] 

Бльшой позитив с + + +
ivanchenko.andrey Ты брат безоговорочно крут!
[Профиль]  [ЛС] 
 
Ответить
Loading...
Error