Уроки географии. Сахалин [2013, Документальный, HDTV 1080i]

Страницы:  1

Ответить
Автор
Сообщение

Gizmo3k

Стаж: 13 лет

Сообщений: 203


Gizmo3k · 01-Июл-14 16:41 (4 года 2 месяца назад)

Уроки географии. Сахалин
Год выпуска: 2013
Страна: Россия
Жанр: Документальный
Продолжительность: 00:26:35
Перевод: Не требуется
Описание: "Уроки географии"- это урок - приключение, урок - путешествие, урок - интерактивная игра! В каждой серии прямо из студии учитель географии и его ученик перемещаются в один из удивительных регионов России, чтобы раскрыть его тайны и увидеть чудеса его природы.
Японцы называют этот остров Карафуто - название произошло от более древнего "камуй-кара-путо-я-мосир", что означает "земля бога устья". А в Российской империи остров был местом ссылки для опасных заключенных... В этом уникальном месте устроили лежбище одни из самых удивительных животных мира. Здесь бьют странные грязевые вулканы, а омывает остров океан, площадь которого больше, чем площадь всей суши нашей планеты… Для тех, кто не боится заблудиться в песчаных дюнах или готов противостоять жестоким порывам сильного ветра, самый удивительный остров России откроет все свои тайны...
Доп. информация: IPTV Remux (запись потока без перекодирования)
Тип релиза: HDTV 1080i
Контейнер: TS
Видео: AVC H.264, 1920x1080i (16:9), 25 fps, 7063 kbps , 0.136 bits/pixel
Аудио: MPEG Audio, 2 channels, Joint stereo, 192 kbps, 48KHz
MediaInfo
General
ID : 1 (0x1)
Complete name : Уроки географии. Сахалин.ts
Format : MPEG-TS
File size : 1.42 GiB
Duration : 26mn 35s
Overall bit rate mode : Variable
Overall bit rate : 7 634 Kbps
Video
ID : 69 (0x45)
Menu ID : 1 (0x1)
Format : AVC
Format/Info : Advanced Video Codec
Format profile : [email protected]
Format settings, CABAC : Yes
Format settings, ReFrames : 4 frames
Format settings, GOP : M=4, N=32
Codec ID : 27
Duration : 26mn 35s
Bit rate : 7 063 Kbps
Width : 1 920 pixels
Height : 1 080 pixels
Display aspect ratio : 16:9
Frame rate : 25.000 fps
Color space : YUV
Chroma subsampling : 4:2:0
Bit depth : 8 bits
Scan type : MBAFF
Bits/(Pixel*Frame) : 0.136
Stream size : 1.31 GiB (93%)
Audio
ID : 68 (0x44)
Menu ID : 1 (0x1)
Format : MPEG Audio
Format version : Version 1
Format profile : Layer 2
Mode : Joint stereo
Mode extension : Intensity Stereo + MS Stereo
Codec ID : 3
Duration : 26mn 35s
Bit rate mode : Constant
Bit rate : 192 Kbps
Channel(s) : 2 channels
Sampling rate : 48.0 KHz
Compression mode : Lossy
Stream size : 36.5 MiB (3%)
Language : English
Скриншоты
Download
Для скачивания .torrent файлов необходима регистрация
Сайт не распространяет и не хранит электронные версии произведений, а лишь предоставляет доступ к создаваемому пользователями каталогу ссылок на торрент-файлы, которые содержат только списки хеш-сумм
[Профиль]  [ЛС] 

tretettert

Стаж: 8 лет 8 месяцев

Сообщений: 45


tretettert · 03-Авг-14 01:26 (спустя 1 месяц 1 день)

[Цитировать] 

Спасибо большое за познавательный материал про родной Сахалин!
[Профиль]  [ЛС] 

fenkis

Стаж: 9 лет 9 месяцев

Сообщений: 222

fenkis · 19-Янв-15 20:42 (спустя 5 месяцев 16 дней)

[Цитировать] 

еще бы про Сахалин... просто видеосъемки. спасибо
[Профиль]  [ЛС] 

evsereda

Стаж: 8 лет

Сообщений: 21


evsereda · 27-Сен-15 21:20 (спустя 8 месяцев)

[Цитировать] 

Если кто-нибудь подскажет, как скачать или скачает и выложит, то:
http://2.russia.tv/brand/show/brand_id/48984 Свердловская область
http://2.russia.tv/video/show/brand_id/48984/episode_id/1231310/ Пермский край
http://2.russia.tv/video/show/brand_id/48984/episode_id/1231311/ Тыва
Дальше -больше...
[Профиль]  [ЛС] 
 
Ответить
Loading...
Error