Человек Мира с Андреем Понкратовым. Коми. Сентиментальное путешествие на Русский Север. 4 части [2013, Документальный, HDTV 1080i]

Страницы:  1

Ответить
Автор
Сообщение

kuzmichm2196

RG Документалисты

Стаж: 8 лет 7 месяцев

Сообщений: 2138

kuzmichm2196 · 27-Июл-14 23:52 (4 года 1 месяц назад, ред. 28-Июл-14 05:16)

Человек Мира с Андреем Понкратовым. Коми. Сентиментальное путешествие на Русский Север. 4 части
Год выпуска: 2013
Страна: Россия
Жанр: Документальный
Продолжительность: 00:26:00 серия
Перевод: Не требуется
Описание: Человек мира Андрей Понкратов впервые за долгие годы отправился путешествовать по родной стране. На этот героический шаг его сподвигла Зинаида Павловна, жительница республики Коми, написавшая ведущему трогательное письмо, не откликнуться на которое было просто бесчеловечно. Считая, что ведущий совсем отвык и от нормальных людей и от нормальной пищи, она пригласила его в свою родную оленеводческую деревню Ижма, где обещала напоить, накормить, а также научить традициям оленеводов.
качество: HDTV 1080i
формат: TS
Видео: H264; 1920x1080 (16:9); 25.000 fps; ~7 814 Kbps
Аудио: MPEG Audio 48000Hz stereo 192 Кбит/сек
MediaInfo
J:\ДИСК-2\Человек Мира с Андреем Понкратовым. Коми. Сентиментальное путешествие на Русский Север. 4 части\Коми 1.ts
General #1
ID : 1 (0x1)
Complete name : J:\ДИСК-2\Человек Мира с Андреем Понкратовым. Коми. Сентиментальное путешествие на Русский Север. 4 части\Коми 1.ts
Format : MPEG-TS
File size : 1.55 GiB
Duration : 26mn 15s
Overall bit rate mode : Variable
Overall bit rate : 8 424 Kbps
Video #2292
ID : 2292 (0x8F4)
Menu ID : 1 (0x1)
Format : AVC
Format/Info : Advanced Video Codec
Format profile : [email protected]
Format settings, CABAC : Yes
Format settings, ReFrames : 4 frames
Codec ID : 27
Duration : 26mn 15s
Bit rate : 7 814 Kbps
Width : 1 920 pixels
Height : 1 080 pixels
Display aspect ratio : 16:9
Frame rate : 25.000 fps
Color space : YUV
Chroma subsampling : 4:2:0
Bit depth : 8 bits
Scan type : MBAFF
Bits/(Pixel*Frame) : 0.151
Stream size : 1.43 GiB (93%)
Audio #2295
ID : 2295 (0x8F7)
Menu ID : 1 (0x1)
Format : MPEG Audio
Format version : Version 1
Format profile : Layer 2
Mode : Joint stereo
Mode extension : Intensity Stereo + MS Stereo
Codec ID : 3
Duration : 26mn 15s
Bit rate mode : Constant
Bit rate : 192 Kbps
Channel count : 2 channels
Sampling rate : 48.0 KHz
Compression mode : Lossy
Stream size : 36.1 MiB (2%)
Language : English
Скриншоты
Download
Для скачивания .torrent файлов необходима регистрация
Сайт не распространяет и не хранит электронные версии произведений, а лишь предоставляет доступ к создаваемому пользователями каталогу ссылок на торрент-файлы, которые содержат только списки хеш-сумм
[Профиль]  [ЛС] 

altaveron

Стаж: 9 лет 3 месяца

Сообщений: 128


altaveron · 01-Авг-14 22:46 (спустя 4 дня)

[Цитировать] 

Ну и отстой. Зачем только Андрей туда поехал?
[Профиль]  [ЛС] 

m48h

Стаж: 8 лет 7 месяцев

Сообщений: 32


m48h · 30-Янв-15 23:54 (спустя 5 месяцев)

[Цитировать] 

Спасибо. Редкий материал. Суть России. В этом же направлении есть фильм: Коми. Путешествие через Арктику.
[Профиль]  [ЛС] 
 
Ответить
Loading...
Error