(Classical) Simon Rattle - Stravinsky/Стравинский (The Firebird / Жар-птица, Petrushka / Петрушка, Le Sacre du printemps / Весна священная, Pulcinella / Пульчинелла, Apollo /Аполлон Мусагет, Symphonies) - 2009 , FLAC (tracks+.cue) lossless

Страницы:  1

Ответить
Автор
Сообщение

nikitastykov

Стаж: 8 лет 6 месяцев

Сообщений: 19

nikitastykov · 31-Дек-10 13:11 (7 лет 9 месяцев назад, ред. 27-Янв-11 12:53)

Simon Rattle - Stravinsky/Стравинский
Жанр: Classical
Страна-производитель диска: EU (UK)
Год издания диска: 2009
Издатель (лейбл): EMI Records
Дата записи: 1987-2009
Аудиокодек: FLAC
Тип рипа: tracks+.cue
Битрейт аудио: lossless
Продолжительность: CD1- 65.11 ; CD2 - 65.10 ; CD3-66.43 ; CD4-70.46
Источник: собственный рип
Наличие сканов в содержимом раздачи: Да
Исполнители:
CD1 - Birmingham Symphony Orchestra
CD2 - 1-10 - Felix Kok,Jeremy Ballard : violins; Peter Cole : viola ; Ulrich Heinen : cello ; John Tattersdill : double bass. Birmingham Symphony Orchestra
CD3 - 1-14 - Peter Donohoe : piano; 15-17 Elaine Donohoe: piano ; Robert Johnston : harp. 1-17 -Birmingham Symphony Orchestra. 18- Berliner Philarmoniker
CD4 - 1-11 - Jennifer Smith : soprano ; John Fryatt : tenor ; Malcolm King : bass. 1-19 Northern Symphony Orchestra. 20 - Birmingham Symphony Orchestra . 21-23 Michael collins : clarinet ; London Sinfonietta. 24-28 Birmingham Symphony Orchestra
Треклист:
СD1
01. The Firebird - Introduction
02. Tableau I - Dance of the Firebird
03. The princesses' game with the golden apples
04. Sudden appearance of Ivan Tsarevich
05. Danceof Kaschei's retinue under Firebird's spell
06. Lullaby (Firebird)
07. Tableau II - Disappearance of the palace and dissolution of Kaschei's enchantments
08. Scherzo a la russe (for jazz band)
09. Four Studies - Danse
10. Excentrique
11. Cantique
12. Madrid
13. Scherzo a la russe (orchestral version)
СD2
01. Apollo - Ballet en deux tableaux (1947 revised version), Premier tableau (prologue)- Naissance d'Apollo
02. Deuxième tableaux - Variation d'Apollon (Apollon et les Muses)
03. Pas d'action (Apollon et les trois Muses- Calliope
04. Variation de Calliope (l'Alexandrin)
05. Variation de Polymnie
06. Variation de Terpsichore
07. Variation d'Apollon
08. Pas de deux (Apollon et Terpsichore)
09. Coda (Apollon et les Muses)
10. Apothéose
11. The Rite Of Spring, 'Le Sacre Du Printemps' (1947 Revised Version), Part 1- L'Adoration De La Terre- Introduction - Les Augures
12. Rond Printanières - Jeux D
13. Le Sage - Danse De La Terr
14. Part 2- Le Sacrifice- Introduction
15. Cercles Mystérieux Des Adolescentes
16. Glorification De L'Élue - Évocation D
17. Danse Sacrale (L'Élue)
СD3
01. Petrushka - 1. Tableau - Fкte populaire de la semaine grasse
02. Le tour de passe-passe - Danse russe
03. 2. Tableau - Chez Petrushka
04. 3. Tableau - Chez le maure - Danse de la ballerine
05. Valse - La ballerine et le maure
06. 4. Tableau - Fкte populaire de la semaine grasse
07. Danse de nounous
08. Paysan et l'ours
09. Bohemien et marchand malhonnкte
10. Danse des cochers et des palefreniers
11. Les deguises
12. Le rixe - Le maure et Petrushka
13. Mort de Petrushka
14. Police et l'enchanteur - Vociferation du double de Petrushka
15. Symphony in three movements - 1. Viertel - 160
16. 2. Andante (Achtel - 76) - Interlude (L'istesso tempo
17. 3. Con moto (Viertel - 180)
18. Symphonies of wind instruments (Berliner Philharmoniker)
СD4
01. Pulcinella - Ouverture (Northern Sinfonia Orchestra)
02. Mentre l'erbetta pasce l'agnella (tenor) (Northern Sinfonia Orchestra
03. Contento forse vivere (soprano) (Northern Sinfonia Orchestra)
04. Con queste paroline (bass) (Northern Sinfonia Orchestra
05. Sento dire no'nce pace (trio) (Northern Sinfonia Orchestra
06. Una te falan zemprece (tenor) (Northern Sinfonia Orchestra)
07. Se tu m'ami (soprano) (Northern Sinfonia Orchestra)
08. Gavotta (Northern Sinfonia Orchestra)
09. Variation 1 (Northern Sinfonia Orchestra)
10. Variation 2 (Northern Sinfonia Orchestra)
11. Pupillette fiammette (trio) (Northern Sinfonia Orchestra)
12. Suite No. 1 - 1. Andante (Northern Sinfonia Orchestra)
13. 2. Napolitana (Northern Sinfonia Orchestra
14. 3. Espanola (Northern Sinfonia Orchestra)
15. 4. Balalaika (Northern Sinfonia Orchestra)
16. Suite No. 2 - 1. Marche (Northern Sinfonia Orchestra)
17. 2. Valse (Northern Sinfonia Orchestra)
18. 3. Polka (Northern Sinfonia Orchestra)
19. 4. Galop (Northern Sinfonia Orchestra)
20. Ragtime
21. Ebony Concerto - 1. Allegro moderato (London Sinfonietta)
22. 2. Andante (London Sinfonietta)
23. 3. Moderato (London Sinfonietta)
24. Agon (excerpts) - Gaillarde
25. Coda
26. Interlude
27. Four Duos
28. Four Trios
Информация о рипе:
Лог создания рипа

CD1
EAC extraction logfile from 30. December 2010, 21:12 for CD
Simon Rattle / Stravinsky
Used drive : HL-DT-STDVDRAM GSA-T50N Adapter: 0 ID: 1
Read mode : Secure with NO C2, accurate stream, disable cache
Read offset correction : 667
Overread into Lead-In and Lead-Out : No
Used output format : C:\Program Files\Exact Audio Copy\Flac\flac.exe (User Defined Encoder)
320 kBit/s
Additional command line options : -8 -V -T "ARTIST=%a" -T "TITLE=%t" -T "ALBUM=%g" -T "DATE=%y" -T "TRACKNUMBER=%n" -T "GENRE=%m" -T "COMMENT=EAC FLAC -8" %s
Other options :
Fill up missing offset samples with silence : Yes
Delete leading and trailing silent blocks : No
Native Win32 interface for Win NT & 2000
Track 1
Filename C:\Users\Никита\Music\Simon Rattle - Stravinsky\CD 1\01. Simon Rattle – The Firebird - Introduction.wav
Pre-gap length 0:00:02.33
Peak level 35.8 %
Track quality 100.0 %
Test CRC 5819C7EF
Copy CRC 5819C7EF
Copy OK
Track 2
Filename C:\Users\Никита\Music\Simon Rattle - Stravinsky\CD 1\02. Simon Rattle – The Firebird - Tableau I - Dance of the Firebird.wav
Pre-gap length 0:00:00.02
Peak level 30.1 %
Track quality 100.0 %
Test CRC ACF17F62
Copy CRC ACF17F62
Copy OK
Track 3
Filename C:\Users\Никита\Music\Simon Rattle - Stravinsky\CD 1\03. Simon Rattle – The Firebird - Tableau I - The princesses' game with the golden apples.wav
Pre-gap length 0:00:00.02
Peak level 23.2 %
Track quality 100.0 %
Test CRC E1FAD4AD
Copy CRC E1FAD4AD
Copy OK
Track 4
Filename C:\Users\Никита\Music\Simon Rattle - Stravinsky\CD 1\04. Simon Rattle – The Firebird - Tableau I - Sudden appearance of Ivan Tsarevich.wav
Pre-gap length 0:00:00.02
Peak level 78.4 %
Track quality 100.0 %
Test CRC 25F29051
Copy CRC 25F29051
Copy OK
Track 5
Filename C:\Users\Никита\Music\Simon Rattle - Stravinsky\CD 1\05. Simon Rattle – The Firebird - Tableau I - Danceof Kaschei's retinue under Firebird's spell.wav
Pre-gap length 0:00:00.02
Peak level 97.7 %
Track quality 100.0 %
Test CRC A61FD387
Copy CRC A61FD387
Copy OK
Track 6
Filename C:\Users\Никита\Music\Simon Rattle - Stravinsky\CD 1\06. Simon Rattle – The Firebird - Tableau I - Lullaby (Firebird).wav
Pre-gap length 0:00:00.02
Peak level 91.1 %
Track quality 100.0 %
Test CRC 5F417BD6
Copy CRC 5F417BD6
Copy OK
Track 7
Filename C:\Users\Никита\Music\Simon Rattle - Stravinsky\CD 1\07. Simon Rattle – The Firebird - Tableau II - Disappearance of the palace and dissolution of Kaschei's enchantments.wav
Pre-gap length 0:00:00.03
Peak level 97.7 %
Track quality 99.9 %
Test CRC D321664C
Copy CRC D321664C
Copy OK
Track 8
Filename C:\Users\Никита\Music\Simon Rattle - Stravinsky\CD 1\08. Simon Rattle – Scherzo a la russe (for jazz band).wav
Pre-gap length 0:00:11.60
Peak level 59.6 %
Track quality 100.0 %
Test CRC 94506299
Copy CRC 94506299
Copy OK
Track 9
Filename C:\Users\Никита\Music\Simon Rattle - Stravinsky\CD 1\09. Simon Rattle – Four Studies - Danse.wav
Pre-gap length 0:00:04.20
Peak level 33.1 %
Track quality 100.0 %
Test CRC FFB33614
Copy CRC FFB33614
Copy OK
Track 10
Filename C:\Users\Никита\Music\Simon Rattle - Stravinsky\CD 1\10. Simon Rattle – Four Studies - Excentrique.wav
Pre-gap length 0:00:00.03
Peak level 40.3 %
Track quality 100.0 %
Test CRC 3539D36A
Copy CRC 3539D36A
Copy OK
Track 11
Filename C:\Users\Никита\Music\Simon Rattle - Stravinsky\CD 1\11. Simon Rattle – Four Studies - Cantique.wav
Pre-gap length 0:00:00.02
Peak level 15.2 %
Track quality 100.0 %
Test CRC 810F8946
Copy CRC 810F8946
Copy OK
Track 12
Filename C:\Users\Никита\Music\Simon Rattle - Stravinsky\CD 1\12. Simon Rattle – Four Studies - Madrid.wav
Pre-gap length 0:00:00.03
Peak level 74.4 %
Track quality 100.0 %
Test CRC 003ADE01
Copy CRC 003ADE01
Copy OK
Track 13
Filename C:\Users\Никита\Music\Simon Rattle - Stravinsky\CD 1\13. Simon Rattle – Scherzo a la russe (orchestral version).wav
Pre-gap length 0:00:02.33
Peak level 95.6 %
Track quality 100.0 %
Test CRC D993992C
Copy CRC D993992C
Copy OK
No errors occured
End of status report
CD2
Exact Audio Copy V1.0 beta 1 from 15. November 2010
EAC extraction logfile from 31. December 2010, 2:41
Simon Rattle / Igor Strawinsky - CD 2
Used drive : TSSTcorpCDDVDW TS-L633A Adapter: 0 ID: 1
Read mode : Secure
Utilize accurate stream : Yes
Defeat audio cache : Yes
Make use of C2 pointers : No
Read offset correction : 6
Overread into Lead-In and Lead-Out : No
Fill up missing offset samples with silence : Yes
Delete leading and trailing silent blocks : No
Null samples used in CRC calculations : No
Used interface : Native Win32 interface for Win NT & 2000
Gap handling : Appended to previous track
Used output format : User Defined Encoder
Selected bitrate : 768 kBit/s
Quality : High
Add ID3 tag : No
Command line compressor : C:\Program Files\Exact Audio Copy\FLAC\FLAC.EXE
Additional command line options : -8 -V -T "ARTIST=%a" -T "TITLE=%t" -T "ALBUM=%g" -T "DATE=%y" -T "TRACKNUMBER=%n" -T "GENRE=%m" -T "COMMENT=EAC FLAC -8" %s
TOC of the extracted CD
Track | Start | Length | Start sector | End sector
---------------------------------------------------------
1 | 0:00.32 | 5:13.70 | 32 | 23576
2 | 5:14.27 | 2:59.03 | 23577 | 37004
3 | 8:13.30 | 4:15.15 | 37005 | 56144
4 | 12:28.45 | 1:25.25 | 56145 | 62544
5 | 13:53.70 | 1:12.30 | 62545 | 67974
6 | 15:06.25 | 1:39.05 | 67975 | 75404
7 | 16:45.30 | 2:35.00 | 75405 | 87029
8 | 19:20.30 | 3:50.55 | 87030 | 104334
9 | 23:11.10 | 3:25.47 | 104335 | 119756
10 | 26:36.57 | 3:39.45 | 119757 | 136226
11 | 30:16.27 | 8:01.03 | 136227 | 172304
12 | 38:17.30 | 6:16.15 | 172305 | 200519
13 | 44:33.45 | 1:39.30 | 200520 | 207974
14 | 46:13.00 | 4:26.22 | 207975 | 227946
15 | 50:39.22 | 3:27.03 | 227947 | 243474
16 | 54:06.25 | 6:02.70 | 243475 | 270694
17 | 60:09.20 | 5:01.05 | 270695 | 293274
Track 1
Filename C:\Users\Рома\Desktop\CD 2\01. Simon Rattle – Apollo - Ballet en deux tableaux (1947 revised version), Premier tableau (prologue)- Naissance d'Apollon.wav
Pre-gap length 0:00:02.32
Peak level 27.1 %
Extraction speed 2.3 X
Track quality 100.0 %
Test CRC 5E98062F
Copy CRC 5E98062F
Accurately ripped (confidence 2) [FB7895C5]
Copy OK
Track 2
Filename C:\Users\Рома\Desktop\CD 2\02. Simon Rattle – Apollo - Ballet en deux tableaux (1947 revised version), Deuxième tableaux- Variation d'Apollon (Apollon et les Muses).wav
Pre-gap length 0:00:00.02
Peak level 9.7 %
Extraction speed 2.3 X
Track quality 100.0 %
Test CRC 3D02A31D
Copy CRC 3D02A31D
Accurately ripped (confidence 3) [E45C0396]
Copy OK
Track 3
Filename C:\Users\Рома\Desktop\CD 2\03. Simon Rattle – Apollo - Ballet en deux tableaux (1947 revised version), Deuxième tableaux- Pas d'action (Apollon et les trois Muses- Calliope,.wav
Pre-gap length 0:00:00.03
Peak level 20.1 %
Extraction speed 2.6 X
Track quality 100.0 %
Test CRC 272B08E6
Copy CRC 272B08E6
Accurately ripped (confidence 3) [83E55167]
Copy OK
Track 4
Filename C:\Users\Рома\Desktop\CD 2\04. Simon Rattle – Apollo - Ballet en deux tableaux (1947 revised version), Deuxième tableaux- Variation de Calliope (l'Alexandrin).wav
Pre-gap length 0:00:00.03
Peak level 16.0 %
Extraction speed 1.4 X
Track quality 99.8 %
Test CRC CF17C487
Copy CRC CF17C487
Accurately ripped (confidence 3) [132F0F19]
Copy OK
Track 5
Filename C:\Users\Рома\Desktop\CD 2\05. Simon Rattle – Apollo - Ballet en deux tableaux (1947 revised version), Deuxième tableaux- Variation de Polymnie.wav
Pre-gap length 0:00:00.03
Peak level 19.6 %
Extraction speed 1.3 X
Track quality 99.8 %
Test CRC 088061D6
Copy CRC 088061D6
Accurately ripped (confidence 3) [EBDCE01A]
Copy OK
Track 6
Filename C:\Users\Рома\Desktop\CD 2\06. Simon Rattle – Apollo - Ballet en deux tableaux (1947 revised version), Deuxième tableaux- Variation de Terpsichore.wav
Pre-gap length 0:00:00.03
Peak level 17.5 %
Extraction speed 2.3 X
Track quality 100.0 %
Test CRC 6D661EAA
Copy CRC 6D661EAA
Accurately ripped (confidence 3) [857B85DD]
Copy OK
Track 7
Filename C:\Users\Рома\Desktop\CD 2\07. Simon Rattle – Apollo - Ballet en deux tableaux (1947 revised version), Deuxième tableaux- Variation d'Apollon.wav
Pre-gap length 0:00:00.03
Peak level 43.4 %
Extraction speed 2.7 X
Track quality 100.0 %
Test CRC 3ECADBDF
Copy CRC 3ECADBDF
Accurately ripped (confidence 3) [0AC18AAB]
Copy OK
Track 8
Filename C:\Users\Рома\Desktop\CD 2\08. Simon Rattle – Apollo - Ballet en deux tableaux (1947 revised version), Deuxième tableaux- Pas de deux (Apollon et Terpsichore).wav
Pre-gap length 0:00:00.02
Peak level 8.8 %
Extraction speed 3.0 X
Track quality 100.0 %
Test CRC C328F3F5
Copy CRC C328F3F5
Accurately ripped (confidence 3) [D1AF467D]
Copy OK
Track 9
Filename C:\Users\Рома\Desktop\CD 2\09. Simon Rattle – Apollo - Ballet en deux tableaux (1947 revised version), Deuxième tableaux- Coda (Apollon et les Muses).wav
Pre-gap length 0:00:00.03
Peak level 40.5 %
Extraction speed 3.2 X
Track quality 100.0 %
Test CRC 10C93628
Copy CRC 10C93628
Accurately ripped (confidence 3) [39EF8963]
Copy OK
Track 10
Filename C:\Users\Рома\Desktop\CD 2\10. Simon Rattle – Apollo - Ballet en deux tableaux (1947 revised version), Deuxième tableaux- Apothéose.wav
Pre-gap length 0:00:00.02
Peak level 22.7 %
Extraction speed 3.3 X
Track quality 100.0 %
Test CRC B50F2530
Copy CRC B50F2530
Accurately ripped (confidence 3) [C19D1D0D]
Copy OK
Track 11
Filename C:\Users\Рома\Desktop\CD 2\11. Simon Rattle – The Rite Of Spring, 'Le Sacre Du Printemps' (1947 Revised Version), Part 1- L'Adoration De La Terre- Introduction - Les Augures.wav
Pre-gap length 0:00:09.35
Peak level 81.1 %
Extraction speed 3.9 X
Track quality 100.0 %
Test CRC 6DA3EAB6
Copy CRC 6DA3EAB6
Accurately ripped (confidence 3) [2AED4434]
Copy OK
Track 12
Filename C:\Users\Рома\Desktop\CD 2\12. Simon Rattle – The Rite Of Spring, 'Le Sacre Du Printemps' (1947 Revised Version), Part 1- L'Adoration De La Terre- Rond Printanières - Jeux D.wav
Pre-gap length 0:00:00.03
Peak level 97.7 %
Extraction speed 4.0 X
Track quality 100.0 %
Test CRC AC692F88
Copy CRC AC692F88
Accurately ripped (confidence 3) [E734B8A3]
Copy OK
Track 13
Filename C:\Users\Рома\Desktop\CD 2\13. Simon Rattle – The Rite Of Spring, 'Le Sacre Du Printemps' (1947 Revised Version), Part 1- L'Adoration De La Terre- Le Sage - Danse De La Terr.wav
Pre-gap length 0:00:00.03
Peak level 89.5 %
Extraction speed 3.2 X
Track quality 100.0 %
Test CRC 2CAFEC98
Copy CRC 2CAFEC98
Accurately ripped (confidence 3) [BA3B1EDD]
Copy OK
Track 14
Filename C:\Users\Рома\Desktop\CD 2\14. Simon Rattle – The Rite Of Spring, 'Le Sacre Du Printemps' (1947 Revised Version), Part 2- Le Sacrifice- Introduction.wav
Pre-gap length 0:00:06.08
Peak level 23.9 %
Extraction speed 3.3 X
Track quality 99.9 %
Test CRC B2890CBA
Copy CRC B2890CBA
Accurately ripped (confidence 3) [8825C472]
Copy OK
Track 15
Filename C:\Users\Рома\Desktop\CD 2\15. Simon Rattle – The Rite Of Spring, 'Le Sacre Du Printemps' (1947 Revised Version), Part 2- Le Sacrifice- Cercles Mystérieux Des Adolescentes.wav
Pre-gap length 0:00:00.02
Peak level 55.7 %
Extraction speed 4.0 X
Track quality 100.0 %
Test CRC 5D7E1532
Copy CRC 5D7E1532
Accurately ripped (confidence 3) [C0D685E1]
Copy OK
Track 16
Filename C:\Users\Рома\Desktop\CD 2\16. Simon Rattle – The Rite Of Spring, 'Le Sacre Du Printemps' (1947 Revised Version), Part 2- Le Sacrifice- Glorification De L'Élue - Évocation D.wav
Pre-gap length 0:00:00.03
Peak level 97.0 %
Extraction speed 3.8 X
Track quality 99.9 %
Test CRC D8018BED
Copy CRC D8018BED
Accurately ripped (confidence 3) [0E570385]
Copy OK
Track 17
Filename C:\Users\Рома\Desktop\CD 2\17. Simon Rattle – The Rite Of Spring, 'Le Sacre Du Printemps' (1947 Revised Version), Part 2- Le Sacrifice- Danse Sacrale (L'Élue).wav
Pre-gap length 0:00:00.03
Peak level 96.5 %
Extraction speed 4.6 X
Track quality 100.0 %
Test CRC 22711C2B
Copy CRC 22711C2B
Accurately ripped (confidence 3) [A250C046]
Copy OK
All tracks accurately ripped
No errors occurred
End of status report
CD3
EAC extraction logfile from 31. December 2010, 0:27 for CD
Simon Rattle / Igor Strawinsky - CD 3
Used drive : TSSTcorpCDDVDW TS-L633A Adapter: 0 ID: 1
Read mode : Secure with NO C2, accurate stream, disable cache
Read offset correction : 6
Overread into Lead-In and Lead-Out : No
Used output format : C:\Program Files\Exact Audio Copy\Flac\flac.exe (User Defined Encoder)
128 kBit/s
Additional command line options : -8 -V -T "ARTIST=%a" -T "TITLE=%t" -T "ALBUM=%g" -T "DATE=%y" -T "TRACKNUMBER=%n" -T "GENRE=%m" -T "COMMENT=EAC FLAC -8" %s
Other options :
Fill up missing offset samples with silence : Yes
Delete leading and trailing silent blocks : No
Native Win32 interface for Win NT & 2000
Track 1
Filename C:\Users\Рома\Desktop\CD3\01. Simon Rattle – Petrushka - 1. Tableau - Fкte populaire de la semaine grasse.wav
Pre-gap length 0:00:02.00
Peak level 100.0 %
Track quality 100.0 %
Test CRC 9B237C8C
Copy CRC 9B237C8C
Copy OK
Track 2
Filename C:\Users\Рома\Desktop\CD3\02. Simon Rattle – Petrushka - 1. Tableau - Le tour de passe-passe - Danse russe.wav
Pre-gap length 0:00:00.02
Peak level 98.8 %
Track quality 100.0 %
Test CRC EC203C02
Copy CRC EC203C02
Copy OK
Track 3
Filename C:\Users\Рома\Desktop\CD3\03. Simon Rattle – Petrushka - 2. Tableau - Chez Petrushka.wav
Pre-gap length 0:00:00.03
Peak level 99.8 %
Track quality 100.0 %
Test CRC FA6175CD
Copy CRC FA6175CD
Copy OK
Track 4
Filename C:\Users\Рома\Desktop\CD3\04. Simon Rattle – Petrushka - 3. Tableau - Chez le maure - Danse de la ballerine.wav
Pre-gap length 0:00:00.02
Peak level 97.7 %
Track quality 99.9 %
Test CRC EEEDB72D
Copy CRC EEEDB72D
Copy OK
Track 5
Filename C:\Users\Рома\Desktop\CD3\05. Simon Rattle – Petrushka - 3. Tableau - Valse - La ballerine et le maure.wav
Pre-gap length 0:00:00.03
Peak level 97.7 %
Track quality 100.0 %
Test CRC B158805C
Copy CRC B158805C
Copy OK
Track 6
Filename C:\Users\Рома\Desktop\CD3\06. Simon Rattle – Petrushka - 4. Tableau - Fкte populaire de la semaine grasse.wav
Pre-gap length 0:00:00.02
Peak level 74.2 %
Track quality 100.0 %
Test CRC 7642B803
Copy CRC 7642B803
Copy OK
Track 7
Filename C:\Users\Рома\Desktop\CD3\07. Simon Rattle – Petrushka - 4. Tableau - Danse de nounous.wav
Pre-gap length 0:00:00.02
Peak level 69.2 %
Track quality 100.0 %
Test CRC 5A5A723A
Copy CRC 5A5A723A
Copy OK
Track 8
Filename C:\Users\Рома\Desktop\CD3\08. Simon Rattle – Petrushka - 4. Tableau - Paysan et l'ours.wav
Pre-gap length 0:00:00.03
Peak level 69.8 %
Track quality 99.8 %
Test CRC 5E8FF147
Copy CRC 5E8FF147
Copy OK
Track 9
Filename C:\Users\Рома\Desktop\CD3\09. Simon Rattle – Petrushka - 4. Tableau - Bohйmien et marchand malhonnкte.wav
Pre-gap length 0:00:00.03
Peak level 69.1 %
Track quality 99.8 %
Test CRC 523BF423
Copy CRC 523BF423
Copy OK
Track 10
Filename C:\Users\Рома\Desktop\CD3\10. Simon Rattle – Petrushka - 4. Tableau - Danse des cochers et des palefreniers.wav
Pre-gap length 0:00:00.03
Peak level 95.6 %
Track quality 99.9 %
Test CRC 41623F54
Copy CRC 41623F54
Copy OK
Track 11
Filename C:\Users\Рома\Desktop\CD3\11. Simon Rattle – Petrushka - 4. Tableau - Les dйguisйs.wav
Pre-gap length 0:00:00.03
Peak level 83.6 %
Track quality 99.8 %
Test CRC 2F06627D
Copy CRC 2F06627D
Copy OK
Track 12
Filename C:\Users\Рома\Desktop\CD3\12. Simon Rattle – Petrushka - 4. Tableau - Le rixe - Le maure et Petrushka.wav
Pre-gap length 0:00:00.03
Peak level 34.1 %
Track quality 100.0 %
Test CRC BAE307D3
Copy CRC BAE307D3
Copy OK
Track 13
Filename C:\Users\Рома\Desktop\CD3\13. Simon Rattle – Petrushka - 4. Tableau - Mort de Petrushka.wav
Pre-gap length 0:00:00.02
Peak level 4.0 %
Track quality 100.0 %
Test CRC 3204CEFE
Copy CRC 3204CEFE
Copy OK
Track 14
Filename C:\Users\Рома\Desktop\CD3\14. Simon Rattle – Petrushka - 4. Tableau - Police et l'enchanteur - Vocifйration du double de Petrushka.wav
Pre-gap length 0:00:00.02
Peak level 19.2 %
Track quality 100.0 %
Test CRC 431396C3
Copy CRC 431396C3
Copy OK
Track 15
Filename C:\Users\Рома\Desktop\CD3\15. Simon Rattle – Symphony in three movements - 1. Viertel - 160.wav
Pre-gap length 0:00:10.40
Peak level 97.1 %
Track quality 100.0 %
Test CRC BA0909FC
Copy CRC BA0909FC
Copy OK
Track 16
Filename C:\Users\Рома\Desktop\CD3\16. Simon Rattle – Symphony in three movements - 2. Andante (Achtel - 76) - Interlude (L'istesso tempo).wav
Pre-gap length 0:00:00.03
Peak level 11.6 %
Track quality 100.0 %
Test CRC 2164E572
Copy CRC 2164E572
Copy OK
Track 17
Filename C:\Users\Рома\Desktop\CD3\17. Simon Rattle – Symphony in three movements - 3. Con moto (Viertel - 180).wav
Pre-gap length 0:00:00.03
Peak level 97.7 %
Track quality 100.0 %
Test CRC 9CBE2EA6
Copy CRC 9CBE2EA6
Copy OK
Track 18
Filename C:\Users\Рома\Desktop\CD3\18. Simon Rattle – Symphonies of wind instruments (Berliner Philharmoniker).wav
Pre-gap length 0:00:10.35
Peak level 73.5 %
Track quality 100.0 %
Test CRC 7B0438A1
Copy CRC 7B0438A1
Copy OK
No errors occured
End of status report
CD4
EAC extraction logfile from 31. December 2010, 0:22 for CD
Simon Rattle-City of Birmingham Symphony Orchestra / Igor Strawinsky - CD 4
Used drive : HL-DT-STDVDRAM GSA-T50N Adapter: 0 ID: 1
Read mode : Secure with NO C2, accurate stream, disable cache
Read offset correction : 667
Overread into Lead-In and Lead-Out : No
Used output format : C:\Program Files\Exact Audio Copy\Flac\flac.exe (User Defined Encoder)
320 kBit/s
Additional command line options : -8 -V -T "ARTIST=%a" -T "TITLE=%t" -T "ALBUM=%g" -T "DATE=%y" -T "TRACKNUMBER=%n" -T "GENRE=%m" -T "COMMENT=EAC FLAC -8" %s
Other options :
Fill up missing offset samples with silence : Yes
Delete leading and trailing silent blocks : No
Native Win32 interface for Win NT & 2000
Track 1
Filename C:\Users\Никита\Music\Simon Rattle - Stravinsky\CD 4\01. Simon Rattle-City of Birmingham Symphony Orchestra – Pulcinella - Ouverture (Northern Sinfonia Orchestra).wav
Pre-gap length 0:00:02.00
Peak level 47.4 %
Track quality 99.9 %
Test CRC BB5A17C2
Copy CRC BB5A17C2
Copy OK
Track 2
Filename C:\Users\Никита\Music\Simon Rattle - Stravinsky\CD 4\02. Simon Rattle-City of Birmingham Symphony Orchestra – Pulcinella - Mentre l'erbetta pasce l'agnella (tenor) (Northern Sinfonia Orchestra).wav
Peak level 86.8 %
Track quality 100.0 %
Test CRC AF285A29
Copy CRC AF285A29
Copy OK
Track 3
Filename C:\Users\Никита\Music\Simon Rattle - Stravinsky\CD 4\03. Simon Rattle-City of Birmingham Symphony Orchestra – Pulcinella - Contento forse vivere (soprano) (Northern Sinfonia Orchestra).wav
Peak level 86.1 %
Track quality 100.0 %
Test CRC 11694087
Copy CRC 11694087
Copy OK
Track 4
Filename C:\Users\Никита\Music\Simon Rattle - Stravinsky\CD 4\04. Simon Rattle-City of Birmingham Symphony Orchestra – Pulcinella - Con queste paroline (bass) (Northern Sinfonia Orchestra).wav
Peak level 68.2 %
Track quality 100.0 %
Test CRC F682F9FF
Copy CRC F682F9FF
Copy OK
Track 5
Filename C:\Users\Никита\Music\Simon Rattle - Stravinsky\CD 4\05. Simon Rattle-City of Birmingham Symphony Orchestra – Pulcinella - Sento dire no'nce pace (trio) (Northern Sinfonia Orchestra).wav
Peak level 79.8 %
Track quality 100.0 %
Test CRC 395276F3
Copy CRC 395276F3
Copy OK
Track 6
Filename C:\Users\Никита\Music\Simon Rattle - Stravinsky\CD 4\06. Simon Rattle-City of Birmingham Symphony Orchestra – Pulcinella - Una te falan zemprece (tenor) (Northern Sinfonia Orchestra).wav
Peak level 96.6 %
Track quality 100.0 %
Test CRC 47A877A0
Copy CRC 47A877A0
Copy OK
Track 7
Filename C:\Users\Никита\Music\Simon Rattle - Stravinsky\CD 4\07. Simon Rattle-City of Birmingham Symphony Orchestra – Pulcinella - Se tu m'ami (soprano) (Northern Sinfonia Orchestra).wav
Peak level 82.0 %
Track quality 100.0 %
Test CRC BF17BBBC
Copy CRC BF17BBBC
Copy OK
Track 8
Filename C:\Users\Никита\Music\Simon Rattle - Stravinsky\CD 4\08. Simon Rattle-City of Birmingham Symphony Orchestra – Pulcinella - Gavotta (Northern Sinfonia Orchestra).wav
Peak level 31.0 %
Track quality 100.0 %
Test CRC C7578220
Copy CRC C7578220
Copy OK
Track 9
Filename C:\Users\Никита\Music\Simon Rattle - Stravinsky\CD 4\09. Simon Rattle-City of Birmingham Symphony Orchestra – Pulcinella - Variation 1 (Northern Sinfonia Orchestra).wav
Peak level 23.1 %
Track quality 100.0 %
Test CRC A9A27467
Copy CRC A9A27467
Copy OK
Track 10
Filename C:\Users\Никита\Music\Simon Rattle - Stravinsky\CD 4\10. Simon Rattle-City of Birmingham Symphony Orchestra – Pulcinella - Variation 2 (Northern Sinfonia Orchestra).wav
Peak level 63.1 %
Track quality 99.9 %
Test CRC 91960286
Copy CRC 91960286
Copy OK
Track 11
Filename C:\Users\Никита\Music\Simon Rattle - Stravinsky\CD 4\11. Simon Rattle-City of Birmingham Symphony Orchestra – Pulcinella - Pupillette fiammette (trio) (Northern Sinfonia Orchestra).wav
Peak level 98.8 %
Track quality 100.0 %
Test CRC 38980BF5
Copy CRC 38980BF5
Copy OK
Track 12
Filename C:\Users\Никита\Music\Simon Rattle - Stravinsky\CD 4\12. Simon Rattle-City of Birmingham Symphony Orchestra – Suite No. 1 - 1. Andante (Northern Sinfonia Orchestra).wav
Pre-gap length 0:00:09.32
Peak level 12.4 %
Track quality 100.0 %
Test CRC 5CAD09CD
Copy CRC 5CAD09CD
Copy OK
Track 13
Filename C:\Users\Никита\Music\Simon Rattle - Stravinsky\CD 4\13. Simon Rattle-City of Birmingham Symphony Orchestra – Suite No. 1 - 2. Napolitana (Northern Sinfonia Orchestra).wav
Peak level 55.4 %
Track quality 100.0 %
Test CRC 4F4215D0
Copy CRC 4F4215D0
Copy OK
Track 14
Filename C:\Users\Никита\Music\Simon Rattle - Stravinsky\CD 4\14. Simon Rattle-City of Birmingham Symphony Orchestra – Suite No. 1 - 3. Espanola (Northern Sinfonia Orchestra).wav
Peak level 43.1 %
Track quality 99.8 %
Test CRC A819E3E9
Copy CRC A819E3E9
Copy OK
Track 15
Filename C:\Users\Никита\Music\Simon Rattle - Stravinsky\CD 4\15. Simon Rattle-City of Birmingham Symphony Orchestra – Suite No. 1 - 4. Balalaika (Northern Sinfonia Orchestra).wav
Peak level 84.9 %
Track quality 99.8 %
Test CRC 7F62314D
Copy CRC 7F62314D
Copy OK
Track 16
Filename C:\Users\Никита\Music\Simon Rattle - Stravinsky\CD 4\16. Simon Rattle-City of Birmingham Symphony Orchestra – Suite No. 2 - 1. Marche (Northern Sinfonia Orchestra).wav
Pre-gap length 0:00:06.36
Peak level 71.9 %
Track quality 99.8 %
Test CRC 0C77936D
Copy CRC 0C77936D
Copy OK
Track 17
Filename C:\Users\Никита\Music\Simon Rattle - Stravinsky\CD 4\17. Simon Rattle-City of Birmingham Symphony Orchestra – Suite No. 2 - 2. Valse (Northern Sinfonia Orchestra).wav
Peak level 11.6 %
Track quality 100.0 %
Test CRC 35B796CF
Copy CRC 35B796CF
Copy OK
Track 18
Filename C:\Users\Никита\Music\Simon Rattle - Stravinsky\CD 4\18. Simon Rattle-City of Birmingham Symphony Orchestra – Suite No. 2 - 3. Polka (Northern Sinfonia Orchestra).wav
Peak level 44.8 %
Track quality 100.0 %
Test CRC 22612F36
Copy CRC 22612F36
Copy OK
Track 19
Filename C:\Users\Никита\Music\Simon Rattle - Stravinsky\CD 4\19. Simon Rattle-City of Birmingham Symphony Orchestra – Suite No. 2 - 4. Galop (Northern Sinfonia Orchestra).wav
Peak level 97.7 %
Track quality 100.0 %
Test CRC 8D2E05A4
Copy CRC 8D2E05A4
Copy OK
Track 20
Filename C:\Users\Никита\Music\Simon Rattle - Stravinsky\CD 4\20. Simon Rattle-City of Birmingham Symphony Orchestra – Ragtime.wav
Pre-gap length 0:00:09.62
Peak level 62.4 %
Track quality 100.0 %
Test CRC 5A50B980
Copy CRC 5A50B980
Copy OK
Track 21
Filename C:\Users\Никита\Music\Simon Rattle - Stravinsky\CD 4\21. Simon Rattle-City of Birmingham Symphony Orchestra – Ebony Concerto - 1. Allegro moderato (London Sinfonietta).wav
Pre-gap length 0:00:09.30
Peak level 49.6 %
Track quality 100.0 %
Test CRC 7BCFD4AD
Copy CRC 7BCFD4AD
Copy OK
Track 22
Filename C:\Users\Никита\Music\Simon Rattle - Stravinsky\CD 4\22. Simon Rattle-City of Birmingham Symphony Orchestra – Ebony Concerto - 2. Andante (London Sinfonietta).wav
Pre-gap length 0:00:02.53
Peak level 27.7 %
Track quality 99.9 %
Test CRC A93AF614
Copy CRC A93AF614
Copy OK
Track 23
Filename C:\Users\Никита\Music\Simon Rattle - Stravinsky\CD 4\23. Simon Rattle-City of Birmingham Symphony Orchestra – Ebony Concerto - 3. Moderato (London Sinfonietta).wav
Pre-gap length 0:00:02.53
Peak level 68.3 %
Track quality 100.0 %
Test CRC 831CA858
Copy CRC 831CA858
Copy OK
Track 24
Filename C:\Users\Никита\Music\Simon Rattle - Stravinsky\CD 4\24. Simon Rattle-City of Birmingham Symphony Orchestra – Agon (excerpts) - Gaillarde.wav
Pre-gap length 0:00:06.31
Peak level 23.1 %
Track quality 100.0 %
Test CRC 285C26D7
Copy CRC 285C26D7
Copy OK
Track 25
Filename C:\Users\Никита\Music\Simon Rattle - Stravinsky\CD 4\25. Simon Rattle-City of Birmingham Symphony Orchestra – Agon (excerpts) - Coda.wav
Peak level 35.4 %
Track quality 100.0 %
Test CRC 4D328FAA
Copy CRC 4D328FAA
Copy OK
Track 26
Filename C:\Users\Никита\Music\Simon Rattle - Stravinsky\CD 4\26. Simon Rattle-City of Birmingham Symphony Orchestra – Agon (excerpts) - Interlude.wav
Peak level 78.3 %
Track quality 100.0 %
Test CRC 9D373F80
Copy CRC 9D373F80
Copy OK
Track 27
Filename C:\Users\Никита\Music\Simon Rattle - Stravinsky\CD 4\27. Simon Rattle-City of Birmingham Symphony Orchestra – Agon (excerpts) - Four Duos.wav
Peak level 18.4 %
Track quality 100.0 %
Test CRC DDBFE1E0
Copy CRC DDBFE1E0
Copy OK
Track 28
Filename C:\Users\Никита\Music\Simon Rattle - Stravinsky\CD 4\28. Simon Rattle-City of Birmingham Symphony Orchestra – Agon (excerpts) - Four Trios.wav
Peak level 61.2 %
Track quality 99.9 %
Test CRC 146BBD5C
Copy CRC 146BBD5C
Copy OK
No errors occured
End of status report
Содержание индексной карты (.CUE)

StravinskyCD1
REM GENRE Classical
REM DATE 2009
REM DISCID D211700E
REM COMMENT "ExactAudioCopy v0.95b3"
PERFORMER "Simon Rattle"
TITLE "Stravinsky"
FILE "01. Simon Rattle – The Firebird - Introduction.wav" WAVE
TRACK 01 AUDIO
TITLE "The Firebird - Introduction"
PERFORMER "Simon Rattle"
PREGAP 00:00:33
INDEX 01 00:00:00
TRACK 02 AUDIO
TITLE "The Firebird - Tableau I - Dance of the Firebird"
PERFORMER "Simon Rattle"
INDEX 00 06:21:45
FILE "02. Simon Rattle – The Firebird - Tableau I - Dance of the Firebird.wav" WAVE
INDEX 01 00:00:00
TRACK 03 AUDIO
TITLE "The Firebird - Tableau I - The princesses' game with the golden apples"
PERFORMER "Simon Rattle"
INDEX 00 11:09:48
FILE "03. Simon Rattle – The Firebird - Tableau I - The princesses' game with the golden apples.wav" WAVE
INDEX 01 00:00:00
TRACK 04 AUDIO
TITLE "The Firebird - Tableau I - Sudden appearance of Ivan Tsarevich"
PERFORMER "Simon Rattle"
INDEX 00 02:40:43
FILE "04. Simon Rattle – The Firebird - Tableau I - Sudden appearance of Ivan Tsarevich.wav" WAVE
INDEX 01 00:00:00
TRACK 05 AUDIO
TITLE "The Firebird - Tableau I - Danceof Kaschei's retinue under Firebird's spell"
PERFORMER "Simon Rattle"
INDEX 00 12:52:43
FILE "05. Simon Rattle – The Firebird - Tableau I - Danceof Kaschei's retinue under Firebird's spell.wav" WAVE
INDEX 01 00:00:00
TRACK 06 AUDIO
TITLE "The Firebird - Tableau I - Lullaby (Firebird)"
PERFORMER "Simon Rattle"
INDEX 00 05:23:23
FILE "06. Simon Rattle – The Firebird - Tableau I - Lullaby (Firebird).wav" WAVE
INDEX 01 00:00:00
TRACK 07 AUDIO
TITLE "The Firebird - Tableau II - Disappearance of the palace and dissolution of Ka..."
PERFORMER "Simon Rattle"
INDEX 00 05:45:00
FILE "07. Simon Rattle – The Firebird - Tableau II - Disappearance of the palace and dissolution of Kaschei's enchantments.wav" WAVE
INDEX 01 00:00:00
TRACK 08 AUDIO
TITLE "Scherzo a la russe (for jazz band)"
PERFORMER "Simon Rattle"
INDEX 00 03:12:30
FILE "08. Simon Rattle – Scherzo a la russe (for jazz band).wav" WAVE
INDEX 01 00:00:00
TRACK 09 AUDIO
TITLE "Four Studies - Danse"
PERFORMER "Simon Rattle"
INDEX 00 03:51:55
FILE "09. Simon Rattle – Four Studies - Danse.wav" WAVE
INDEX 01 00:00:00
TRACK 10 AUDIO
TITLE "Four Studies - Excentrique"
PERFORMER "Simon Rattle"
INDEX 00 00:58:07
FILE "10. Simon Rattle – Four Studies - Excentrique.wav" WAVE
INDEX 01 00:00:00
TRACK 11 AUDIO
TITLE "Four Studies - Cantique"
PERFORMER "Simon Rattle"
INDEX 00 02:05:55
FILE "11. Simon Rattle – Four Studies - Cantique.wav" WAVE
INDEX 01 00:00:00
TRACK 12 AUDIO
TITLE "Four Studies - Madrid"
PERFORMER "Simon Rattle"
INDEX 00 03:59:15
FILE "12. Simon Rattle – Four Studies - Madrid.wav" WAVE
INDEX 01 00:00:00
TRACK 13 AUDIO
TITLE "Scherzo a la russe (orchestral version)"
PERFORMER "Simon Rattle"
INDEX 00 02:33:57
FILE "13. Simon Rattle – Scherzo a la russe (orchestral version).wav" WAVE
INDEX 01 00:00:00
StravinskyCD2
REM GENRE Classical
REM DATE 2009
REM DISCID F90F4611
REM COMMENT "ExactAudioCopy v1.0b1"
CATALOG 5099924275729
PERFORMER "Simon Rattle"
TITLE "Igor Strawinsky - CD 2"
FILE "01. Simon Rattle – Apollo - Ballet en deux tableaux (1947 revised version), Premier tableau (prologue)- Naissance d'Apollon.wav" WAVE
TRACK 01 AUDIO
TITLE "Apollo - Ballet en deux tableaux (1947 revised version), Premier tableau (pro..."
PERFORMER "Simon Rattle"
ISRC GAQ5C8800804
PREGAP 00:00:32
INDEX 01 00:00:00
TRACK 02 AUDIO
TITLE "Apollo - Ballet en deux tableaux (1947 revised version), Deuxieme tableaux: V..."
PERFORMER "Simon Rattle"
ISRC GAQ5C8800806
INDEX 00 05:13:68
FILE "02. Simon Rattle – Apollo - Ballet en deux tableaux (1947 revised version), Deuxieme tableaux- Variation d'Apollon (Apollon et les Muses).wav" WAVE
INDEX 01 00:00:00
TRACK 03 AUDIO
TITLE "Apollo - Ballet en deux tableaux (1947 revised version), Deuxieme tableaux: P..."
PERFORMER "Simon Rattle"
ISRC GAQ5C8800807
INDEX 00 02:59:00
FILE "03. Simon Rattle – Apollo - Ballet en deux tableaux (1947 revised version), Deuxieme tableaux- Pas d'action (Apollon et les trois Muses- Calliope,.wav" WAVE
INDEX 01 00:00:00
TRACK 04 AUDIO
TITLE "Apollo - Ballet en deux tableaux (1947 revised version), Deuxieme tableaux: V..."
PERFORMER "Simon Rattle"
ISRC GAQ5C8800808
INDEX 00 04:15:12
FILE "04. Simon Rattle – Apollo - Ballet en deux tableaux (1947 revised version), Deuxieme tableaux- Variation de Calliope (l'Alexandrin).wav" WAVE
INDEX 01 00:00:00
TRACK 05 AUDIO
TITLE "Apollo - Ballet en deux tableaux (1947 revised version), Deuxieme tableaux: V..."
PERFORMER "Simon Rattle"
ISRC GAQ5C8800809
INDEX 00 01:25:22
FILE "05. Simon Rattle – Apollo - Ballet en deux tableaux (1947 revised version), Deuxieme tableaux- Variation de Polymnie.wav" WAVE
INDEX 01 00:00:00
TRACK 06 AUDIO
TITLE "Apollo - Ballet en deux tableaux (1947 revised version), Deuxieme tableaux: V..."
PERFORMER "Simon Rattle"
ISRC GAQ5C8800810
INDEX 00 01:12:27
FILE "06. Simon Rattle – Apollo - Ballet en deux tableaux (1947 revised version), Deuxieme tableaux- Variation de Terpsichore.wav" WAVE
INDEX 01 00:00:00
TRACK 07 AUDIO
TITLE "Apollo - Ballet en deux tableaux (1947 revised version), Deuxieme tableaux: V..."
PERFORMER "Simon Rattle"
ISRC GAQ5C8800811
INDEX 00 01:39:02
FILE "07. Simon Rattle – Apollo - Ballet en deux tableaux (1947 revised version), Deuxieme tableaux- Variation d'Apollon.wav" WAVE
INDEX 01 00:00:00
TRACK 08 AUDIO
TITLE "Apollo - Ballet en deux tableaux (1947 revised version), Deuxieme tableaux: P..."
PERFORMER "Simon Rattle"
ISRC GAQ5C8800812
INDEX 00 02:34:73
FILE "08. Simon Rattle – Apollo - Ballet en deux tableaux (1947 revised version), Deuxieme tableaux- Pas de deux (Apollon et Terpsichore).wav" WAVE
INDEX 01 00:00:00
TRACK 09 AUDIO
TITLE "Apollo - Ballet en deux tableaux (1947 revised version), Deuxieme tableaux: C..."
PERFORMER "Simon Rattle"
ISRC GAQ5C8800813
INDEX 00 03:50:52
FILE "09. Simon Rattle – Apollo - Ballet en deux tableaux (1947 revised version), Deuxieme tableaux- Coda (Apollon et les Muses).wav" WAVE
INDEX 01 00:00:00
TRACK 10 AUDIO
TITLE "Apollo - Ballet en deux tableaux (1947 revised version), Deuxieme tableaux: A..."
PERFORMER "Simon Rattle"
ISRC GAQ5C8800814
INDEX 00 03:25:45
FILE "10. Simon Rattle – Apollo - Ballet en deux tableaux (1947 revised version), Deuxieme tableaux- Apotheose.wav" WAVE
INDEX 01 00:00:00
TRACK 11 AUDIO
TITLE "The Rite Of Spring, 'Le Sacre Du Printemps' (1947 Revised Version), Part 1: L..."
PERFORMER "Simon Rattle"
ISRC GAQ5C8700662
INDEX 00 03:30:10
FILE "11. Simon Rattle – The Rite Of Spring, 'Le Sacre Du Printemps' (1947 Revised Version), Part 1- L'Adoration De La Terre- Introduction - Les Augures.wav" WAVE
INDEX 01 00:00:00
TRACK 12 AUDIO
TITLE "The Rite Of Spring, 'Le Sacre Du Printemps' (1947 Revised Version), Part 1: L..."
PERFORMER "Simon Rattle"
ISRC GAQ5C8700663
INDEX 00 08:01:00
FILE "12. Simon Rattle – The Rite Of Spring, 'Le Sacre Du Printemps' (1947 Revised Version), Part 1- L'Adoration De La Terre- Rond Printanieres - Jeux D.wav" WAVE
INDEX 01 00:00:00
TRACK 13 AUDIO
TITLE "The Rite Of Spring, 'Le Sacre Du Printemps' (1947 Revised Version), Part 1: L..."
PERFORMER "Simon Rattle"
ISRC GAQ5C8700663
INDEX 00 06:16:12
FILE "13. Simon Rattle – The Rite Of Spring, 'Le Sacre Du Printemps' (1947 Revised Version), Part 1- L'Adoration De La Terre- Le Sage - Danse De La Terr.wav" WAVE
INDEX 01 00:00:00
TRACK 14 AUDIO
TITLE "The Rite Of Spring, 'Le Sacre Du Printemps' (1947 Revised Version), Part 2: L..."
PERFORMER "Simon Rattle"
ISRC GAQ5C8700666
INDEX 00 01:33:22
FILE "14. Simon Rattle – The Rite Of Spring, 'Le Sacre Du Printemps' (1947 Revised Version), Part 2- Le Sacrifice- Introduction.wav" WAVE
INDEX 01 00:00:00
TRACK 15 AUDIO
TITLE "The Rite Of Spring, 'Le Sacre Du Printemps' (1947 Revised Version), Part 2: L..."
PERFORMER "Simon Rattle"
ISRC GAQ5C8700667
INDEX 00 04:26:20
FILE "15. Simon Rattle – The Rite Of Spring, 'Le Sacre Du Printemps' (1947 Revised Version), Part 2- Le Sacrifice- Cercles Mysterieux Des Adolescentes.wav" WAVE
INDEX 01 00:00:00
TRACK 16 AUDIO
TITLE "The Rite Of Spring, 'Le Sacre Du Printemps' (1947 Revised Version), Part 2: L..."
PERFORMER "Simon Rattle"
ISRC GAQ5C8700668
INDEX 00 03:27:00
FILE "16. Simon Rattle – The Rite Of Spring, 'Le Sacre Du Printemps' (1947 Revised Version), Part 2- Le Sacrifice- Glorification De L'Elue - Evocation D.wav" WAVE
INDEX 01 00:00:00
TRACK 17 AUDIO
TITLE "The Rite Of Spring, 'Le Sacre Du Printemps' (1947 Revised Version), Part 2: L..."
PERFORMER "Simon Rattle"
ISRC GAQ5C8700668
INDEX 00 06:02:67
FILE "17. Simon Rattle – The Rite Of Spring, 'Le Sacre Du Printemps' (1947 Revised Version), Part 2- Le Sacrifice- Danse Sacrale (L'Elue).wav" WAVE
INDEX 01 00:00:00
StravinskyCD3
REM GENRE Classical
REM DATE 2009
REM DISCID 0C0FA312
REM COMMENT "ExactAudioCopy v0.95b3"
PERFORMER "Simon Rattle"
TITLE "Igor Strawinsky - CD 3"
FILE "01. Simon Rattle – Petrushka - 1. Tableau - Fкte populaire de la semaine grasse.wav" WAVE
TRACK 01 AUDIO
TITLE "Petrushka - 1. Tableau - Fкte populaire de la semaine grasse"
PERFORMER "Simon Rattle"
INDEX 01 00:00:00
TRACK 02 AUDIO
TITLE "Petrushka - 1. Tableau - Le tour de passe-passe - Danse russe"
PERFORMER "Simon Rattle"
INDEX 00 07:19:63
FILE "02. Simon Rattle – Petrushka - 1. Tableau - Le tour de passe-passe - Danse russe.wav" WAVE
INDEX 01 00:00:00
TRACK 03 AUDIO
TITLE "Petrushka - 2. Tableau - Chez Petrushka"
PERFORMER "Simon Rattle"
INDEX 00 02:35:10
FILE "03. Simon Rattle – Petrushka - 2. Tableau - Chez Petrushka.wav" WAVE
INDEX 01 00:00:00
TRACK 04 AUDIO
TITLE "Petrushka - 3. Tableau - Chez le maure - Danse de la ballerine"
PERFORMER "Simon Rattle"
INDEX 00 04:35:50
FILE "04. Simon Rattle – Petrushka - 3. Tableau - Chez le maure - Danse de la ballerine.wav" WAVE
INDEX 01 00:00:00
TRACK 05 AUDIO
TITLE "Petrushka - 3. Tableau - Valse - La ballerine et le maure"
PERFORMER "Simon Rattle"
INDEX 00 03:36:10
FILE "05. Simon Rattle – Petrushka - 3. Tableau - Valse - La ballerine et le maure.wav" WAVE
INDEX 01 00:00:00
TRACK 06 AUDIO
TITLE "Petrushka - 4. Tableau - Fкte populaire de la semaine grasse"
PERFORMER "Simon Rattle"
INDEX 00 03:12:70
FILE "06. Simon Rattle – Petrushka - 4. Tableau - Fкte populaire de la semaine grasse.wav" WAVE
INDEX 01 00:00:00
TRACK 07 AUDIO
TITLE "Petrushka - 4. Tableau - Danse de nounous"
PERFORMER "Simon Rattle"
INDEX 00 01:11:38
FILE "07. Simon Rattle – Petrushka - 4. Tableau - Danse de nounous.wav" WAVE
INDEX 01 00:00:00
TRACK 08 AUDIO
TITLE "Petrushka - 4. Tableau - Paysan et l'ours"
PERFORMER "Simon Rattle"
INDEX 00 02:40:40
FILE "08. Simon Rattle – Petrushka - 4. Tableau - Paysan et l'ours.wav" WAVE
INDEX 01 00:00:00
TRACK 09 AUDIO
TITLE "Petrushka - 4. Tableau - Bohйmien et marchand malhonnкte"
PERFORMER "Simon Rattle"
INDEX 00 01:17:22
FILE "09. Simon Rattle – Petrushka - 4. Tableau - Bohйmien et marchand malhonnкte.wav" WAVE
INDEX 01 00:00:00
TRACK 10 AUDIO
TITLE "Petrushka - 4. Tableau - Danse des cochers et des palefreniers"
PERFORMER "Simon Rattle"
INDEX 00 01:05:27
FILE "10. Simon Rattle – Petrushka - 4. Tableau - Danse des cochers et des palefreniers.wav" WAVE
INDEX 01 00:00:00
TRACK 11 AUDIO
TITLE "Petrushka - 4. Tableau - Les dйguisйs"
PERFORMER "Simon Rattle"
INDEX 00 02:06:57
FILE "11. Simon Rattle – Petrushka - 4. Tableau - Les dйguisйs.wav" WAVE
INDEX 01 00:00:00
TRACK 12 AUDIO
TITLE "Petrushka - 4. Tableau - Le rixe - Le maure et Petrushka"
PERFORMER "Simon Rattle"
INDEX 00 01:33:42
FILE "12. Simon Rattle – Petrushka - 4. Tableau - Le rixe - Le maure et Petrushka.wav" WAVE
INDEX 01 00:00:00
TRACK 13 AUDIO
TITLE "Petrushka - 4. Tableau - Mort de Petrushka"
PERFORMER "Simon Rattle"
INDEX 00 00:48:00
FILE "13. Simon Rattle – Petrushka - 4. Tableau - Mort de Petrushka.wav" WAVE
INDEX 01 00:00:00
TRACK 14 AUDIO
TITLE "Petrushka - 4. Tableau - Police et l'enchanteur - Vocifйration du double de P..."
PERFORMER "Simon Rattle"
INDEX 00 00:55:28
FILE "14. Simon Rattle – Petrushka - 4. Tableau - Police et l'enchanteur - Vocifйration du double de Petrushka.wav" WAVE
INDEX 01 00:00:00
TRACK 15 AUDIO
TITLE "Symphony in three movements - 1. Viertel - 160"
PERFORMER "Simon Rattle"
INDEX 00 02:05:73
FILE "15. Simon Rattle – Symphony in three movements - 1. Viertel - 160.wav" WAVE
INDEX 01 00:00:00
TRACK 16 AUDIO
TITLE "Symphony in three movements - 2. Andante (Achtel - 76) - Interlude (L'istesso..."
PERFORMER "Simon Rattle"
INDEX 00 09:39:02
FILE "16. Simon Rattle – Symphony in three movements - 2. Andante (Achtel - 76) - Interlude (L'istesso tempo).wav" WAVE
INDEX 01 00:00:00
TRACK 17 AUDIO
TITLE "Symphony in three movements - 3. Con moto (Viertel - 180)"
PERFORMER "Simon Rattle"
INDEX 00 05:44:02
FILE "17. Simon Rattle – Symphony in three movements - 3. Con moto (Viertel - 180).wav" WAVE
INDEX 01 00:00:00
TRACK 18 AUDIO
TITLE "Symphonies of wind instruments (Berliner Philharmoniker)"
PERFORMER "Simon Rattle"
INDEX 00 06:06:47
FILE "18. Simon Rattle – Symphonies of wind instruments (Berliner Philharmoniker).wav" WAVE
INDEX 01 00:00:00
StravinskyCD4
REM GENRE Classical
REM DATE 2009
REM DISCID BA10961C
REM COMMENT "ExactAudioCopy v0.95b3"
PERFORMER "Simon Rattle-City of Birmingham Symphony Orchestra"
TITLE "Igor Strawinsky - CD 4"
FILE "01. Simon Rattle-City of Birmingham Symphony Orchestra – Pulcinella - Ouverture (Northern Sinfonia Orchestra).wav" WAVE
TRACK 01 AUDIO
TITLE "Pulcinella - Ouverture (Northern Sinfonia Orchestra)"
PERFORMER "Simon Rattle-City of Birmingham Symphony Orchestra"
INDEX 01 00:00:00
FILE "02. Simon Rattle-City of Birmingham Symphony Orchestra – Pulcinella - Mentre l'erbetta pasce l'agnella (tenor) (Northern Sinfonia Orchestra).wav" WAVE
TRACK 02 AUDIO
TITLE "Pulcinella - Mentre l'erbetta pasce l'agnella (tenor) (Northern Sinfonia Orch..."
PERFORMER "Simon Rattle-City of Birmingham Symphony Orchestra"
INDEX 01 00:00:00
FILE "03. Simon Rattle-City of Birmingham Symphony Orchestra – Pulcinella - Contento forse vivere (soprano) (Northern Sinfonia Orchestra).wav" WAVE
TRACK 03 AUDIO
TITLE "Pulcinella - Contento forse vivere (soprano) (Northern Sinfonia Orchestra)"
PERFORMER "Simon Rattle-City of Birmingham Symphony Orchestra"
INDEX 01 00:00:00
FILE "04. Simon Rattle-City of Birmingham Symphony Orchestra – Pulcinella - Con queste paroline (bass) (Northern Sinfonia Orchestra).wav" WAVE
TRACK 04 AUDIO
TITLE "Pulcinella - Con queste paroline (bass) (Northern Sinfonia Orchestra)"
PERFORMER "Simon Rattle-City of Birmingham Symphony Orchestra"
INDEX 01 00:00:00
FILE "05. Simon Rattle-City of Birmingham Symphony Orchestra – Pulcinella - Sento dire no'nce pace (trio) (Northern Sinfonia Orchestra).wav" WAVE
TRACK 05 AUDIO
TITLE "Pulcinella - Sento dire no'nce pace (trio) (Northern Sinfonia Orchestra)"
PERFORMER "Simon Rattle-City of Birmingham Symphony Orchestra"
INDEX 01 00:00:00
FILE "06. Simon Rattle-City of Birmingham Symphony Orchestra – Pulcinella - Una te falan zemprece (tenor) (Northern Sinfonia Orchestra).wav" WAVE
TRACK 06 AUDIO
TITLE "Pulcinella - Una te falan zemprece (tenor) (Northern Sinfonia Orchestra)"
PERFORMER "Simon Rattle-City of Birmingham Symphony Orchestra"
INDEX 01 00:00:00
FILE "07. Simon Rattle-City of Birmingham Symphony Orchestra – Pulcinella - Se tu m'ami (soprano) (Northern Sinfonia Orchestra).wav" WAVE
TRACK 07 AUDIO
TITLE "Pulcinella - Se tu m'ami (soprano) (Northern Sinfonia Orchestra)"
PERFORMER "Simon Rattle-City of Birmingham Symphony Orchestra"
INDEX 01 00:00:00
FILE "08. Simon Rattle-City of Birmingham Symphony Orchestra – Pulcinella - Gavotta (Northern Sinfonia Orchestra).wav" WAVE
TRACK 08 AUDIO
TITLE "Pulcinella - Gavotta (Northern Sinfonia Orchestra)"
PERFORMER "Simon Rattle-City of Birmingham Symphony Orchestra"
INDEX 01 00:00:00
FILE "09. Simon Rattle-City of Birmingham Symphony Orchestra – Pulcinella - Variation 1 (Northern Sinfonia Orchestra).wav" WAVE
TRACK 09 AUDIO
TITLE "Pulcinella - Variation 1 (Northern Sinfonia Orchestra)"
PERFORMER "Simon Rattle-City of Birmingham Symphony Orchestra"
INDEX 01 00:00:00
FILE "10. Simon Rattle-City of Birmingham Symphony Orchestra – Pulcinella - Variation 2 (Northern Sinfonia Orchestra).wav" WAVE
TRACK 10 AUDIO
TITLE "Pulcinella - Variation 2 (Northern Sinfonia Orchestra)"
PERFORMER "Simon Rattle-City of Birmingham Symphony Orchestra"
INDEX 01 00:00:00
FILE "11. Simon Rattle-City of Birmingham Symphony Orchestra – Pulcinella - Pupillette fiammette (trio) (Northern Sinfonia Orchestra).wav" WAVE
TRACK 11 AUDIO
TITLE "Pulcinella - Pupillette fiammette (trio) (Northern Sinfonia Orchestra)"
PERFORMER "Simon Rattle-City of Birmingham Symphony Orchestra"
INDEX 01 00:00:00
TRACK 12 AUDIO
TITLE "Suite No. 1 - 1. Andante (Northern Sinfonia Orchestra)"
PERFORMER "Simon Rattle-City of Birmingham Symphony Orchestra"
INDEX 00 04:17:71
FILE "12. Simon Rattle-City of Birmingham Symphony Orchestra – Suite No. 1 - 1. Andante (Northern Sinfonia Orchestra).wav" WAVE
INDEX 01 00:00:00
FILE "13. Simon Rattle-City of Birmingham Symphony Orchestra – Suite No. 1 - 2. Napolitana (Northern Sinfonia Orchestra).wav" WAVE
TRACK 13 AUDIO
TITLE "Suite No. 1 - 2. Napolitana (Northern Sinfonia Orchestra)"
PERFORMER "Simon Rattle-City of Birmingham Symphony Orchestra"
INDEX 01 00:00:00
FILE "14. Simon Rattle-City of Birmingham Symphony Orchestra – Suite No. 1 - 3. Espanola (Northern Sinfonia Orchestra).wav" WAVE
TRACK 14 AUDIO
TITLE "Suite No. 1 - 3. Espanola (Northern Sinfonia Orchestra)"
PERFORMER "Simon Rattle-City of Birmingham Symphony Orchestra"
INDEX 01 00:00:00
FILE "15. Simon Rattle-City of Birmingham Symphony Orchestra – Suite No. 1 - 4. Balalaika (Northern Sinfonia Orchestra).wav" WAVE
TRACK 15 AUDIO
TITLE "Suite No. 1 - 4. Balalaika (Northern Sinfonia Orchestra)"
PERFORMER "Simon Rattle-City of Birmingham Symphony Orchestra"
INDEX 01 00:00:00
TRACK 16 AUDIO
TITLE "Suite No. 2 - 1. Marche (Northern Sinfonia Orchestra)"
PERFORMER "Simon Rattle-City of Birmingham Symphony Orchestra"
INDEX 00 00:58:70
FILE "16. Simon Rattle-City of Birmingham Symphony Orchestra – Suite No. 2 - 1. Marche (Northern Sinfonia Orchestra).wav" WAVE
INDEX 01 00:00:00
FILE "17. Simon Rattle-City of Birmingham Symphony Orchestra – Suite No. 2 - 2. Valse (Northern Sinfonia Orchestra).wav" WAVE
TRACK 17 AUDIO
TITLE "Suite No. 2 - 2. Valse (Northern Sinfonia Orchestra)"
PERFORMER "Simon Rattle-City of Birmingham Symphony Orchestra"
INDEX 01 00:00:00
FILE "18. Simon Rattle-City of Birmingham Symphony Orchestra – Suite No. 2 - 3. Polka (Northern Sinfonia Orchestra).wav" WAVE
TRACK 18 AUDIO
TITLE "Suite No. 2 - 3. Polka (Northern Sinfonia Orchestra)"
PERFORMER "Simon Rattle-City of Birmingham Symphony Orchestra"
INDEX 01 00:00:00
FILE "19. Simon Rattle-City of Birmingham Symphony Orchestra – Suite No. 2 - 4. Galop (Northern Sinfonia Orchestra).wav" WAVE
TRACK 19 AUDIO
TITLE "Suite No. 2 - 4. Galop (Northern Sinfonia Orchestra)"
PERFORMER "Simon Rattle-City of Birmingham Symphony Orchestra"
INDEX 01 00:00:00
TRACK 20 AUDIO
TITLE "Ragtime"
PERFORMER "Simon Rattle-City of Birmingham Symphony Orchestra"
INDEX 00 01:45:41
FILE "20. Simon Rattle-City of Birmingham Symphony Orchestra – Ragtime.wav" WAVE
INDEX 01 00:00:00
TRACK 21 AUDIO
TITLE "Ebony Concerto - 1. Allegro moderato (London Sinfonietta)"
PERFORMER "Simon Rattle-City of Birmingham Symphony Orchestra"
INDEX 00 04:32:46
FILE "21. Simon Rattle-City of Birmingham Symphony Orchestra – Ebony Concerto - 1. Allegro moderato (London Sinfonietta).wav" WAVE
INDEX 01 00:00:00
TRACK 22 AUDIO
TITLE "Ebony Concerto - 2. Andante (London Sinfonietta)"
PERFORMER "Simon Rattle-City of Birmingham Symphony Orchestra"
INDEX 00 03:03:23
FILE "22. Simon Rattle-City of Birmingham Symphony Orchestra – Ebony Concerto - 2. Andante (London Sinfonietta).wav" WAVE
INDEX 01 00:00:00
TRACK 23 AUDIO
TITLE "Ebony Concerto - 3. Moderato (London Sinfonietta)"
PERFORMER "Simon Rattle-City of Birmingham Symphony Orchestra"
INDEX 00 02:30:27
FILE "23. Simon Rattle-City of Birmingham Symphony Orchestra – Ebony Concerto - 3. Moderato (London Sinfonietta).wav" WAVE
INDEX 01 00:00:00
TRACK 24 AUDIO
TITLE "Agon (excerpts) - Gaillarde"
PERFORMER "Simon Rattle-City of Birmingham Symphony Orchestra"
INDEX 00 03:25:10
FILE "24. Simon Rattle-City of Birmingham Symphony Orchestra – Agon (excerpts) - Gaillarde.wav" WAVE
INDEX 01 00:00:00
FILE "25. Simon Rattle-City of Birmingham Symphony Orchestra – Agon (excerpts) - Coda.wav" WAVE
TRACK 25 AUDIO
TITLE "Agon (excerpts) - Coda"
PERFORMER "Simon Rattle-City of Birmingham Symphony Orchestra"
INDEX 01 00:00:00
FILE "26. Simon Rattle-City of Birmingham Symphony Orchestra – Agon (excerpts) - Interlude.wav" WAVE
TRACK 26 AUDIO
TITLE "Agon (excerpts) - Interlude"
PERFORMER "Simon Rattle-City of Birmingham Symphony Orchestra"
INDEX 01 00:00:00
FILE "27. Simon Rattle-City of Birmingham Symphony Orchestra – Agon (excerpts) - Four Duos.wav" WAVE
TRACK 27 AUDIO
TITLE "Agon (excerpts) - Four Duos"
PERFORMER "Simon Rattle-City of Birmingham Symphony Orchestra"
INDEX 01 00:00:00
FILE "28. Simon Rattle-City of Birmingham Symphony Orchestra – Agon (excerpts) - Four Trios.wav" WAVE
TRACK 28 AUDIO
TITLE "Agon (excerpts) - Four Trios"
PERFORMER "Simon Rattle-City of Birmingham Symphony Orchestra"
INDEX 01 00:00:00
Пожалуйста, не уходите с раздачи!
Download
Для скачивания .torrent файлов необходима регистрация
Сайт не распространяет и не хранит электронные версии произведений, а лишь предоставляет доступ к создаваемому пользователями каталогу ссылок на торрент-файлы, которые содержат только списки хеш-сумм
[Профиль]  [ЛС] 

el coronel

VIP (Заслуженный)

Стаж: 8 лет 9 месяцев

Сообщений: 4595

el coronel · 31-Дек-10 14:24 (спустя 1 час 13 мин.)

[Цитировать] 

nikitastykov
Фамилию Стравинского продублируйте, пожалуйста, в заголовке темы на русском языке. Там же после фамилии композитора укажите названия произведений входящих в сборник - на языке оригинала и для сценический произведений желательно продублировать на русском/английском.
Требование к оформлению треклистов: при раздаче дисков с музыкальными произведениями, каждое из которых занимает несколько треков, фамилию композитора, название произведения и фамилии исполнителей следует указывать один раз для всего произведения.
[Профиль]  [ЛС] 

camar1lla

VIP (Заслуженный)

Стаж: 10 лет 4 месяца

Сообщений: 952

camar1lla · 31-Дек-10 23:40 (спустя 9 часов, ред. 31-Дек-10 23:40)

[Цитировать] 

Новогодние рисунки переехали сюда.
[Профиль]  [ЛС] 

dsch1943

Стаж: 4 года 10 месяцев

Сообщений: 31

dsch1943 · 04-Июн-14 22:12 (спустя 3 года 5 месяцев)

[Цитировать] 

Я офигел, когда Весну Священную у Рэттла услышал. Ни у кого так больше не нравится.
[Профиль]  [ЛС] 

lex19832

RG Торрентс-Книги

Стаж: 8 лет 11 месяцев

Сообщений: 1003

lex19832 · 24-Окт-14 19:51 (спустя 4 месяца 19 дней)

[Цитировать] 

Не понимаю, что может нравится в скучнейшей упрощённо-покоцанной редакции "Весны" 47 года
[Профиль]  [ЛС] 

dsch1943

Стаж: 4 года 10 месяцев

Сообщений: 31

dsch1943 · 06-Ноя-14 21:21 (спустя 13 дней, ред. 06-Ноя-14 21:21)

[Цитировать] 

lex19832 писал(а):
65584734Не понимаю, что может нравится в скучнейшей упрощённо-покоцанной редакции "Весны" 47 года
Слушал у Гергиева, Караяна, Бернстайна и Рэттла -- у всех одна и та же редакция. Есть ещё какая-то? Можно ссылку, если не сложно?
[Профиль]  [ЛС] 
 
Ответить
Loading...
Error