(Classical/Piano) Katia & Marielle Labeque - Minimalist Dream House: Philip Glass, John Cage, Arvo Part, Terry Riley, Michael Nyman, William Duckworth, Howard Skempton, Brian Eno, Nicola Tescari, etc. - 2013, FLAC (image+.cue) lossless

Страницы:  1

Ответить
Автор
Сообщение

GFox

Стаж: 11 лет 9 месяцев

Сообщений: 15034

GFox · 28-Июл-13 16:58 (5 лет 2 месяца назад, ред. 28-Июл-13 17:02)

MINIMALIST DREAM HOUSE

Katia & Marielle Labèque, pianos
David Chalmin, vocals, guitars, bass & electronics
Raphaël Séguinier, drums, percussion & electronics
Nicola Tescari, keyboards, electronics & piano

Жанр: Classical/Piano
Страна-производитель диска: EU
Год издания диска: 2013
Издатель (лейбл): KM Recordings
Номер по каталогу: KML 2117
Аудиокодек: FLAC
Тип рипа: image+.cue
Битрейт аудио: lossless
Источник: собственный рип
Наличие сканов в содержимом раздачи: да

CD1 (55'50")
Philip Glass - Four Movements for Two Pianos
01. Movement I
02. Movement II
03. Movement III
04. Movement IV
Howard Skempton - 3 Nocturnes
05. Nocturne I
06. Nocturne II
07. Nocturne III
William Duckworth
08. The Time Curve Prelude I
09. The Time Curve Prelude II
10. The Time Curve Prelude VII
11. The Time Curve Prelude X
12. The Time Curve Prelude XII
13. The Time Curve Prelude XVII
Howard Skempton - Images
14. Prelude 1
15. Interlude 4
16. Prelude 5
17. Interlude 5
18. Prelude 7
Howard Skempton
19. Postlude
CD2 (47'49")
John Cage
01. Experiences, I
David Chalmin
02. Gameland
Nicola Tescari
03. Suonar Rimembrando
Aphex Twin
04. Nanou2
Aphex Twin
05. Avril 14th
Brian Eno
06. In Dark Trees
Philip Glass
07. The Poet Acts (from the Hours)
Arvo Pärt
08. Hymn to a Great City
Nicola Tescari
09. En 4 Parentheses
Radiohead
10. Pyramid Song
Raphaël Séguinier
11. Free to X
Suicide
12. Ghost Rider
CD3 (56'39")
Terry Riley
1. In C
Michael Nyman - Water Dances
2. I. Dipping
3. II. Stroking
4. III. Submerging
5. IV. Gliding
6. V. Synchronising

Лог создания рипа - CD1
Exact Audio Copy V1.0 beta 1 from 15. November 2010
EAC extraction logfile from 25. July 2013, 20:50
Katia & Marielle Labeque / Minimalist Dream House (CD1)
Used drive : Optiarc DVD RW AD-7203A Adapter: 4 ID: 1
Read mode : Secure
Utilize accurate stream : Yes
Defeat audio cache : Yes
Make use of C2 pointers : No
Read offset correction : 48
Overread into Lead-In and Lead-Out : No
Fill up missing offset samples with silence : Yes
Delete leading and trailing silent blocks : No
Null samples used in CRC calculations : Yes
Used interface : Native Win32 interface for Win NT & 2000
Used output format : User Defined Encoder
Selected bitrate : 128 kBit/s
Quality : High
Add ID3 tag : No
Command line compressor : C:\Program Files\FLAC\flac.exe
Additional command line options : -T "COMMENT=Ripped by GFox" -8 -V %s
TOC of the extracted CD
Track | Start | Length | Start sector | End sector
---------------------------------------------------------
1 | 0:00.00 | 5:59.52 | 0 | 26976
2 | 5:59.52 | 5:37.57 | 26977 | 52308
3 | 11:37.34 | 6:47.20 | 52309 | 82853
4 | 18:24.54 | 5:16.43 | 82854 | 106596
5 | 23:41.22 | 2:38.60 | 106597 | 118506
6 | 26:20.07 | 1:32.46 | 118507 | 125452
7 | 27:52.53 | 1:48.56 | 125453 | 133608
8 | 29:41.34 | 2:27.01 | 133609 | 144634
9 | 32:08.35 | 2:07.42 | 144635 | 154201
10 | 34:16.02 | 3:18.55 | 154202 | 169106
11 | 37:34.57 | 1:54.42 | 169107 | 177698
12 | 39:29.24 | 2:52.58 | 177699 | 190656
13 | 42:22.07 | 2:32.32 | 190657 | 202088
14 | 44:54.39 | 1:19.61 | 202089 | 208074
15 | 46:14.25 | 1:22.18 | 208075 | 214242
16 | 47:36.43 | 3:03.47 | 214243 | 228014
17 | 50:40.15 | 0:51.52 | 228015 | 231891
18 | 51:31.67 | 2:31.48 | 231892 | 243264
19 | 54:03.40 | 1:46.71 | 243265 | 251285
Range status and errors
Selected range
Filename D:\EAC\Katia & Marielle Labeque - Minimalist Dream House (CD1).wav
Peak level 98.8 %
Extraction speed 0.1 X
Range quality 100.0 %
Test CRC 3D56EB45
Copy CRC 3D56EB45
Copy OK
No errors occurred
AccurateRip summary
Track 1 not present in database
Track 2 not present in database
Track 3 not present in database
Track 4 not present in database
Track 5 not present in database
Track 6 not present in database
Track 7 not present in database
Track 8 not present in database
Track 9 not present in database
Track 10 not present in database
Track 11 not present in database
Track 12 not present in database
Track 13 not present in database
Track 14 not present in database
Track 15 not present in database
Track 16 not present in database
Track 17 not present in database
Track 18 not present in database
Track 19 not present in database
None of the tracks are present in the AccurateRip database
End of status report
==== Log checksum A039AF6FE45A397889438B4D467D7C8001862A1DD0FD2413DFC27799457A1ACD ====
Лог создания рипа - CD2
Exact Audio Copy V1.0 beta 1 from 15. November 2010
EAC extraction logfile from 25. July 2013, 21:28
Katia & Marielle Labeque / Minimalist Dream House (CD2)
Used drive : Optiarc DVD RW AD-7203A Adapter: 4 ID: 1
Read mode : Secure
Utilize accurate stream : Yes
Defeat audio cache : Yes
Make use of C2 pointers : No
Read offset correction : 48
Overread into Lead-In and Lead-Out : No
Fill up missing offset samples with silence : Yes
Delete leading and trailing silent blocks : No
Null samples used in CRC calculations : Yes
Used interface : Native Win32 interface for Win NT & 2000
Used output format : User Defined Encoder
Selected bitrate : 128 kBit/s
Quality : High
Add ID3 tag : No
Command line compressor : C:\Program Files\FLAC\flac.exe
Additional command line options : -T "COMMENT=Ripped by GFox" -8 -V %s
TOC of the extracted CD
Track | Start | Length | Start sector | End sector
---------------------------------------------------------
1 | 0:00.00 | 2:19.08 | 0 | 10432
2 | 2:19.08 | 6:03.14 | 10433 | 37671
3 | 8:22.22 | 6:02.02 | 37672 | 64823
4 | 14:24.24 | 3:22.51 | 64824 | 80024
5 | 17:47.00 | 2:07.09 | 80025 | 89558
6 | 19:54.09 | 3:49.11 | 89559 | 106744
7 | 23:43.20 | 3:41.45 | 106745 | 123364
8 | 27:24.65 | 3:14.63 | 123365 | 137977
9 | 30:39.53 | 4:24.14 | 137978 | 157791
10 | 35:03.67 | 5:05.27 | 157792 | 180693
11 | 40:09.19 | 4:57.34 | 180694 | 203002
12 | 45:06.53 | 2:42.71 | 203003 | 215223
Range status and errors
Selected range
Filename D:\EAC\Katia & Marielle Labeque - Minimalist Dream House (CD2).wav
Peak level 100.0 %
Extraction speed 0.2 X
Range quality 100.0 %
Test CRC 80ECF750
Copy CRC 80ECF750
Copy OK
No errors occurred
AccurateRip summary
Track 1 not present in database
Track 2 not present in database
Track 3 not present in database
Track 4 not present in database
Track 5 not present in database
Track 6 not present in database
Track 7 not present in database
Track 8 not present in database
Track 9 not present in database
Track 10 not present in database
Track 11 not present in database
Track 12 not present in database
None of the tracks are present in the AccurateRip database
End of status report
==== Log checksum 5260D0F9300152CD5D512FF9E751131B3880C58B32DAE540196F01D069111A60 ====
Лог создания рипа - CD3
Exact Audio Copy V1.0 beta 1 from 15. November 2010
EAC extraction logfile from 26. July 2013, 0:01
Katia & Marielle Labeque / Minimalist Dream House (CD3)
Used drive : Optiarc DVD RW AD-7203A Adapter: 4 ID: 1
Read mode : Secure
Utilize accurate stream : Yes
Defeat audio cache : Yes
Make use of C2 pointers : No
Read offset correction : 48
Overread into Lead-In and Lead-Out : No
Fill up missing offset samples with silence : Yes
Delete leading and trailing silent blocks : No
Null samples used in CRC calculations : Yes
Used interface : Native Win32 interface for Win NT & 2000
Used output format : User Defined Encoder
Selected bitrate : 128 kBit/s
Quality : High
Add ID3 tag : No
Command line compressor : C:\Program Files\FLAC\flac.exe
Additional command line options : -T "COMMENT=Ripped by GFox" -8 -V %s
TOC of the extracted CD
Track | Start | Length | Start sector | End sector
---------------------------------------------------------
1 | 0:00.00 | 28:58.12 | 0 | 130361
2 | 28:58.12 | 4:48.24 | 130362 | 151985
3 | 33:46.36 | 6:30.71 | 151986 | 181306
4 | 40:17.32 | 5:43.10 | 181307 | 207041
5 | 46:00.42 | 4:43.28 | 207042 | 228294
6 | 50:43.70 | 5:55.11 | 228295 | 254930
Range status and errors
Selected range
Filename D:\EAC\Katia & Marielle Labeque - Minimalist Dream House (CD3).wav
Peak level 100.0 %
Extraction speed 0.4 X
Range quality 100.0 %
Test CRC F4B04F0B
Copy CRC F4B04F0B
Copy OK
No errors occurred
AccurateRip summary
Track 1 not present in database
Track 2 not present in database
Track 3 not present in database
Track 4 not present in database
Track 5 not present in database
Track 6 not present in database
None of the tracks are present in the AccurateRip database
End of status report
==== Log checksum 99CDBE05221D3A5F377F97CADEC53B398CD6AB9858CFC3D5EFD7A4126F2930D4 ====

Доп. информация: Крайне любопытный сборник фортепианного минимализма от знаменитого дуэта Лабек. Содержание дисков сгруппировано тематически: от постминималистского CD1, через поп- и рок-пограничный CD2 к чистому минимализму CD3.
Download
Для скачивания .torrent файлов необходима регистрация
Сайт не распространяет и не хранит электронные версии произведений, а лишь предоставляет доступ к создаваемому пользователями каталогу ссылок на торрент-файлы, которые содержат только списки хеш-сумм
[Профиль]  [ЛС] 

markons

Top Seed 01* 40r

Стаж: 8 лет 10 месяцев

Сообщений: 103

markons · 29-Окт-13 08:12 (спустя 3 месяца)

[Цитировать] 

Ого! Третья версия "In C" в мою коллекцию! Ну что ж, послушаем.
[Профиль]  [ЛС] 
 
Ответить
Loading...
Error