(classical / violin / orchestral) Максим Венгеров - Phenomenal Vengerov! (Concertos & pieces virtuosos pour violon) (3 CD) (Beethoven, Kreisler, Lalo, Saint-Saens, Ravel, Хачатурян, Рахманинов, Чайковский) - 2011, FLAC (image+.cue) lossless

Страницы:  1

Ответить
Автор
Сообщение

intellect

Стаж: 13 лет 9 месяцев

Сообщений: 43380


intellect · 27-Янв-12 11:28 (6 лет 6 месяцев назад, ред. 18-Апр-12 06:07)

Максим Венгеров - Phenomenal Vengerov! (Concertos & pieces virtuosos pour violon) (3 CD) (Beethoven, Kreisler, Lalo, Saint-Saёns, Ravel, Khatchaturian, Рахманинов, Чайковский)

Жанр: classical / violin / orchestral / Год издания диска: 2011
Издатель (лейбл): EMI Records / Номер по каталогу: 50999 026477 2 2 / Дата записи: 2001-2005
Аудиокодек: FLAC / Тип рипа: image+.cue / Битрейт аудио: lossless
Источник: KpNemo.ru (JVA) / Наличие сканов в содержимом раздачи: да

Disc: 1
Треклист:
Ludwig Van Beethoven 1770-1927
Concerto pour Violin and Orchestra en re majeur Op.61
01. I Allegro ma non troppo 27:18
02. II Larghetto 09:28
03. III Rondo. Allegro 10:02
(cadenses 1 & 3: Maxim Vengerov)
04. Romance №1 en sol majeur Op.40 - Romance No.1 08:28
05. Romance №2 en fa majeurr Op.50 10:06
Maxim Vengerov Violin
London Symphony Orchestra / Mstislav Rostropovich
Fritz Kreisler 1875-1962
06. Liebesleid 03:27
07. Liebesfreud 03:18
Maxim Vengerov Violin
Ian Brown Piano

Продолжительность: 01:12:07
Отчёт ЕАС
Exact Audio Copy V0.99 prebeta 5 from 4. May 2009
Отчёт EAC об извлечении, выполненном 22. ноября 2011, 11:47
Maxim Vengerov / Phenomenal Vengerov! [Disc 1]
Дисковод: _NEC DVD_RW ND-4571A Adapter: 0 ID: 0
Режим чтения : Достоверность
Использование точного потока : Да
Отключение кэша аудио : Да
Использование указателей C2 : Нет
Коррекция смещения при чтении : 48
Способность читать области Lead-in и Lead-out : Нет
Заполнение пропущенных сэмплов тишиной : Да
Удаление блоков с тишиной в начале и конце : Нет
При вычислениях CRC использовались нулевые сэмплы : Да
Интерфейс : Встроенный Win32-интерфейс для Win NT/2000
Выходной формат : Пользовательский кодировщик
Выбранный битрейт : 768 kBit/s
Качество : Высокий
Добавление ID3-тэга : Нет
Утилита сжатия : C:\Program Files\Exact Audio Copy\Flac\flac.exe
Дополнительные параметры : -6 -V -T "ARTIST=%a" -T "TITLE=%t" -T "ALBUM=%g" -T "DATE=%y" -T "TRACKNUMBER=%n" -T "GENRE=%m" -T "COMMENT=%e" %s -o %d
TOC извлечённого CD
Трек | Старт | Длительность | Начальный сектор | Конечный сектор
---------------------------------------------------------------------
1 | 0:00.00 | 27:17.66 | 0 | 122840
2 | 27:17.66 | 9:27.44 | 122841 | 165409
3 | 36:45.35 | 10:02.19 | 165410 | 210578
4 | 46:47.54 | 8:28.29 | 210579 | 248707
5 | 55:16.08 | 10:06.21 | 248708 | 294178
6 | 65:22.29 | 3:26.62 | 294179 | 309690
7 | 68:49.16 | 3:18.00 | 309691 | 324540
Характеристики диапазона извлечения и сообщения об ошибках
Выбранный диапазон
Имя файла F:\EAC\M.Vengerov - Phenomenal Vengerov CD1\Phenomenal Vengerov CD1.wav
Пиковый уровень 90.3 %
Качество диапазона 100.0 %
CRC копии 9CC09555
Копирование... OK
Ошибок не произошло
AccurateRip: сводка
Трек 1 точное извлечение (доверие 1) [D0F35F5E]
Трек 2 точное извлечение (доверие 1) [327FE028]
Трек 3 точное извлечение (доверие 1) [9C0D50F1]
Трек 4 точное извлечение (доверие 1) [3FD67034]
Трек 5 точное извлечение (доверие 1) [D575EEEF]
Трек 6 точное извлечение (доверие 1) [18591567]
Трек 7 точное извлечение (доверие 1) [05D9871A]
Все треки извлечены точно
Конец отчёта
Содержание индексной карты (.CUE)
REM GENRE Classical
REM DATE 2011
REM DISCID 5D10E707
REM COMMENT "ExactAudioCopy v0.99pb5"
CATALOG 5099902647821
PERFORMER "Maxim Vengerov"
TITLE "Phenomenal Vengerov! [Disc 1]"
FILE "Phenomenal Vengerov CD1.flac" WAVE
TRACK 01 AUDIO
TITLE "I. Allegro ma non troppo- Violin Concerto in D Op.61"
PERFORMER "Maxim Vengerov"
ISRC GBAYC0501200
INDEX 01 00:00:00
TRACK 02 AUDIO
TITLE "II. Larghetto- Violin Concerto in D Op.61"
PERFORMER "Maxim Vengerov"
ISRC GBAYC0501201
INDEX 00 27:14:50
INDEX 01 27:17:66
TRACK 03 AUDIO
TITLE "III. Rondo (Allegro)- Violin Concerto in D Op.61"
PERFORMER "Maxim Vengerov"
ISRC GBAYC0501202
INDEX 01 36:45:35
TRACK 04 AUDIO
TITLE "Romance No.1 for violin and orchestra in G Major, Op.40"
PERFORMER "Maxim Vengerov"
ISRC GBAYC0501203
INDEX 00 46:41:23
INDEX 01 46:47:54
TRACK 05 AUDIO
TITLE "Romance No.2 in F Major Op.50 for Violin and Orchestra"
PERFORMER "Maxim Vengerov"
ISRC GBAYC0501204
INDEX 00 55:11:25
INDEX 01 55:16:08
TRACK 06 AUDIO
TITLE "Liebesleid"
PERFORMER "Maxim Vengerov"
ISRC GBAYC0401930
INDEX 00 65:14:29
INDEX 01 65:22:29
TRACK 07 AUDIO
TITLE "Liebesfreud"
PERFORMER "Maxim Vengerov"
ISRC GBAYC0401931
INDEX 00 68:45:03
INDEX 01 68:49:16
Отчёт auCDtect Task manager
-----------------------
DON'T MODIFY THIS FILE
-----------------------
PERFORMER: auCDtect Task Manager, ver. 1.5.1RC6 build 1.5.1.7
Copyright (c) 2008-2010 y-soft. All rights reserved
http://y-soft.org
ANALYZER: auCDtect: CD records authenticity detector, version 0.8.2
Copyright (c) 2004 Oleg Berngardt. All rights reserved.
Copyright (c) 2004 Alexander Djourik. All rights reserved.
FILE: Phenomenal Vengerov CD1.flac
Size: 298969772 Hash: 442B7B81AF870A8955B31074DF2E1712 Accuracy: -m0
Conclusion: CDDA 99%
Signature: 94EF80DC7DCD72B5DE569E5EE31F1AB727AA94A4
Disc: 2
Треклист:
Edouard Lalo 1823-1892
Symphonie espagnole en re mineur Op.21
01. I Allegro non troppo 08:01
02. II Scherzando: Allegro molto 04:16
03. III Intermezzo: Allegretto non troppo 06:09
04. IV Andante 07:41
05. V Rondo: Allegro - Poco piu lento - Tempo I 08:28
Camille Saint-Saёns 1835-1921
Concerto pour Violin №3 en si mineur Op.61
06. I Allegro non troppo 08:58
07. II Andantino quasi allegretto 08:53
08. III Molto moderato - Allegro non troppo 11:38
Maurice Ravel 1875-1937
09. Tzigane Rhapsodie de Concert 09:47
Maxim Vengerov Violin
Philharmonia Orchestra / Antonio Pappano
Henryk Wieniawski 1835-1880
10. Scherzo-Tarentelle Op. 16 ( - ) 04:54
Maxim Vengerov Violin
Ian Brown Piano

Продолжительность: 01:18:45
Отчёт ЕАС
Exact Audio Copy V0.99 prebeta 5 from 4. May 2009
Отчёт EAC об извлечении, выполненном 22. ноября 2011, 14:25
Maxim Vengerov / Phenomenal Vengerov! [Disc 2]
Дисковод: _NEC DVD_RW ND-4571A Adapter: 0 ID: 0
Режим чтения : Достоверность
Использование точного потока : Да
Отключение кэша аудио : Да
Использование указателей C2 : Нет
Коррекция смещения при чтении : 48
Способность читать области Lead-in и Lead-out : Нет
Заполнение пропущенных сэмплов тишиной : Да
Удаление блоков с тишиной в начале и конце : Нет
При вычислениях CRC использовались нулевые сэмплы : Да
Интерфейс : Встроенный Win32-интерфейс для Win NT/2000
Выходной формат : Пользовательский кодировщик
Выбранный битрейт : 768 kBit/s
Качество : Высокий
Добавление ID3-тэга : Нет
Утилита сжатия : C:\Program Files\Exact Audio Copy\Flac\flac.exe
Дополнительные параметры : -6 -V -T "ARTIST=%a" -T "TITLE=%t" -T "ALBUM=%g" -T "DATE=%y" -T "TRACKNUMBER=%n" -T "GENRE=%m" -T "COMMENT=%e" %s -o %d
TOC извлечённого CD
Трек | Старт | Длительность | Начальный сектор | Конечный сектор
---------------------------------------------------------------------
1 | 0:00.00 | 8:01.21 | 0 | 36095
2 | 8:01.21 | 4:15.46 | 36096 | 55266
3 | 12:16.67 | 6:09.26 | 55267 | 82967
4 | 18:26.18 | 7:40.67 | 82968 | 117534
5 | 26:07.10 | 8:27.55 | 117535 | 155614
6 | 34:34.65 | 8:58.06 | 155615 | 195970
7 | 43:32.71 | 8:52.67 | 195971 | 235937
8 | 52:25.63 | 11:37.44 | 235938 | 288256
9 | 64:03.32 | 9:46.65 | 288257 | 332271
10 | 73:50.22 | 4:54.23 | 332272 | 354344
Характеристики диапазона извлечения и сообщения об ошибках
Выбранный диапазон
Имя файла F:\EAC\M.Vengerov - Phenomenal Vengerov CD2\M.Vengerov - Phenomenal Vengerov CD2.wav
Пиковый уровень 89.8 %
Качество диапазона 99.9 %
CRC копии 5D45E731
Копирование... OK
Ошибок не произошло
AccurateRip: сводка
Трек 1 точное извлечение (доверие 1) [1722449E]
Трек 2 точное извлечение (доверие 1) [84BC98D9]
Трек 3 точное извлечение (доверие 1) [C4A78F34]
Трек 4 точное извлечение (доверие 1) [698C3F22]
Трек 5 точное извлечение (доверие 1) [E56F74F0]
Трек 6 точное извлечение (доверие 1) [10F22196]
Трек 7 точное извлечение (доверие 1) [0E664EA7]
Трек 8 точное извлечение (доверие 1) [5185CCC3]
Трек 9 точное извлечение (доверие 1) [0F0A3AE3]
Трек 10 точное извлечение (доверие 1) [1C4EA3D4]
Все треки извлечены точно
Конец отчёта
Содержание индексной карты (.CUE)
REM GENRE Classical
REM DATE 2011
REM DISCID 8E12740A
REM COMMENT "ExactAudioCopy v0.99pb5"
CATALOG 5099902648026
PERFORMER "Maxim Vengerov"
TITLE "Phenomenal Vengerov! [Disc 2]"
FILE "M.Vengerov - Phenomenal Vengerov CD2.flac" WAVE
TRACK 01 AUDIO
TITLE "I. Allegro non troppo- Symphonie espagnole Op. 21"
PERFORMER "Maxim Vengerov"
ISRC GBAYC0301987
INDEX 01 00:00:00
TRACK 02 AUDIO
TITLE "II. Scherzando (Allegro molto)- Symphonie espagnole Op. 21"
PERFORMER "Maxim Vengerov"
ISRC GBAYC0301988
INDEX 00 07:58:17
INDEX 01 08:01:21
TRACK 03 AUDIO
TITLE "III. Intermezzo (Allegretto non troppo)- Symphonie espagnole Op. 21"
PERFORMER "Maxim Vengerov"
ISRC GBAYC0301989
INDEX 00 12:14:67
INDEX 01 12:16:67
TRACK 04 AUDIO
TITLE "IV. Andante- Symphonie espagnole Op. 21"
PERFORMER "Maxim Vengerov"
ISRC GBAYC0301990
INDEX 00 18:20:67
INDEX 01 18:26:18
TRACK 05 AUDIO
TITLE "V. Rondo- Symphonie espagnole Op. 21"
PERFORMER "Maxim Vengerov"
ISRC GBAYC0301991
INDEX 00 26:02:00
INDEX 01 26:07:10
TRACK 06 AUDIO
TITLE "I. Allegro non troppo- Violin Concerto No. 3 in B minor Op. 61"
PERFORMER "Maxim Vengerov"
ISRC GBAYC0301930
INDEX 00 34:28:50
INDEX 01 34:34:65
TRACK 07 AUDIO
TITLE "II. Andantino quasi allegretto- Violin Concerto No. 3 in B minor Op. 61"
PERFORMER "Maxim Vengerov"
ISRC GBAYC0301931
INDEX 00 43:28:65
INDEX 01 43:32:71
TRACK 08 AUDIO
TITLE "III. Molto moderato e maestoso- Violin Concerto No. 3 in B minor Op. 61"
PERFORMER "Maxim Vengerov"
ISRC GBAYC0301932
INDEX 00 52:21:25
INDEX 01 52:25:63
TRACK 09 AUDIO
TITLE "Tzigane, Rhapsodie de Concert"
PERFORMER "Maxim Vengerov"
ISRC GBAYC0301933
INDEX 00 63:57:37
INDEX 01 64:03:32
TRACK 10 AUDIO
TITLE "Scherzo-Tarentelle Op. 16"
PERFORMER "Maxim Vengerov"
ISRC GBAYC0401937
INDEX 00 73:43:22
INDEX 01 73:50:22
Отчёт auCDtect Task manager
-----------------------
DON'T MODIFY THIS FILE
-----------------------
PERFORMER: auCDtect Task Manager, ver. 1.5.1RC6 build 1.5.1.7
Copyright (c) 2008-2010 y-soft. All rights reserved
http://y-soft.org
ANALYZER: auCDtect: CD records authenticity detector, version 0.8.2
Copyright (c) 2004 Oleg Berngardt. All rights reserved.
Copyright (c) 2004 Alexander Djourik. All rights reserved.
FILE: M.Vengerov - Phenomenal Vengerov CD2.flac
Size: 334857552 Hash: 66044763492AB70F334B4BFEC1926B98 Accuracy: -m0
Conclusion: CDDA 99%
Signature: 077AB4330B5FF931414EFCFE9A02E6A99769507D
Disc: 3
Треклист:
Sergei Rachmaninov 1873-1943
01. Vocalise Op.34 №14 06:17
Manuel Ponce 1882-1948
02. Estrellita 03:41
transcriptions originsles Jascha Heifetz
Johannes Brahms 1833-1897
03. Danse Hongroise №7 en La majeur 02:17
04. Danse Hongroise №1 en sol mineur 03:32
05. Danse Hongroise №5 en sol mineur 02:38
transcriptions originsles Joseph Joachim
Ottokar Novacek 1866-1900
06. Perpetuum Mobile Op.5 №4 02:53
Antonin Dvorak 1841-1904
07. Humoreske en sol bemol majeur Op.101 №7 - (Maxim Vengerov Violin - Vag Papian Piano) 03:24
Piotr Illitch Tchaikovski 1840-1893
Souvenir d'un lieu cher (Trois Piecec pour violin et piano) Op.42
08. I Méditation 10:02
09. III Mélodie 03:45
10. II Scherzo 04:24
Franz Schubert 1797-1828
11. Ave Maria D. 839 05:51
transcriptions originsles August Wilhelmj
Antonio Bazzini 1818-197
12. La Ronde des Lutins (Scherzo fantastique) Op.25 05:29
Bis
Aram Khatchaturian 1903-1978
13. - La danse du sabre (de' Gayaneh) 02:26
Jules Massenet 1842-1912
14. Méditation de Thaïs 06:06
transcriptions originsles M.P. Marsick
Vittorio Monti 1868-1922
15. Csardas ( - ) 06:09
Tous arrangements pour Vengerov & Virtuosi par Mikhail Parhamovsky
Maxim Vengerov Violin
Virtousi
Mikhail Parhamovsky (premier Violin) - Anna Dashevsky, Rita Bobrovich, Eva Iframov, Zinaida Rodigen, Lucia Novovevsky, Aline Janovitsky, Yevgeni Cheskis, Ilya Chichkovich, Yevgeni Voskoboinikov, Alexander Gourvich (Violin)
Vag Papian Piano

Продолжительность: 01:08:54
Отчёт ЕАС
Exact Audio Copy V0.99 prebeta 5 from 4. May 2009
Отчёт EAC об извлечении, выполненном 22. ноября 2011, 14:59
Maxim Vengerov / Phenomenal Vengerov! [Disc 3]
Дисковод: _NEC DVD_RW ND-4571A Adapter: 0 ID: 0
Режим чтения : Достоверность
Использование точного потока : Да
Отключение кэша аудио : Да
Использование указателей C2 : Нет
Коррекция смещения при чтении : 48
Способность читать области Lead-in и Lead-out : Нет
Заполнение пропущенных сэмплов тишиной : Да
Удаление блоков с тишиной в начале и конце : Нет
При вычислениях CRC использовались нулевые сэмплы : Да
Интерфейс : Встроенный Win32-интерфейс для Win NT/2000
Выходной формат : Пользовательский кодировщик
Выбранный битрейт : 768 kBit/s
Качество : Высокий
Добавление ID3-тэга : Нет
Утилита сжатия : C:\Program Files\Exact Audio Copy\Flac\flac.exe
Дополнительные параметры : -6 -V -T "ARTIST=%a" -T "TITLE=%t" -T "ALBUM=%g" -T "DATE=%y" -T "TRACKNUMBER=%n" -T "GENRE=%m" -T "COMMENT=%e" %s -o %d
TOC извлечённого CD
Трек | Старт | Длительность | Начальный сектор | Конечный сектор
---------------------------------------------------------------------
1 | 0:00.00 | 6:17.07 | 0 | 28281
2 | 6:17.07 | 3:41.35 | 28282 | 44891
3 | 9:58.42 | 2:16.69 | 44892 | 55160
4 | 12:15.36 | 3:31.53 | 55161 | 71038
5 | 15:47.14 | 2:37.59 | 71039 | 82872
6 | 18:24.73 | 2:53.01 | 82873 | 95848
7 | 21:17.74 | 3:24.34 | 95849 | 111182
8 | 24:42.33 | 10:01.44 | 111183 | 156301
9 | 34:44.02 | 3:45.09 | 156302 | 173185
10 | 38:29.11 | 4:24.03 | 173186 | 192988
11 | 42:53.14 | 5:51.10 | 192989 | 219323
12 | 48:44.24 | 5:29.14 | 219324 | 244012
13 | 54:13.38 | 2:25.40 | 244013 | 254927
14 | 56:39.03 | 6:05.50 | 254928 | 282352
15 | 62:44.53 | 6:08.67 | 282353 | 310019
Характеристики диапазона извлечения и сообщения об ошибках
Выбранный диапазон
Имя файла F:\EAC\M.Vengerov - Phenomenal Vengerov CD3\M.Vengerov - Phenomenal Vengerov CD3.wav
Пиковый уровень 86.2 %
Качество диапазона 100.0 %
CRC копии 3D61064F
Копирование... OK
Ошибок не произошло
AccurateRip: сводка
Трек 1 точное извлечение (доверие 1) [D7C70B12]
Трек 2 точное извлечение (доверие 1) [E1FA70C5]
Трек 3 точное извлечение (доверие 1) [921122F8]
Трек 4 точное извлечение (доверие 1) [BA60BE17]
Трек 5 точное извлечение (доверие 1) [7525D4D2]
Трек 6 точное извлечение (доверие 1) [D39006ED]
Трек 7 точное извлечение (доверие 1) [DDA1ED4B]
Трек 8 точное извлечение (доверие 1) [0CEE2229]
Трек 9 точное извлечение (доверие 1) [31CD5EEB]
Трек 10 точное извлечение (доверие 1) [7D632F31]
Трек 11 точное извлечение (доверие 1) [FED9E568]
Трек 12 точное извлечение (доверие 1) [CE70D232]
Трек 13 точное извлечение (доверие 1) [2FDFD96F]
Трек 14 точное извлечение (доверие 1) [F35A59CC]
Трек 15 точное извлечение (доверие 1) [21451AAC]
Все треки извлечены точно
Конец отчёта
Содержание индексной карты (.CUE)
REM GENRE Classical
REM DATE 2011
REM DISCID D810250F
REM COMMENT "ExactAudioCopy v0.99pb5"
CATALOG 5099902648224
PERFORMER "Maxim Vengerov"
TITLE "Phenomenal Vengerov! [Disc 3]"
FILE "M.Vengerov - Phenomenal Vengerov CD3.flac" WAVE
TRACK 01 AUDIO
TITLE "Vocalise Op.34 No. 14"
PERFORMER "Maxim Vengerov"
ISRC GBAYC0101641
INDEX 01 00:00:00
TRACK 02 AUDIO
TITLE "Estrellita"
PERFORMER "Maxim Vengerov"
ISRC GBAYC0101642
INDEX 00 06:13:73
INDEX 01 06:17:07
TRACK 03 AUDIO
TITLE "No. 7 in A- Hungarian Dances"
PERFORMER "Maxim Vengerov"
ISRC GBAYC0101644
INDEX 00 09:53:30
INDEX 01 09:58:42
TRACK 04 AUDIO
TITLE "No. 1 in G minor- Hungarian Dances"
PERFORMER "Maxim Vengerov"
ISRC GBAYC0101645
INDEX 00 12:12:45
INDEX 01 12:15:36
TRACK 05 AUDIO
TITLE "No.5 in F sharp minor- Hungarian Dances"
PERFORMER "Maxim Vengerov"
ISRC GBAYC0101646
INDEX 00 15:43:70
INDEX 01 15:47:14
TRACK 06 AUDIO
TITLE "Perpetuum Mobile Op.5 No. 4"
PERFORMER "Maxim Vengerov"
ISRC GBAYC0101647
INDEX 00 18:19:55
INDEX 01 18:24:73
TRACK 07 AUDIO
TITLE "Humoreske in G flat Op.101 No. 7"
PERFORMER "Maxim Vengerov"
ISRC GBAYC0101648
INDEX 00 21:12:38
INDEX 01 21:17:74
TRACK 08 AUDIO
TITLE "Meditation Op.42 No. 1"
PERFORMER "Maxim Vengerov"
ISRC GBAYC0101649
INDEX 00 24:37:15
INDEX 01 24:42:33
TRACK 09 AUDIO
TITLE "Melodie Op.42 No. 3"
PERFORMER "Maxim Vengerov"
ISRC GBAYC0101650
INDEX 00 34:41:20
INDEX 01 34:44:02
TRACK 10 AUDIO
TITLE "Scherzo Op.42 No. 2"
PERFORMER "Maxim Vengerov"
ISRC GBAYC0101651
INDEX 00 38:26:05
INDEX 01 38:29:11
TRACK 11 AUDIO
TITLE "Ave Maria Op.52 No. 6"
PERFORMER "Maxim Vengerov"
ISRC GBAYC0101652
INDEX 00 42:48:28
INDEX 01 42:53:14
TRACK 12 AUDIO
TITLE "La Ronde des Lutins Op. 25"
PERFORMER "Maxim Vengerov"
ISRC GBAYC0101653
INDEX 00 48:39:33
INDEX 01 48:44:24
TRACK 13 AUDIO
TITLE "Sabre Dance from 'Gayaneh'"
PERFORMER "Maxim Vengerov"
ISRC GBAYC0101654
INDEX 00 54:11:70
INDEX 01 54:13:38
TRACK 14 AUDIO
TITLE "Meditation from 'Thais'"
PERFORMER "Maxim Vengerov"
ISRC GBAYC0101655
INDEX 00 56:34:30
INDEX 01 56:39:03
TRACK 15 AUDIO
TITLE "Czardas"
PERFORMER "Maxim Vengerov"
ISRC GBAYC0101656
INDEX 00 62:39:63
INDEX 01 62:44:53
Отчёт auCDtect Task manager
-----------------------
DON'T MODIFY THIS FILE
-----------------------
PERFORMER: auCDtect Task Manager, ver. 1.5.1RC6 build 1.5.1.7
Copyright (c) 2008-2010 y-soft. All rights reserved
http://y-soft.org
ANALYZER: auCDtect: CD records authenticity detector, version 0.8.2
Copyright (c) 2004 Oleg Berngardt. All rights reserved.
Copyright (c) 2004 Alexander Djourik. All rights reserved.
FILE: M.Vengerov - Phenomenal Vengerov CD3.flac
Size: 313891465 Hash: 94A921DF388E76A74F21649D6F82158C Accuracy: -m0
Conclusion: CDDA 100%
Signature: C111DC262CC173CA10A8EF5E9D92C0FF0D65BC94
Download
Для скачивания .torrent файлов необходима регистрация
Сайт не распространяет и не хранит электронные версии произведений, а лишь предоставляет доступ к создаваемому пользователями каталогу ссылок на торрент-файлы, которые содержат только списки хеш-сумм
[Профиль]  [ЛС] 

el coronel

VIP (Заслуженный)

Стаж: 8 лет 7 месяцев

Сообщений: 4610

el coronel · 28-Янв-12 11:24 (спустя 23 часа)

[Цитировать] 

222_QQ
В заголовке темы фамилию Венгерова укажите, пожалуйста, на русском. Также приведите фамилии композиторов - на языке оригинала, в круглых скобках, после названия сборника.
Требования к оформлению треклистов:
Цитата:
При раздаче дисков с музыкальными произведениями, каждое из которых занимает несколько треков, фамилию композитора, название произведения и фамилии исполнителей следует указывать один раз для всего произведения.
Исправьте.
[Профиль]  [ЛС] 

c_noob

Стаж: 7 лет 1 месяц

Сообщений: 4

c_noob · 07-Фев-13 07:11 (спустя 1 год)

[Цитировать] 

Смотрю на обложку и думаю, когла же снимут фильм про Максима Венгерова с Безруковым всея Руси в главной роли??
[Профиль]  [ЛС] 

стрихнин

Стаж: 7 лет 3 месяца

Сообщений: 21


стрихнин · 28-Мар-13 16:39 (спустя 1 месяц 21 день)

[Цитировать] 

Очень понравились венгерские танцы.Спасибо!!!
[Профиль]  [ЛС] 
 
Ответить
Loading...
Error