(Latin Pop) Alejandro Sanz - Mas - 1997, FLAC (image+.cue), lossless

Страницы:  1

Ответить
Автор
Сообщение

Morra GTX

Top Seed 01* 40r

Стаж: 10 лет 5 месяцев

Сообщений: 87

Morra GTX · 22-Фев-09 17:34 (9 лет 8 месяцев назад)

Alejandro Sanz - Más
Жанр: Latin Pop
Год выпуска диска: 1997
Производитель диска: Germany
Аудио кодек: FLAC
Тип рипа: image+.cue
Битрейт аудио: lossless
Продолжительность: 51:01
Трэклист:
01. Y, Їsi Fuera Ella? (5:23)
02. Ese Ultimo Momento (5:04)
03. Corazon Partio (5:45)
04. Siempre Es De Noche (4:47)
05. La Margarita Dijo No (4:52)
06. Hoy Que No Estas (5:09)
07. Un Charquito De Estrellas (4:51)
08. Amiga Mia (4:47)
09. Si Hay Dios... (5:36)
10. Aquello Que Me Diste (4:46)
EAC log
Exact Audio Copy V0.99 prebeta 4 from 23. January 2008
EAC extraction logfile from 23. October 2008, 15:12
Alejandro Sanz / Mas
Used drive : HL-DT-STDVD-ROM GDR8163B Adapter: 1 ID: 0
Read mode : Secure
Utilize accurate stream : Yes
Defeat audio cache : Yes
Make use of C2 pointers : No
Read offset correction : 102
Overread into Lead-In and Lead-Out : No
Fill up missing offset samples with silence : Yes
Delete leading and trailing silent blocks : No
Null samples used in CRC calculations : Yes
Used interface : Installed external ASPI interface
Used output format : Internal WAV Routines
Sample format : 44.100 Hz; 16 Bit; Stereo
TOC of the extracted CD
Track | Start | Length | Start sector | End sector
---------------------------------------------------------
1 | 0:00.00 | 5:22.60 | 0 | 24209
2 | 5:22.60 | 5:04.12 | 24210 | 47021
3 | 10:26.72 | 5:45.18 | 47022 | 72914
4 | 16:12.15 | 4:47.15 | 72915 | 94454
5 | 20:59.30 | 4:52.30 | 94455 | 116384
6 | 25:51.60 | 5:09.37 | 116385 | 139596
7 | 31:01.22 | 4:50.48 | 139597 | 161394
8 | 35:51.70 | 4:47.15 | 161395 | 182934
9 | 40:39.10 | 5:36.12 | 182935 | 208146
10 | 46:15.22 | 4:45.73 | 208147 | 229594
Range status and errors
Selected range
Filename C:\AUDIORIPS\Alejandro Sanz - Mas.wav
Peak level 100.0 %
Range quality 100.0 %
Copy CRC 2736E14E
Copy OK
No errors occurred
AccurateRip summary
Track 1 cannot be verified as accurate (confidence 1) [2D16DE19], AccurateRip returned [30D14DE0]
Track 2 accurately ripped (confidence 1) [1D152436]
Track 3 accurately ripped (confidence 1) [0C708742]
Track 4 accurately ripped (confidence 1) [FA42D7D5]
Track 5 accurately ripped (confidence 1) [7C3C7C18]
Track 6 accurately ripped (confidence 1) [B1C69F82]
Track 7 accurately ripped (confidence 1) [AB403377]
Track 8 accurately ripped (confidence 1) [A3FF913C]
Track 9 accurately ripped (confidence 1) [EF5E3A8A]
Track 10 accurately ripped (confidence 1) [E2FD3B49]
9 track(s) accurately ripped
1 track(s) could not be verified as accurate
Some tracks could not be verified as accurate
End of status report
Download
Для скачивания .torrent файлов необходима регистрация
Сайт не распространяет и не хранит электронные версии произведений, а лишь предоставляет доступ к создаваемому пользователями каталогу ссылок на торрент-файлы, которые содержат только списки хеш-сумм
[Профиль]  [ЛС] 

vecheroma

Top Bonus 03* 1TB

Стаж: 10 лет 4 месяца

Сообщений: 70

vecheroma · 06-Мар-09 12:34 (спустя 11 дней)

[Цитировать] 

О, вот и Sanz наконец в сети появился. Замечательно!
Ждём теперь "El Alma al Aire".
Кстати, название первой песни в треклисте поправьте.
[Профиль]  [ЛС] 

Andresito

Стаж: 9 лет 9 месяцев

Сообщений: 18

Andresito · 28-Май-09 11:57 (спустя 2 месяца 21 день)

[Цитировать] 

Хэлп. при декодировании flac fronted пишет, что ошибка при открытии фала, либо файла не существует либо он не читаемый. кто-нибудь с этим сталкивался? =(
[Профиль]  [ЛС] 

Morra GTX

Top Seed 01* 40r

Стаж: 10 лет 5 месяцев

Сообщений: 87

Morra GTX · 28-Май-09 15:02 (спустя 3 часа, ред. 17-Июл-09 00:07)

[Цитировать] 

Andresito, бывает.
Попробуй сначала расжать в WAV а потом сжать куда тебе нужно
[Профиль]  [ЛС] 

Andresito

Стаж: 9 лет 9 месяцев

Сообщений: 18

Andresito · 28-Май-09 18:46 (спустя 3 часа)

[Цитировать] 

ну так я и пытаюсь расжать в WAV с помощью Флак, а не получается(
[Профиль]  [ЛС] 

espoir

VIP (Заслуженный)

Стаж: 12 лет

Сообщений: 1279

espoir · 28-Май-09 18:55 (спустя 8 мин.)

[Цитировать] 

Andresito попробуйте разжать чем-либо другим, возможно от другой программы получите информативное сообщение об ошибке, которое поможет понять в чем дело, либо вообще получится отконвертировать...
[Профиль]  [ЛС] 

Andresito

Стаж: 9 лет 9 месяцев

Сообщений: 18

Andresito · 28-Май-09 19:50 (спустя 55 мин.)

[Цитировать] 

спасибо, попробовал. разжал в вав с помощью XRECODE. но неро все равно писать не хочет(((((((((((((( пишет: не открыть .cue файл. хотя файл вроде нормальный и все записано правильно (FILE "Название файла.wav" WAVE) =((( прямо беда....
[Профиль]  [ЛС] 

espoir

VIP (Заслуженный)

Стаж: 12 лет

Сообщений: 1279

espoir · 28-Май-09 21:01 (спустя 1 час 10 мин.)

[Цитировать] 

Andresito попробуйте переместить и wav и cue файл в другую папку и попробовать прожечь оттуда (может быть дело в том что изначально после скачивания оба файла лежат в папке с именем "Alejandro Sanz - Más" а далеко не все программы "дружат" с папками и файлами, в именах которых есть символы расширенной латиницы вроде "á")
[Профиль]  [ЛС] 

maxi_c_v8

Стаж: 7 лет 10 месяцев

Сообщений: 36

maxi_c_v8 · 27-Фев-12 16:03 (спустя 2 года 8 месяцев)

[Цитировать] 

muchas gracias por tu trabajo en ripear los discos en calidad lossless !!!!
thank you very much for your work on disks rip as lossless!!
[Профиль]  [ЛС] 
 
Ответить
Loading...
Error