(Classical) Percy Grainger - Complete 78rpm Solo Recordings (1908 - 1945): Bach, Chopin, Schumann, Grieg, Liszt, Brahms, Debussy, Grainger, Dett, etc. - 2011, APR, APE (image+.cue) lossless

Страницы:  1

Тема закрыта
Автор
Сообщение

logaber

Стаж: 10 лет 9 месяцев

Сообщений: 1721

logaber · 15-Фев-11 09:32 (7 лет 6 месяцев назад, ред. 15-Фев-11 09:34)

Percy Grainger - Complete 78rpm Solo Recordings (1908 - 1945): Bach, Chopin, Schumann, Grieg, Liszt, Brahms, Debussy, Grainger, Dett, etc. - 2011, APR
Жанр: Classical
Страна-производитель дисков: Poland
Год издания дисков: 2011
Издатель (лейбл): APR
Номер по каталогу: 7501
Дата записи: 1908-1945
Аудиокодек: APE
Тип рипа: image+.cue
Битрейт аудио: lossless
Продолжительность: 6 hours 30 minutes
Источник: блог "Invocation through Music"
Наличие сканов: да



Percy Grainger/ Перси Грейнджер: Австралиец Перси Грейнджер был не только отличным композитором и пианистом, но и весьма эксцентричным человеком. Он страстно пропагандировал принципы здорового питания еще задолго до того, как это стало модным. Кроме того, своим независимым поведением он раздражал многих из окружавших его людей, например тем, что являлся на концерты с рюкзаком за спиной! Стоит ли удивляться тому, что Грейнджер пожелал, чтобы после смерти его скелет был выставлен в музее? Но необычный характер и эксцентричность поведения композитора не помешали ему удивлять критиков и обычную публику своей игрой на фортепьяно и стать всемирно известным музыкантом...
Трэклист
CD 1 Acoustic Recordings (1908 - 1914)
01. Grieg: Concerto In A Minor, Op. 16 - 1st Movement Cadenza
02. Liszt: Hungarian Rhapsodies, S 244 - #12 In C Sharp Minor
03. Stanford/Grainger: 4 Irish Dances - #1 A March-Jig, 'Maguire...
04. Grainger: Shepherd's Hey
05. Grainger: Mock Morris
06. Debussy: Pour Le Piano - 3. Toccata In C Sharp Minor
07. Handel/Grainger: Water Music - Hornpipe
08. Gluck/Brahms: Iphigйnie En Aulide - Gavotte
09. Chopin: Waltz In A Flat, Op. 42
10. Chopin: 24 Preludes, Op. 28 - #17 In A Flat: Allegretto
11. Chopin: 24 Preludes, Op. 28 - #17 In A Flat: Allegretto
12. Chopin: Polonaise In A Flat, Op. 53 (Abridged)
13. Chopin: Scherzo #2 In B Flat Minor, Op. 31 (Abridged)
14. Schumann: Fantasiestьcke, Op. 12 - Book 1 #3 Warum?
15. Liszt: Hungarian Rhapsodies, S 244 - #02 In C Sharp Minor
16. Liszt: Hungarian Rhapsodies, S 244 - #12 In C Sharp Minor
17. Liszt: Hungarian Rhapsodies, S 244 - #15 In A Minor
18. Liszt: 2 Polonaises, S 223 - #2 In E
CD 2 Acoustic Recordings (1917 - 1924)
01. Liszt: Fantasia On Hungarian Folk
02. Liszt: Liebestrдume, S541, '3 Notturnos Fьr Das Pianoforte' - #3 O Lieb...
03. Brahms/Grainger: Cradle Song
04. Brahms: Waltz In A Flat, Op. 39/15
05. Dett: In The Bottoms - Juba Dance
06. Guion: Turkey In The Straw
07. MacDowell: Woodland Sketches - To A Water-Lily
08. Sinding: 6 Pieces, Op. 32 - #3 Rustles Of Spring
09. Scharwenka: 5 Polish Dances, Op. 3 - #1 In E Flat Minor: Con Fuoco
10. Tchaikovsky/Grainger: Paraphrase On Flower Waltz
11. Tchaikovsky/Grainger: Paraphrase On Flower Waltz
12. Debussy: Children's Corner - #6 Golliwog's Cake-Walk
13. Grieg: Weddding Day At Troldhaugen, Op. 65/6
14. Grieg: Norwegian Bridal Procession, Op. 19/2
15. Grieg: Norwegian Bridal Procession, Op. 19/2
16. Greig: To Spring, Op. 43/6
17. Grainger: One More Day, My John
18. Grainger: Spoon River
19. Grainger: Molly On The Shore
20. Grainger: Country Gardens
21. Grainger: Shepherd's Hey
22. Grainger: Country Gardens
23. Grainger: Shepherd's Hey
24. Grainger: In A Nutshell - March: The Gum-Suckers
CD 3 Electrical Recordings (1925 - 1931)
01. Bach/Tausig/Busoni/Grainger: Toccata & Fugue In D Minor
02. Bach/Liszt: Prelude & Fugue In A Minor, BWV 543
03. Bach/Liszt: Fantasia & Fugue In G Minor, BWV 542
04-07. Schumann: Piano Sonata #2 In G Minor, Op. 22
08-20. Schumann: Etudes Symphoniques, Op. 13
21. Schumann: Romance In F Sharp, Op. 28/2
22 Liszt: Liebestrдume, S541
CD 4 Electrical Recordings (1925 - 1931) (continued)
01-04. Chopin: Piano Sonata #2 In B Flat Minor, Op. 35
05-08. Chopin: Piano Sonata #3 In B Minor, Op. 58
09. Chopin: 24 Preludes, Op. 28 - #17 In A Flat: Allegretto
10. Chopin: Etudes, Op. 25 - #10 In B Minor
11. Chopin: Etudes, Op. 25 - #12 In C Minor
12. Brahms: Waltz In A Flat, Op. 39/15
13. Grieg: Wedding Day At Troldhaugen, Op. 65/6
14. Grieg: To Spring, Op. 43/6
15. Grainger: One More Day, My John
16. Debussy: Suite Bergamasque - 3. Clair De Lune
17. Debussy: Pour Le Piano - 3. Toccata In C Sharp Minor
18. Guion: Sheep & Goats Walkin' To The Pasture
19. Bach: Partita #1 In B Flat, BWV 825 - 6. Giga
CD 5 Electrical Recordings (1925 - 1931) (continued)
01-05. Brahms: Piano Sonata #3 In F Minor, Op. 5
06. Brahms/Grainger: Cradle Song
07. Bach/Grainger: Blithe Bells
08. Grainger: Ramble On Love
09. Grainger: Molly On The Shore
10. Grainger: Country Gardens
11. Grainger: Shepherd's Hey
12. Grainger: Jutish Medley
13. Grainger: Molly On The Shore
14. Grainger: Irish Tune From County Derry
15. Grainger: Country Gardens
16. Grainger: One More Day, My John
17. Dett: In The Bottoms - Juba Dance
18. Dett: In The Bottoms - Prelude: Night
19. Scott (C): Pierrot Pieces - Lento
20. Scott (C): Danse Nиgre
21. Scott (C): Cherry Ripe
Исполнители
Percy Grainger (piano)
Лог создания рипа

CD 1
Exact Audio Copy V0.99 prebeta 3 from 28. July 2007
EAC extraction logfile from 12. February 2011, 23:14
Percy Grainger / Grainger: The Complete 78-RPM Solo Recordings [Disc 1]
Used drive : ATAPI iHAS422 8 Adapter: 9 ID: 0
Read mode : Secure
Utilize accurate stream : Yes
Defeat audio cache : Yes
Make use of C2 pointers : No
Read offset correction : 6
Overread into Lead-In and Lead-Out : No
Fill up missing offset samples with silence : Yes
Delete leading and trailing silent blocks : No
Null samples used in CRC calculations : Yes
Used interface : Installed external ASPI interface
Used output format : Internal WAV Routines
Sample format : 44.100 Hz; 16 Bit; Stereo
TOC of the extracted CD
Track | Start | Length | Start sector | End sector
---------------------------------------------------------
1 | 0:00.00 | 2:43.45 | 0 | 12269
2 | 2:43.45 | 3:55.12 | 12270 | 29906
3 | 6:38.57 | 2:42.32 | 29907 | 42088
4 | 9:21.14 | 1:52.56 | 42089 | 50544
5 | 11:13.70 | 3:24.02 | 50545 | 65846
6 | 14:37.72 | 3:45.50 | 65847 | 82771
7 | 18:23.47 | 2:19.63 | 82772 | 93259
8 | 20:43.35 | 3:01.41 | 93260 | 106875
9 | 23:45.01 | 3:55.07 | 106876 | 124507
10 | 27:40.08 | 4:16.07 | 124508 | 143714
11 | 31:56.15 | 4:25.05 | 143715 | 163594
12 | 36:21.20 | 4:32.11 | 163595 | 184005
13 | 40:53.31 | 6:16.53 | 184006 | 212258
14 | 47:10.09 | 2:13.01 | 212259 | 222234
15 | 49:23.10 | 8:15.38 | 222235 | 259397
16 | 57:38.48 | 8:30.12 | 259398 | 297659
17 | 66:08.60 | 4:20.32 | 297660 | 317191
18 | 70:29.17 | 8:40.23 | 317192 | 356214
Range status and errors
Selected range
Filename F:\Percy Grainger - Complete 78rpm Solo Recordings\Percy Grainger - The Complete 78-RPM Solo Recordings [Disc 1].wav
Peak level 98.5 %
Range quality 100.0 %
Copy CRC 24B3A6A5
Copy OK
No errors occurred
AccurateRip summary
Track 1 not present in database
Track 2 not present in database
Track 3 not present in database
Track 4 not present in database
Track 5 not present in database
Track 6 not present in database
Track 7 not present in database
Track 8 not present in database
Track 9 not present in database
Track 10 not present in database
Track 11 not present in database
Track 12 not present in database
Track 13 not present in database
Track 14 not present in database
Track 15 not present in database
Track 16 not present in database
Track 17 not present in database
Track 18 not present in database
None of the tracks are present in the AccurateRip database
End of status report
CD 2
Exact Audio Copy V0.99 prebeta 3 from 28. July 2007
EAC extraction logfile from 12. February 2011, 23:28
Percy Grainger / Grainger: The Complete 78-RPM Solo Recordings [Disc 2]
Used drive : ATAPI iHAS422 8 Adapter: 9 ID: 0
Read mode : Secure
Utilize accurate stream : Yes
Defeat audio cache : Yes
Make use of C2 pointers : No
Read offset correction : 6
Overread into Lead-In and Lead-Out : No
Fill up missing offset samples with silence : Yes
Delete leading and trailing silent blocks : No
Null samples used in CRC calculations : Yes
Used interface : Installed external ASPI interface
Used output format : Internal WAV Routines
Sample format : 44.100 Hz; 16 Bit; Stereo
TOC of the extracted CD
Track | Start | Length | Start sector | End sector
---------------------------------------------------------
1 | 0:00.00 | 8:27.18 | 0 | 38042
2 | 8:27.18 | 4:37.40 | 38043 | 58857
3 | 13:04.58 | 3:11.28 | 58858 | 73210
4 | 16:16.11 | 1:34.30 | 73211 | 80290
5 | 17:50.41 | 2:04.28 | 80291 | 89618
6 | 19:54.69 | 2:39.02 | 89619 | 101545
7 | 22:33.71 | 2:20.61 | 101546 | 112106
8 | 24:54.57 | 2:50.73 | 112107 | 124929
9 | 27:45.55 | 4:17.65 | 124930 | 144269
10 | 32:03.45 | 4:13.61 | 144270 | 163305
11 | 36:17.31 | 4:21.36 | 163306 | 182916
12 | 40:38.67 | 3:08.12 | 182917 | 197028
13 | 43:47.04 | 4:24.64 | 197029 | 216892
14 | 48:11.68 | 3:58.48 | 216893 | 234790
15 | 52:10.41 | 3:45.06 | 234791 | 251671
16 | 55:55.47 | 2:18.39 | 251672 | 262060
17 | 58:14.11 | 1:36.21 | 262061 | 269281
18 | 59:50.32 | 2:24.48 | 269282 | 280129
19 | 62:15.05 | 3:37.40 | 280130 | 296444
20 | 65:52.45 | 2:09.71 | 296445 | 306190
21 | 68:02.41 | 2:06.63 | 306191 | 315703
22 | 70:09.29 | 1:48.48 | 315704 | 323851
23 | 71:58.02 | 2:06.07 | 323852 | 333308
24 | 74:04.09 | 3:05.30 | 333309 | 347213
Range status and errors
Selected range
Filename F:\Percy Grainger - Complete 78rpm Solo Recordings\Percy Grainger - The Complete 78-RPM Solo Recordings [Disc 2].wav
Peak level 93.9 %
Range quality 100.0 %
Copy CRC 00899C38
Copy OK
No errors occurred
AccurateRip summary
Track 1 not present in database
Track 2 not present in database
Track 3 not present in database
Track 4 not present in database
Track 5 not present in database
Track 6 not present in database
Track 7 not present in database
Track 8 not present in database
Track 9 not present in database
Track 10 not present in database
Track 11 not present in database
Track 12 not present in database
Track 13 not present in database
Track 14 not present in database
Track 15 not present in database
Track 16 not present in database
Track 17 not present in database
Track 18 not present in database
Track 19 not present in database
Track 20 not present in database
Track 21 not present in database
Track 22 not present in database
Track 23 not present in database
Track 24 not present in database
None of the tracks are present in the AccurateRip database
End of status report
CD 3
Exact Audio Copy V0.99 prebeta 3 from 28. July 2007
EAC extraction logfile from 12. February 2011, 23:54
Percy Grainger / Grainger: The Complete 78-RPM Solo Recordings [Disc 3]
Used drive : ATAPI iHAS422 8 Adapter: 9 ID: 0
Read mode : Secure
Utilize accurate stream : Yes
Defeat audio cache : Yes
Make use of C2 pointers : No
Read offset correction : 6
Overread into Lead-In and Lead-Out : No
Fill up missing offset samples with silence : Yes
Delete leading and trailing silent blocks : No
Null samples used in CRC calculations : Yes
Used interface : Installed external ASPI interface
Used output format : Internal WAV Routines
Sample format : 44.100 Hz; 16 Bit; Stereo
TOC of the extracted CD
Track | Start | Length | Start sector | End sector
---------------------------------------------------------
1 | 0:00.00 | 9:02.02 | 0 | 40651
2 | 9:02.02 | 10:37.49 | 40652 | 88475
3 | 19:39.51 | 11:51.55 | 88476 | 141855
4 | 31:31.31 | 5:04.38 | 141856 | 164693
5 | 36:35.69 | 3:22.70 | 164694 | 179913
6 | 39:58.64 | 1:49.73 | 179914 | 188161
7 | 41:48.62 | 5:35.13 | 188162 | 213299
8 | 47:24.00 | 1:18.60 | 213300 | 219209
9 | 48:42.60 | 1:14.37 | 219210 | 224796
10 | 49:57.22 | 1:44.30 | 224797 | 232626
11 | 51:41.52 | 1:19.52 | 232627 | 238603
12 | 53:01.29 | 0:45.26 | 238604 | 242004
13 | 53:46.55 | 1:17.05 | 242005 | 247784
14 | 55:03.60 | 0:48.53 | 247785 | 251437
15 | 55:52.38 | 1:19.03 | 251438 | 257365
16 | 57:11.41 | 1:44.41 | 257366 | 265206
17 | 58:56.07 | 0:42.61 | 265207 | 268417
18 | 59:38.68 | 0:42.58 | 268418 | 271625
19 | 60:21.51 | 1:41.28 | 271626 | 279228
20 | 62:03.04 | 5:54.02 | 279229 | 305780
21 | 67:57.06 | 3:48.66 | 305781 | 322946
22 | 71:45.72 | 4:33.40 | 322947 | 343461
Range status and errors
Selected range
Filename F:\Percy Grainger - Complete 78rpm Solo Recordings\Percy Grainger - The Complete 78-RPM Solo Recordings [Disc 3].wav
Peak level 91.2 %
Range quality 99.9 %
Copy CRC AD46E639
Copy OK
No errors occurred
AccurateRip summary
Track 1 not present in database
Track 2 not present in database
Track 3 not present in database
Track 4 not present in database
Track 5 not present in database
Track 6 not present in database
Track 7 not present in database
Track 8 not present in database
Track 9 not present in database
Track 10 not present in database
Track 11 not present in database
Track 12 not present in database
Track 13 not present in database
Track 14 not present in database
Track 15 not present in database
Track 16 not present in database
Track 17 not present in database
Track 18 not present in database
Track 19 not present in database
Track 20 not present in database
Track 21 not present in database
Track 22 not present in database
None of the tracks are present in the AccurateRip database
End of status report
CD 4
Exact Audio Copy V0.99 prebeta 3 from 28. July 2007
EAC extraction logfile from 13. February 2011, 0:06
Percy Grainger / Grainger: The Complete 78-RPM Solo Recordings [Disc 4]
Used drive : ATAPI iHAS422 8 Adapter: 9 ID: 0
Read mode : Secure
Utilize accurate stream : Yes
Defeat audio cache : Yes
Make use of C2 pointers : No
Read offset correction : 6
Overread into Lead-In and Lead-Out : No
Fill up missing offset samples with silence : Yes
Delete leading and trailing silent blocks : No
Null samples used in CRC calculations : Yes
Used interface : Installed external ASPI interface
Used output format : Internal WAV Routines
Sample format : 44.100 Hz; 16 Bit; Stereo
TOC of the extracted CD
Track | Start | Length | Start sector | End sector
---------------------------------------------------------
1 | 0:00.00 | 5:33.61 | 0 | 25035
2 | 5:33.61 | 5:56.63 | 25036 | 51798
3 | 11:30.49 | 6:26.50 | 51799 | 80798
4 | 17:57.24 | 1:46.31 | 80799 | 88779
5 | 19:43.55 | 9:33.74 | 88780 | 131828
6 | 29:17.54 | 2:36.62 | 131829 | 143590
7 | 31:54.41 | 7:31.48 | 143591 | 177463
8 | 39:26.14 | 4:58.44 | 177464 | 199857
9 | 44:24.58 | 4:06.17 | 199858 | 218324
10 | 48:31.00 | 3:40.49 | 218325 | 234873
11 | 52:11.49 | 2:36.42 | 234874 | 246615
12 | 54:48.16 | 1:43.28 | 246616 | 254368
13 | 56:31.44 | 4:37.48 | 254369 | 275191
14 | 61:09.17 | 2:29.67 | 275192 | 286433
15 | 63:39.09 | 1:34.71 | 286434 | 293554
16 | 65:14.05 | 4:24.28 | 293555 | 313382
17 | 69:38.33 | 3:43.07 | 313383 | 330114
18 | 73:21.40 | 2:47.42 | 330115 | 342681
19 | 76:09.07 | 1:28.32 | 342682 | 349313
Range status and errors
Selected range
Filename F:\Percy Grainger - Complete 78rpm Solo Recordings\Percy Grainger - The Complete 78-RPM Solo Recordings [Disc 4].wav
Peak level 96.0 %
Range quality 99.9 %
Copy CRC 2230C552
Copy OK
No errors occurred
AccurateRip summary
Track 1 not present in database
Track 2 not present in database
Track 3 not present in database
Track 4 not present in database
Track 5 not present in database
Track 6 not present in database
Track 7 not present in database
Track 8 not present in database
Track 9 not present in database
Track 10 not present in database
Track 11 not present in database
Track 12 not present in database
Track 13 not present in database
Track 14 not present in database
Track 15 not present in database
Track 16 not present in database
Track 17 not present in database
Track 18 not present in database
Track 19 not present in database
None of the tracks are present in the AccurateRip database
End of status report
CD 5
Exact Audio Copy V0.99 prebeta 3 from 28. July 2007
EAC extraction logfile from 13. February 2011, 0:31
Percy Grainger / Grainger: The Complete 78-RPM Solo Recordings [Disc 5]
Used drive : ATAPI iHAS422 8 Adapter: 9 ID: 0
Read mode : Secure
Utilize accurate stream : Yes
Defeat audio cache : Yes
Make use of C2 pointers : No
Read offset correction : 6
Overread into Lead-In and Lead-Out : No
Fill up missing offset samples with silence : Yes
Delete leading and trailing silent blocks : No
Null samples used in CRC calculations : Yes
Used interface : Installed external ASPI interface
Used output format : Internal WAV Routines
Sample format : 44.100 Hz; 16 Bit; Stereo
TOC of the extracted CD
Track | Start | Length | Start sector | End sector
---------------------------------------------------------
1 | 0:00.00 | 7:41.33 | 0 | 34607
2 | 7:41.33 | 8:44.57 | 34608 | 73964
3 | 16:26.15 | 3:54.46 | 73965 | 91560
4 | 20:20.61 | 2:45.25 | 91561 | 103960
5 | 23:06.11 | 8:18.47 | 103961 | 141357
6 | 31:24.58 | 3:06.67 | 141358 | 155374
7 | 34:31.50 | 3:43.29 | 155375 | 172128
8 | 38:15.04 | 6:10.14 | 172129 | 199892
9 | 44:25.18 | 3:27.10 | 199893 | 215427
10 | 47:52.28 | 1:53.17 | 215428 | 223919
11 | 49:45.45 | 2:04.63 | 223920 | 233282
12 | 51:50.33 | 8:02.60 | 233283 | 269492
13 | 59:53.18 | 3:23.61 | 269493 | 284778
14 | 63:17.04 | 3:04.71 | 284779 | 298649
15 | 66:22.00 | 1:54.31 | 298650 | 307230
16 | 68:16.31 | 1:31.09 | 307231 | 314064
17 | 69:47.40 | 1:57.72 | 314065 | 322911
18 | 71:45.37 | 1:28.33 | 322912 | 329544
19 | 73:13.70 | 3:03.13 | 329545 | 343282
20 | 76:17.08 | 1:56.11 | 343283 | 351993
21 | 78:13.19 | 1:33.24 | 351994 | 358992
Range status and errors
Selected range
Filename F:\Percy Grainger - Complete 78rpm Solo Recordings\Percy Grainger - The Complete 78-RPM Solo Recordings [Disc 5].wav
Peak level 95.4 %
Range quality 100.0 %
Copy CRC 7E636035
Copy OK
No errors occurred
AccurateRip summary
Track 1 not present in database
Track 2 not present in database
Track 3 not present in database
Track 4 not present in database
Track 5 not present in database
Track 6 not present in database
Track 7 not present in database
Track 8 not present in database
Track 9 not present in database
Track 10 not present in database
Track 11 not present in database
Track 12 not present in database
Track 13 not present in database
Track 14 not present in database
Track 15 not present in database
Track 16 not present in database
Track 17 not present in database
Track 18 not present in database
Track 19 not present in database
Track 20 not present in database
Track 21 not present in database
None of the tracks are present in the AccurateRip database
End of status report
Download
Для скачивания .torrent файлов необходима регистрация
Сайт не распространяет и не хранит электронные версии произведений, а лишь предоставляет доступ к создаваемому пользователями каталогу ссылок на торрент-файлы, которые содержат только списки хеш-сумм
[Профиль]  [ЛС] 

LvB_RW

Стаж: 9 лет 8 месяцев

Сообщений: 128

LvB_RW · 22-Дек-11 02:02 (спустя 10 месяцев)

[Цитировать] 

Волшебные записи! Огромнейшее спасибо! Великий пианист.
[Профиль]  [ЛС] 
 
Тема закрыта
Loading...
Error