(symphony) Mozart, Wolfgang Amadeus – 23 Symphonies / Sechs deutsche Tanze / Les Petits Riens – Amsterdam Baroque Orchestra, Ton Koopman / Royal Concertgebouw Orchestra, Nikolaus Harnoncourt – 8CD - 2005, FLAC (tracks+.cue), lossless

Страницы:  1

Ответить
Автор
Сообщение

omni-nominis

Top Seed 03* 160r

Стаж: 10 лет 5 месяцев

Сообщений: 247

omni-nominis · 31-Авг-10 19:17 (8 лет 1 месяц назад)

Mozart, Wolfgang Amadeus – 23 Symphonies / Sechs deutsche Tanze / Les Petits Riens
Жанр: symphony
Год выпуска диска: 2005
Производитель диска: Warner Classics
Аудио кодек: FLAC
Тип рипа: tracks+.cue
Битрейт аудио: lossless
Общая продолжительность: 09h 00m 05s
Источник: собственный рип
Треклист:
скрытый текст
CD 1
Symphony No. 17 In G Major, K129
01. Allegro
02. Andante
03. Allegro
Symphony No. 18 In F Major, K130
04. Allegro
05. Andantino Grazioso
06. Menuetto
07. Molto Allegro
Symphony No. 19 In E Flat Major, K132
08. Allegro
09. Andante
10. Menuetto-Trio
11. Allegro (Rondeau)
12. Andantino Grazioso
Symphony No. 22 In С Major, K162
13. Allegro Assai
14. Andantino Grazioso
15. Presto Assai
Amsterdam Baroque Orchestra
Ton Koopman

CD 2
Symphony No. 21 In A Major, K134
01. Allegro
02. Andante
03. Menuetto & Trio
04. Allegro
Symphony No. 23 In D Major, K181
05. Allegro Spiritoso
06. Andantino Grazioso
07. Presto Assai
Symphony No. 24 In В Flat Major, K182
08. Allegro Spiritoso
09. Andantino Grazioso
10. Allegro
Symphony No. 27 In G Major, K199
11. Allegro
12. Andantino Grazioso
13. Presto
Amsterdam Baroque Orchestra
Ton Koopman

CD 3
Six German Dances, K571
01. No. 1 In D Major
02. No. 2 In A Major
03. No. 3 In С Major
04. No. 4 In G Major
05. No. 5 In В Flat Major
06. No. 6 In D Major
07-19. Les Petits Riens, K299b
Scottish Chamber Orchestra
Raymond Leppard

Symphony No. 25 In G Minor, K183
20. Allegro Con Brio
21. Andante
22. Menuetto
23. Allegro
Symphony No. 26 In E Flat Major, K184
24. Molto Presto
25. Andantino Grazioso
26. Allegro
Royal Concertgebouw Orchestra
Nikolaus Harnoncourt

CD 4
Symphony No. 28 In С Major, K200
01. Allegro Spiritoso
02. Andante
03. Menuetto: Allegretto
04. Presto
Symphony No. 29 In A Major, K201
05. Allegro Moderato
06. Andante
07. Menuetto
08. Allegro Con Spirito
Symphony No. 30 In D Major, K202
09. Molto Allegro
10. Andantino Con Moto
11. Menuetto
12. Presto

Royal Concertgebouw Orchestra
Nikolaus Harnoncourt

CD 5
Symphony No. 31 In D Major, K297 "Paris"
01. Allegro Assai
02. Andante
03. Allegro
04. Andante (2nd Version)
Symphony No. 33 In В Flat Major, K319
05. Allegro Assai
06. Andante Moderato
07. Menuetto
08. Allegro Assai
Symphony No. 34 In С Major, K338
09. Allegro Vivace
10. Andante Di Molto, Piu Tosto Allegretto
11. Allegro
Royal Concertgebouw Orchestra
Nikolaus Harnoncourt

CD 6
Symphony No. 32 In G Major, K318
01. Allegro Spiritoso
02. Andante
03. Primo Tempo
Symphony No. 35 In D Major, K385 "Haffner"
04. Allegro Con Spirito
05. Andante
06. Menuetto
07. Presto
Symphony No. 36 In С Major, K425 "Linz"
08. Adagio - Allegro Spiritoso
09. Andante
10. Menuetto
11. Presto
Royal Concertgebouw Orchestra
Nikolaus Harnoncourt

CD 7
Symphony No. 38 In D Major, K504 "Prague"
01. Adagio - Allegro
02. Andante
03. Presto
Symphony No. 39 In E Flat Major, K543
04. Adagio - Allegro
05. Andante Con Moto
06. Menuetto: Allegretto
07. Finale: Allegro
Royal Concertgebouw Orchestra
Nikolaus Harnoncourt

CD 8
Symphony No. 40 In G Minor, K550
01. Molto Allegro
02. Andante
03. Menuetto: Allegretto
04. Allegro Assai
Symphony No. 41 In С Major, K551 "Jupiter"
05. Allegro Vivace
06. Andante Cantabile
07. Menuetto: Allegretto
08. Molto Allegro
Royal Concertgebouw Orchestra
Nikolaus Harnoncourt
Logs EAC CD 1-4:
скрытый текст
Exact Audio Copy V0.99 prebeta 4 from 23. January 2008
EAC extraction logfile from 29. August 2010, 3:16
Amsterdan Baroque Orchestra, Ton Koopman / W.A.Mozart - Symphonies CD1
Used drive : PIONEER DVD-RW DVR-112D Adapter: 0 ID: 0
Read mode : Secure
Utilize accurate stream : Yes
Defeat audio cache : Yes
Make use of C2 pointers : No
Read offset correction : 48
Overread into Lead-In and Lead-Out : No
Fill up missing offset samples with silence : Yes
Delete leading and trailing silent blocks : No
Null samples used in CRC calculations : Yes
Used interface : Native Win32 interface for Win NT & 2000
Gap handling : Appended to previous track
Used output format : User Defined Encoder
Selected bitrate : 768 kBit/s
Quality : High
Add ID3 tag : No
Command line compressor : C:\Program Files\Exact Audio Copy\FLAC\FLAC.EXE
Additional command line options : -6 -V -T "ARTIST=%a" -T "TITLE=%t" -T "ALBUM=%g" -T "DATE=%y" -T "TRACKNUMBER=%n" -T "GENRE=%m" -T "COMMENT=%e" %s -o %d
TOC of the extracted CD
Track | Start | Length | Start sector | End sector
---------------------------------------------------------
1 | 0:00.00 | 4:44.71 | 0 | 21370
2 | 4:44.71 | 4:14.37 | 21371 | 40457
3 | 8:59.33 | 3:02.09 | 40458 | 54116
4 | 12:01.42 | 5:33.04 | 54117 | 79095
5 | 17:34.46 | 5:24.04 | 79096 | 103399
6 | 22:58.50 | 1:44.47 | 103400 | 111246
7 | 24:43.22 | 7:01.67 | 111247 | 142888
8 | 31:45.14 | 4:14.19 | 142889 | 161957
9 | 35:59.33 | 5:10.24 | 161958 | 185231
10 | 41:09.57 | 3:25.15 | 185232 | 200621
11 | 44:34.72 | 3:44.05 | 200622 | 217426
12 | 48:19.02 | 3:38.60 | 217427 | 233836
13 | 51:57.62 | 3:43.08 | 233837 | 250569
14 | 55:40.70 | 3:14.14 | 250570 | 265133
15 | 58:55.09 | 1:43.66 | 265134 | 272924
Track 1
Filename N:\MOZART, WOLFGANG AMADEUS\W.A.Mozart - Symphonies (250th Anniversary Edition) - 8CD Set\CD 1\01 - Symphony No.17 in G major, K129 - I Allegro - Amsterdan Baroque Orchestra, Ton Koopman.wav
Pre-gap length 0:00:02.00
Peak level 81.2 %
Track quality 100.0 %
Copy CRC 8BC62BB6
Accurately ripped (confidence 4) [FF45B1EE]
Copy OK
Track 2
Filename N:\MOZART, WOLFGANG AMADEUS\W.A.Mozart - Symphonies (250th Anniversary Edition) - 8CD Set\CD 1\02 - Symphony No.17 in G major, K129 - II Andante - Amsterdan Baroque Orchestra, Ton Koopman.wav
Peak level 40.7 %
Track quality 100.0 %
Copy CRC 544C35E9
Accurately ripped (confidence 4) [3B067489]
Copy OK
Track 3
Filename N:\MOZART, WOLFGANG AMADEUS\W.A.Mozart - Symphonies (250th Anniversary Edition) - 8CD Set\CD 1\03 - Symphony No.17 in G major, K129 - III Allegro - Amsterdan Baroque Orchestra, Ton Koopman.wav
Peak level 83.6 %
Track quality 99.9 %
Copy CRC B329E041
Accurately ripped (confidence 4) [7573C44C]
Copy OK
Track 4
Filename N:\MOZART, WOLFGANG AMADEUS\W.A.Mozart - Symphonies (250th Anniversary Edition) - 8CD Set\CD 1\04 - Symphony No18 in F major, K130 - I Allegro - Amsterdan Baroque Orchestra, Ton Koopman.wav
Pre-gap length 0:00:04.07
Peak level 76.0 %
Track quality 99.9 %
Copy CRC CF9DA968
Accurately ripped (confidence 4) [F2F78453]
Copy OK
Track 5
Filename N:\MOZART, WOLFGANG AMADEUS\W.A.Mozart - Symphonies (250th Anniversary Edition) - 8CD Set\CD 1\05 - Symphony No18 in F major, K130 - II Andantino grazioso - Amsterdan Baroque Orchestra, Ton Koopman.wav
Pre-gap length 0:00:01.13
Peak level 42.6 %
Track quality 99.8 %
Copy CRC F5B95948
Accurately ripped (confidence 4) [6F9EFBDD]
Copy OK
Track 6
Filename N:\MOZART, WOLFGANG AMADEUS\W.A.Mozart - Symphonies (250th Anniversary Edition) - 8CD Set\CD 1\06 - Symphony No18 in F major, K130 - III Menuetto - Amsterdan Baroque Orchestra, Ton Koopman.wav
Pre-gap length 0:00:00.10
Peak level 49.9 %
Track quality 100.0 %
Copy CRC C62DD0E8
Accurately ripped (confidence 4) [12B78C3A]
Copy OK
Track 7
Filename N:\MOZART, WOLFGANG AMADEUS\W.A.Mozart - Symphonies (250th Anniversary Edition) - 8CD Set\CD 1\07 - Symphony No18 in F major, K130 - IV Molto allegro - Amsterdan Baroque Orchestra, Ton Koopman.wav
Peak level 81.9 %
Track quality 99.8 %
Copy CRC D936DFCC
Accurately ripped (confidence 4) [B3366CDE]
Copy OK
Track 8
Filename N:\MOZART, WOLFGANG AMADEUS\W.A.Mozart - Symphonies (250th Anniversary Edition) - 8CD Set\CD 1\08 - Symphony No19 in F major, K132 - I Allegro - Amsterdan Baroque Orchestra, Ton Koopman.wav
Pre-gap length 0:00:03.36
Peak level 81.9 %
Track quality 99.9 %
Copy CRC 3BBB6004
Accurately ripped (confidence 4) [EEA8F0DB]
Copy OK
Track 9
Filename N:\MOZART, WOLFGANG AMADEUS\W.A.Mozart - Symphonies (250th Anniversary Edition) - 8CD Set\CD 1\09 - Symphony No19 in F major, K132 - II Andante - Amsterdan Baroque Orchestra, Ton Koopman.wav
Pre-gap length 0:00:00.27
Peak level 50.9 %
Track quality 100.0 %
Copy CRC 159F50F1
Accurately ripped (confidence 4) [CD3D8319]
Copy OK
Track 10
Filename N:\MOZART, WOLFGANG AMADEUS\W.A.Mozart - Symphonies (250th Anniversary Edition) - 8CD Set\CD 1\10 - Symphony No19 in F major, K132 - III Menuetto-trio - Amsterdan Baroque Orchestra, Ton Koopman.wav
Pre-gap length 0:00:00.55
Peak level 55.9 %
Track quality 99.9 %
Copy CRC 5D7E8358
Accurately ripped (confidence 4) [85BDF005]
Copy OK
Track 11
Filename N:\MOZART, WOLFGANG AMADEUS\W.A.Mozart - Symphonies (250th Anniversary Edition) - 8CD Set\CD 1\11 - Symphony No19 in F major, K132 - IV Allegro (Rondeau) - Amsterdan Baroque Orchestra, Ton Koopman.wav
Peak level 65.9 %
Track quality 100.0 %
Copy CRC 3CBC1346
Accurately ripped (confidence 4) [E26114F2]
Copy OK
Track 12
Filename N:\MOZART, WOLFGANG AMADEUS\W.A.Mozart - Symphonies (250th Anniversary Edition) - 8CD Set\CD 1\12 - Symphony No19 in F major, K132 - V Adantino grazioso - Amsterdan Baroque Orchestra, Ton Koopman.wav
Pre-gap length 0:00:01.08
Peak level 22.4 %
Track quality 99.9 %
Copy CRC 61F6BF30
Accurately ripped (confidence 4) [89AC3859]
Copy OK
Track 13
Filename N:\MOZART, WOLFGANG AMADEUS\W.A.Mozart - Symphonies (250th Anniversary Edition) - 8CD Set\CD 1\13 - Symphony No 20 in C major, K162 - I Allegro - Amsterdan Baroque Orchestra, Ton Koopman.wav
Pre-gap length 0:00:04.07
Peak level 89.1 %
Track quality 100.0 %
Copy CRC 1EEE41FA
Accurately ripped (confidence 4) [0E9C17FA]
Copy OK
Track 14
Filename N:\MOZART, WOLFGANG AMADEUS\W.A.Mozart - Symphonies (250th Anniversary Edition) - 8CD Set\CD 1\14 - Symphony No 20 in C major, K 162 - II Andantino grazioso - Amsterdan Baroque Orchestra, Ton Koopman.wav
Pre-gap length 0:00:00.14
Peak level 32.7 %
Track quality 100.0 %
Copy CRC 9262BE34
Accurately ripped (confidence 4) [89C62741]
Copy OK
Track 15
Filename N:\MOZART, WOLFGANG AMADEUS\W.A.Mozart - Symphonies (250th Anniversary Edition) - 8CD Set\CD 1\15 - Symphony No 20 in C major, K 162 - III Presto assai - Amsterdan Baroque Orchestra, Ton Koopman.wav
Peak level 87.0 %
Track quality 100.0 %
Copy CRC 7E2EC444
Accurately ripped (confidence 4) [59D81F88]
Copy OK
All tracks accurately ripped
No errors occurred
End of status report
Exact Audio Copy V0.99 prebeta 4 from 23. January 2008
EAC extraction logfile from 29. August 2010, 19:32
Amsterdam Baroque Orchestra, Ton Koopman / W.A.Mozart - Symphonies CD2
Used drive : PIONEER DVD-RW DVR-112D Adapter: 0 ID: 0
Read mode : Secure
Utilize accurate stream : Yes
Defeat audio cache : Yes
Make use of C2 pointers : No
Read offset correction : 48
Overread into Lead-In and Lead-Out : No
Fill up missing offset samples with silence : Yes
Delete leading and trailing silent blocks : No
Null samples used in CRC calculations : Yes
Used interface : Native Win32 interface for Win NT & 2000
Gap handling : Appended to previous track
Used output format : User Defined Encoder
Selected bitrate : 768 kBit/s
Quality : High
Add ID3 tag : No
Command line compressor : C:\Program Files\Exact Audio Copy\FLAC\FLAC.EXE
Additional command line options : -6 -V -T "ARTIST=%a" -T "TITLE=%t" -T "ALBUM=%g" -T "DATE=%y" -T "TRACKNUMBER=%n" -T "GENRE=%m" -T "COMMENT=%e" %s -o %d
TOC of the extracted CD
Track | Start | Length | Start sector | End sector
---------------------------------------------------------
1 | 0:00.00 | 5:24.45 | 0 | 24344
2 | 5:24.45 | 6:16.31 | 24345 | 52575
3 | 11:41.01 | 3:11.25 | 52576 | 66925
4 | 14:52.26 | 4:55.33 | 66926 | 89083
5 | 19:47.59 | 5:08.32 | 89084 | 112215
6 | 24:56.16 | 2:01.54 | 112216 | 121344
7 | 26:57.70 | 2:05.48 | 121345 | 130767
8 | 29:03.43 | 4:06.11 | 130768 | 149228
9 | 33:09.54 | 2:52.16 | 149229 | 162144
10 | 36:01.70 | 2:58.55 | 162145 | 175549
11 | 39:00.50 | 4:37.66 | 175550 | 196390
12 | 43:38.41 | 4:57.58 | 196391 | 218723
13 | 48:36.24 | 4:38.51 | 218724 | 239624
Track 1
Filename N:\MOZART, WOLFGANG AMADEUS\W.A.Mozart - Symphonies (250th Anniversary Edition) - 8CD Set\CD 2\01 - Symphony No.21 A-Dur, K134 - I.Allegro - Amsterdam Baroque Orchestra, Ton Koopman.wav
Pre-gap length 0:00:02.00
Peak level 85.2 %
Track quality 99.9 %
Copy CRC 97774DCF
Accurately ripped (confidence 4) [3C6E9FA7]
Copy OK
Track 2
Filename N:\MOZART, WOLFGANG AMADEUS\W.A.Mozart - Symphonies (250th Anniversary Edition) - 8CD Set\CD 2\02 - Symphony No.21 A-Dur, K134 - II.Andante - Amsterdam Baroque Orchestra, Ton Koopman.wav
Pre-gap length 0:00:01.27
Peak level 59.2 %
Track quality 99.9 %
Copy CRC 2A431DAF
Accurately ripped (confidence 4) [C13C4B27]
Copy OK
Track 3
Filename N:\MOZART, WOLFGANG AMADEUS\W.A.Mozart - Symphonies (250th Anniversary Edition) - 8CD Set\CD 2\03 - Symphony No.21 A-Dur, K134 - III.Menuetto & Trio - Amsterdam Baroque Orchestra, Ton Koopman.wav
Pre-gap length 0:00:00.11
Peak level 86.7 %
Track quality 100.0 %
Copy CRC C2F703A9
Accurately ripped (confidence 4) [A446C025]
Copy OK
Track 4
Filename N:\MOZART, WOLFGANG AMADEUS\W.A.Mozart - Symphonies (250th Anniversary Edition) - 8CD Set\CD 2\04 - Symphony No.21 A-Dur, K134 - IV.Allegro - Amsterdam Baroque Orchestra, Ton Koopman.wav
Pre-gap length 0:00:00.03
Peak level 86.7 %
Track quality 99.8 %
Copy CRC E06F2263
Accurately ripped (confidence 4) [D6515677]
Copy OK
Track 5
Filename N:\MOZART, WOLFGANG AMADEUS\W.A.Mozart - Symphonies (250th Anniversary Edition) - 8CD Set\CD 2\05 - Symphony No. 23 D-Dur, K181 - I.Allegro spiritoso - Amsterdam Baroque Orchestra, Ton Koopman.wav
Pre-gap length 0:00:10.03
Peak level 94.5 %
Track quality 99.8 %
Copy CRC 621873B8
Accurately ripped (confidence 4) [279946D1]
Copy OK
Track 6
Filename N:\MOZART, WOLFGANG AMADEUS\W.A.Mozart - Symphonies (250th Anniversary Edition) - 8CD Set\CD 2\06 - Symphony No.23 D-Dur, K181 - II.Andantino grazioso - Amsterdam Baroque Orchestra, Ton Koopman.wav
Peak level 51.1 %
Track quality 100.0 %
Copy CRC E453AFCB
Accurately ripped (confidence 4) [4B48D50E]
Copy OK
Track 7
Filename N:\MOZART, WOLFGANG AMADEUS\W.A.Mozart - Symphonies (250th Anniversary Edition) - 8CD Set\CD 2\07 - Symphony No.23 D-Dur, K181 - III.Presto assai - Amsterdam Baroque Orchestra, Ton Koopman.wav
Peak level 93.0 %
Track quality 100.0 %
Copy CRC 1812A31C
Accurately ripped (confidence 4) [8BDFA1C6]
Copy OK
Track 8
Filename N:\MOZART, WOLFGANG AMADEUS\W.A.Mozart - Symphonies (250th Anniversary Edition) - 8CD Set\CD 2\08 - Symphony No.24 B-Dur, K182 - I.Allegro spiritoso - Amsterdam Baroque Orchestra, Ton Koopman.wav
Pre-gap length 0:00:06.14
Peak level 88.2 %
Track quality 99.9 %
Copy CRC 7D097630
Accurately ripped (confidence 4) [FD7077D8]
Copy OK
Track 9
Filename N:\MOZART, WOLFGANG AMADEUS\W.A.Mozart - Symphonies (250th Anniversary Edition) - 8CD Set\CD 2\09 - Symphony No.24 B-Dur, K182 - II.Andantino grazioso - Amsterdam Baroque Orchestra, Ton Koopman.wav
Pre-gap length 0:00:01.05
Peak level 31.9 %
Track quality 99.7 %
Copy CRC E6FD728D
Accurately ripped (confidence 4) [BED7FA9A]
Copy OK
Track 10
Filename N:\MOZART, WOLFGANG AMADEUS\W.A.Mozart - Symphonies (250th Anniversary Edition) - 8CD Set\CD 2\10 - Symphony No.24 B-Dur, K182 - III.Allegro - Amsterdam Baroque Orchestra, Ton Koopman.wav
Pre-gap length 0:00:00.35
Peak level 86.7 %
Track quality 99.8 %
Copy CRC E5E3353E
Accurately ripped (confidence 4) [A4D0B5B6]
Copy OK
Track 11
Filename N:\MOZART, WOLFGANG AMADEUS\W.A.Mozart - Symphonies (250th Anniversary Edition) - 8CD Set\CD 2\11 - Symphony No.27 G-Dur, K199 - I.Allegro - Amsterdam Baroque Orchestra, Ton Koopman.wav
Pre-gap length 0:00:06.10
Peak level 64.2 %
Track quality 100.0 %
Copy CRC 90F2FD9E
Accurately ripped (confidence 4) [BC5C4892]
Copy OK
Track 12
Filename N:\MOZART, WOLFGANG AMADEUS\W.A.Mozart - Symphonies (250th Anniversary Edition) - 8CD Set\CD 2\12 - Symphony No.27 G-Dur, K199 - II.Andantino grazioso - Amsterdam Baroque Orchestra, Ton Koopman.wav
Peak level 41.4 %
Track quality 100.0 %
Copy CRC FB78B403
Accurately ripped (confidence 4) [0CE55522]
Copy OK
Track 13
Filename N:\MOZART, WOLFGANG AMADEUS\W.A.Mozart - Symphonies (250th Anniversary Edition) - 8CD Set\CD 2\13 - Symphony No.27 G-Dur, K199 - III.Presto - Amsterdam Baroque Orchestra, Ton Koopman.wav
Pre-gap length 0:00:00.65
Peak level 87.3 %
Track quality 100.0 %
Copy CRC 40FD26EB
Accurately ripped (confidence 4) [1CE7ECC2]
Copy OK
All tracks accurately ripped
No errors occurred
End of status report
Exact Audio Copy V0.99 prebeta 4 from 23. January 2008
EAC extraction logfile from 29. August 2010, 20:09
Leppard / Harnoncourt / W.A.Mozart - Symphonies CD3
Used drive : PIONEER DVD-RW DVR-112D Adapter: 0 ID: 0
Read mode : Secure
Utilize accurate stream : Yes
Defeat audio cache : Yes
Make use of C2 pointers : No
Read offset correction : 48
Overread into Lead-In and Lead-Out : No
Fill up missing offset samples with silence : Yes
Delete leading and trailing silent blocks : No
Null samples used in CRC calculations : Yes
Used interface : Native Win32 interface for Win NT & 2000
Gap handling : Appended to previous track
Used output format : User Defined Encoder
Selected bitrate : 768 kBit/s
Quality : High
Add ID3 tag : No
Command line compressor : C:\Program Files\Exact Audio Copy\FLAC\FLAC.EXE
Additional command line options : -6 -V -T "ARTIST=%a" -T "TITLE=%t" -T "ALBUM=%g" -T "DATE=%y" -T "TRACKNUMBER=%n" -T "GENRE=%m" -T "COMMENT=%e" %s -o %d
TOC of the extracted CD
Track | Start | Length | Start sector | End sector
---------------------------------------------------------
1 | 0:00.00 | 1:27.52 | 0 | 6576
2 | 1:27.52 | 1:25.66 | 6577 | 13017
3 | 2:53.43 | 1:26.66 | 13018 | 19533
4 | 4:20.34 | 1:21.24 | 19534 | 25632
5 | 5:41.58 | 1:15.29 | 25633 | 31286
6 | 6:57.12 | 2:12.26 | 31287 | 41212
7 | 9:09.38 | 3:21.19 | 41213 | 56306
8 | 12:30.57 | 1:40.43 | 56307 | 63849
9 | 14:11.25 | 0:52.50 | 63850 | 67799
10 | 15:04.00 | 0:51.39 | 67800 | 71663
11 | 15:55.39 | 1:17.15 | 71664 | 77453
12 | 17:12.54 | 1:18.22 | 77454 | 83325
13 | 18:31.01 | 1:05.04 | 83326 | 88204
14 | 19:36.05 | 1:13.52 | 88205 | 93731
15 | 20:49.57 | 0:49.40 | 93732 | 97446
16 | 21:39.22 | 2:15.41 | 97447 | 107612
17 | 23:54.63 | 0:24.04 | 107613 | 109416
18 | 24:18.67 | 1:11.54 | 109417 | 114795
19 | 25:30.46 | 3:38.01 | 114796 | 131146
20 | 29:08.47 | 10:35.33 | 131147 | 178804
21 | 39:44.05 | 5:33.18 | 178805 | 203797
22 | 45:17.23 | 3:30.41 | 203798 | 219588
23 | 48:47.64 | 7:23.28 | 219589 | 252841
24 | 56:11.17 | 2:42.05 | 252842 | 264996
25 | 58:53.22 | 3:34.45 | 264997 | 281091
26 | 62:27.67 | 2:38.08 | 281092 | 292949
Track 1
Filename N:\MOZART, WOLFGANG AMADEUS\W.A.Mozart - Symphonies (250th Anniversary Edition) - 8CD Set\CD 3\01 - Six German Dances No 1 D Major - Leppard , Harnoncourt.wav
Pre-gap length 0:00:02.00
Peak level 58.5 %
Track quality 100.0 %
Copy CRC E52C90B2
Accurately ripped (confidence 4) [70BD8B30]
Copy OK
Track 2
Filename N:\MOZART, WOLFGANG AMADEUS\W.A.Mozart - Symphonies (250th Anniversary Edition) - 8CD Set\CD 3\02 - Six German Dances No 2 A Major - Leppard , Harnoncourt.wav
Peak level 58.0 %
Track quality 100.0 %
Copy CRC 38996587
Accurately ripped (confidence 4) [03D46F88]
Copy OK
Track 3
Filename N:\MOZART, WOLFGANG AMADEUS\W.A.Mozart - Symphonies (250th Anniversary Edition) - 8CD Set\CD 3\03 - Six German Dances No 3 C Major - Leppard , Harnoncourt.wav
Peak level 66.1 %
Track quality 100.0 %
Copy CRC 3FDC0653
Accurately ripped (confidence 4) [215FA197]
Copy OK
Track 4
Filename N:\MOZART, WOLFGANG AMADEUS\W.A.Mozart - Symphonies (250th Anniversary Edition) - 8CD Set\CD 3\04 - Six German Dances No 4 G Major - Leppard , Harnoncourt.wav
Peak level 53.3 %
Track quality 100.0 %
Copy CRC A881F95E
Accurately ripped (confidence 4) [1F2841E5]
Copy OK
Track 5
Filename N:\MOZART, WOLFGANG AMADEUS\W.A.Mozart - Symphonies (250th Anniversary Edition) - 8CD Set\CD 3\05 - Six German Dances No 5 B Flat Major - Leppard , Harnoncourt.wav
Peak level 52.4 %
Track quality 99.8 %
Copy CRC A46B95E0
Accurately ripped (confidence 4) [B0234552]
Copy OK
Track 6
Filename N:\MOZART, WOLFGANG AMADEUS\W.A.Mozart - Symphonies (250th Anniversary Edition) - 8CD Set\CD 3\06 - Six German Dances No 6 D Major - Leppard , Harnoncourt.wav
Peak level 67.0 %
Track quality 99.7 %
Copy CRC 8068CBE7
Accurately ripped (confidence 4) [B6515F3C]
Copy OK
Track 7
Filename N:\MOZART, WOLFGANG AMADEUS\W.A.Mozart - Symphonies (250th Anniversary Edition) - 8CD Set\CD 3\07 - Les Petits Riens 01 - Leppard , Harnoncourt.wav
Pre-gap length 0:00:07.15
Peak level 72.3 %
Track quality 99.9 %
Copy CRC E26BF324
Accurately ripped (confidence 4) [F0DB237E]
Copy OK
Track 8
Filename N:\MOZART, WOLFGANG AMADEUS\W.A.Mozart - Symphonies (250th Anniversary Edition) - 8CD Set\CD 3\08 - Les Petits Riens 02 - Leppard , Harnoncourt.wav
Peak level 24.4 %
Track quality 99.7 %
Copy CRC 56A8D642
Accurately ripped (confidence 4) [2EFC325A]
Copy OK
Track 9
Filename N:\MOZART, WOLFGANG AMADEUS\W.A.Mozart - Symphonies (250th Anniversary Edition) - 8CD Set\CD 3\09 - Les Petits Riens 03 - Leppard , Harnoncourt.wav
Peak level 21.3 %
Track quality 100.0 %
Copy CRC 79177C28
Accurately ripped (confidence 4) [7C66A73B]
Copy OK
Track 10
Filename N:\MOZART, WOLFGANG AMADEUS\W.A.Mozart - Symphonies (250th Anniversary Edition) - 8CD Set\CD 3\10 - Les Petits Riens 04 - Leppard , Harnoncourt.wav
Peak level 47.5 %
Track quality 99.7 %
Copy CRC 10C16EF4
Accurately ripped (confidence 4) [93565D43]
Copy OK
Track 11
Filename N:\MOZART, WOLFGANG AMADEUS\W.A.Mozart - Symphonies (250th Anniversary Edition) - 8CD Set\CD 3\11 - Les Petits Riens 05 - Leppard , Harnoncourt.wav
Peak level 17.8 %
Track quality 100.0 %
Copy CRC 9AC65D3D
Accurately ripped (confidence 4) [9F51AF76]
Copy OK
Track 12
Filename N:\MOZART, WOLFGANG AMADEUS\W.A.Mozart - Symphonies (250th Anniversary Edition) - 8CD Set\CD 3\12 - Les Petits Riens 06 - Leppard , Harnoncourt.wav
Peak level 94.9 %
Track quality 99.8 %
Copy CRC 4E0FB360
Accurately ripped (confidence 4) [FFB9DAF8]
Copy OK
Track 13
Filename N:\MOZART, WOLFGANG AMADEUS\W.A.Mozart - Symphonies (250th Anniversary Edition) - 8CD Set\CD 3\13 - Les Petits Riens 07 - Leppard , Harnoncourt.wav
Peak level 32.7 %
Track quality 99.5 %
Copy CRC DD2731A6
Accurately ripped (confidence 4) [9A5DDC97]
Copy OK
Track 14
Filename N:\MOZART, WOLFGANG AMADEUS\W.A.Mozart - Symphonies (250th Anniversary Edition) - 8CD Set\CD 3\14 - Les Petits Riens 08 - Leppard , Harnoncourt.wav
Peak level 91.0 %
Track quality 99.8 %
Copy CRC C1B8106A
Accurately ripped (confidence 4) [F1A452A5]
Copy OK
Track 15
Filename N:\MOZART, WOLFGANG AMADEUS\W.A.Mozart - Symphonies (250th Anniversary Edition) - 8CD Set\CD 3\15 - Les Petits Riens 09 - Leppard , Harnoncourt.wav
Peak level 39.7 %
Track quality 100.0 %
Copy CRC 28F370B7
Accurately ripped (confidence 4) [64E3D1EB]
Copy OK
Track 16
Filename N:\MOZART, WOLFGANG AMADEUS\W.A.Mozart - Symphonies (250th Anniversary Edition) - 8CD Set\CD 3\16 - Les Petits Riens 10 - Leppard , Harnoncourt.wav
Peak level 45.6 %
Track quality 99.9 %
Copy CRC F76FA35A
Accurately ripped (confidence 4) [91ED86E4]
Copy OK
Track 17
Filename N:\MOZART, WOLFGANG AMADEUS\W.A.Mozart - Symphonies (250th Anniversary Edition) - 8CD Set\CD 3\17 - Les Petits Riens 11 - Leppard , Harnoncourt.wav
Peak level 26.3 %
Track quality 99.5 %
Copy CRC 475115FD
Accurately ripped (confidence 4) [01C6FA87]
Copy OK
Track 18
Filename N:\MOZART, WOLFGANG AMADEUS\W.A.Mozart - Symphonies (250th Anniversary Edition) - 8CD Set\CD 3\18 - Les Petits Riens 12 - Leppard , Harnoncourt.wav
Peak level 42.1 %
Track quality 99.8 %
Copy CRC 087C120A
Accurately ripped (confidence 4) [D4B6859A]
Copy OK
Track 19
Filename N:\MOZART, WOLFGANG AMADEUS\W.A.Mozart - Symphonies (250th Anniversary Edition) - 8CD Set\CD 3\19 - Les Petits Riens 13 - Leppard , Harnoncourt.wav
Peak level 39.6 %
Track quality 99.9 %
Copy CRC 192DA63E
Accurately ripped (confidence 4) [F5F7C468]
Copy OK
Track 20
Filename N:\MOZART, WOLFGANG AMADEUS\W.A.Mozart - Symphonies (250th Anniversary Edition) - 8CD Set\CD 3\20 - Symphony No 25 G Minor I Allegro con brio - Leppard , Harnoncourt.wav
Pre-gap length 0:00:09.20
Peak level 81.2 %
Track quality 99.9 %
Copy CRC FF6DBA9E
Accurately ripped (confidence 4) [72286B46]
Copy OK
Track 21
Filename N:\MOZART, WOLFGANG AMADEUS\W.A.Mozart - Symphonies (250th Anniversary Edition) - 8CD Set\CD 3\21 - Symphony No 25 G Minor II Andante - Leppard , Harnoncourt.wav
Pre-gap length 0:00:00.47
Peak level 42.2 %
Track quality 100.0 %
Copy CRC 0CD1E80D
Accurately ripped (confidence 4) [B83DD574]
Copy OK
Track 22
Filename N:\MOZART, WOLFGANG AMADEUS\W.A.Mozart - Symphonies (250th Anniversary Edition) - 8CD Set\CD 3\22 - Symphony No 25 G Minor III Menuetto - Leppard , Harnoncourt.wav
Peak level 73.6 %
Track quality 100.0 %
Copy CRC 58BFD601
Accurately ripped (confidence 4) [987465BF]
Copy OK
Track 23
Filename N:\MOZART, WOLFGANG AMADEUS\W.A.Mozart - Symphonies (250th Anniversary Edition) - 8CD Set\CD 3\23 - Symphony No 25 G Minor IV Allegro - Leppard , Harnoncourt.wav
Peak level 87.2 %
Track quality 100.0 %
Copy CRC 5619E602
Accurately ripped (confidence 4) [4916A57F]
Copy OK
Track 24
Filename N:\MOZART, WOLFGANG AMADEUS\W.A.Mozart - Symphonies (250th Anniversary Edition) - 8CD Set\CD 3\24 - Symphony No 26 E Flat Major I Molto presto - Leppard , Harnoncourt.wav
Pre-gap length 0:00:11.10
Peak level 72.1 %
Track quality 100.0 %
Copy CRC DC110D34
Accurately ripped (confidence 4) [081E4747]
Copy OK
Track 25
Filename N:\MOZART, WOLFGANG AMADEUS\W.A.Mozart - Symphonies (250th Anniversary Edition) - 8CD Set\CD 3\25 - Symphony No 26 E Flat Major II Andantino grazioso - Leppard , Harnoncourt.wav
Pre-gap length 0:00:01.20
Peak level 44.1 %
Track quality 100.0 %
Copy CRC F52A58E0
Accurately ripped (confidence 4) [C15C8C0E]
Copy OK
Track 26
Filename N:\MOZART, WOLFGANG AMADEUS\W.A.Mozart - Symphonies (250th Anniversary Edition) - 8CD Set\CD 3\26 - Symphony No 26 E Flat Major III - Leppard , Harnoncourt.wav
Peak level 69.7 %
Track quality 100.0 %
Copy CRC BA894359
Accurately ripped (confidence 4) [A4CDBD52]
Copy OK
All tracks accurately ripped
No errors occurred
End of status report
Exact Audio Copy V0.99 prebeta 4 from 23. January 2008
EAC extraction logfile from 29. August 2010, 22:22
Royal Concertgebouw Orchestra, Nikolaus Harnoncourt / W.A.Mozart - Symphonies CD4
Used drive : PIONEER DVD-RW DVR-112D Adapter: 0 ID: 0
Read mode : Secure
Utilize accurate stream : Yes
Defeat audio cache : Yes
Make use of C2 pointers : No
Read offset correction : 48
Overread into Lead-In and Lead-Out : No
Fill up missing offset samples with silence : Yes
Delete leading and trailing silent blocks : No
Null samples used in CRC calculations : Yes
Used interface : Native Win32 interface for Win NT & 2000
Gap handling : Appended to previous track
Used output format : User Defined Encoder
Selected bitrate : 768 kBit/s
Quality : High
Add ID3 tag : No
Command line compressor : C:\Program Files\Exact Audio Copy\FLAC\FLAC.EXE
Additional command line options : -6 -V -T "ARTIST=%a" -T "TITLE=%t" -T "ALBUM=%g" -T "DATE=%y" -T "TRACKNUMBER=%n" -T "GENRE=%m" -T "COMMENT=%e" %s -o %d
TOC of the extracted CD
Track | Start | Length | Start sector | End sector
---------------------------------------------------------
1 | 0:00.00 | 7:11.70 | 0 | 32394
2 | 7:11.70 | 7:15.48 | 32395 | 65067
3 | 14:27.43 | 2:56.25 | 65068 | 78292
4 | 17:23.68 | 5:03.14 | 78293 | 101031
5 | 22:27.07 | 10:14.29 | 101032 | 147110
6 | 32:41.36 | 9:28.58 | 147111 | 189768
7 | 42:10.19 | 3:34.08 | 189769 | 205826
8 | 45:44.27 | 6:23.13 | 205827 | 234564
9 | 52:07.40 | 8:19.27 | 234565 | 272016
10 | 60:26.67 | 6:32.67 | 272017 | 301483
11 | 66:59.59 | 3:28.21 | 301484 | 317104
12 | 70:28.05 | 4:01.70 | 317105 | 335249
Track 1
Filename N:\MOZART, WOLFGANG AMADEUS\W.A.Mozart - Symphonies (250th Anniversary Edition) - 8CD Set\CD 4\01 - Symphony No 28 C Major I Allegro spiritoso - Royal Concertgebouw Orchestra, Nikolaus Harnoncourt.wav
Pre-gap length 0:00:02.00
Peak level 86.5 %
Track quality 100.0 %
Copy CRC 266601C5
Accurately ripped (confidence 4) [643A6F96]
Copy OK
Track 2
Filename N:\MOZART, WOLFGANG AMADEUS\W.A.Mozart - Symphonies (250th Anniversary Edition) - 8CD Set\CD 4\02 - Symphony No 28 C Major II Andante - Royal Concertgebouw Orchestra, Nikolaus Harnoncourt.wav
Pre-gap length 0:00:00.43
Peak level 53.2 %
Track quality 99.7 %
Copy CRC A43F50ED
Accurately ripped (confidence 4) [C3E6338B]
Copy OK
Track 3
Filename N:\MOZART, WOLFGANG AMADEUS\W.A.Mozart - Symphonies (250th Anniversary Edition) - 8CD Set\CD 4\03 - Symphony No 28 C Major III Menuetto Allegretto - Royal Concertgebouw Orchestra, Nikolaus Harnoncourt.wav
Peak level 73.1 %
Track quality 99.8 %
Copy CRC CEFA4F4E
Accurately ripped (confidence 4) [DF61617D]
Copy OK
Track 4
Filename N:\MOZART, WOLFGANG AMADEUS\W.A.Mozart - Symphonies (250th Anniversary Edition) - 8CD Set\CD 4\04 - Symphony No 28 C Major IV Presto - Royal Concertgebouw Orchestra, Nikolaus Harnoncourt.wav
Pre-gap length 0:00:00.07
Peak level 99.2 %
Track quality 99.8 %
Copy CRC 0A42DBEE
Accurately ripped (confidence 4) [EA8454EF]
Copy OK
Track 5
Filename N:\MOZART, WOLFGANG AMADEUS\W.A.Mozart - Symphonies (250th Anniversary Edition) - 8CD Set\CD 4\05 - Symphony No 29 A Major I Allegro moderato - Royal Concertgebouw Orchestra, Nikolaus Harnoncourt.wav
Pre-gap length 0:00:07.15
Peak level 93.5 %
Track quality 99.9 %
Copy CRC 8C1A0BB6
Accurately ripped (confidence 4) [091DB179]
Copy OK
Track 6
Filename N:\MOZART, WOLFGANG AMADEUS\W.A.Mozart - Symphonies (250th Anniversary Edition) - 8CD Set\CD 4\06 - Symphony No 29 A Major II Andante - Royal Concertgebouw Orchestra, Nikolaus Harnoncourt.wav
Pre-gap length 0:00:00.50
Peak level 66.0 %
Track quality 100.0 %
Copy CRC 12CD4986
Accurately ripped (confidence 4) [187DA4C8]
Copy OK
Track 7
Filename N:\MOZART, WOLFGANG AMADEUS\W.A.Mozart - Symphonies (250th Anniversary Edition) - 8CD Set\CD 4\07 - Symphony No 29 A Major III Menuetto - Royal Concertgebouw Orchestra, Nikolaus Harnoncourt.wav
Peak level 79.0 %
Track quality 100.0 %
Copy CRC 7A0C86E4
Accurately ripped (confidence 4) [79A711D5]
Copy OK
Track 8
Filename N:\MOZART, WOLFGANG AMADEUS\W.A.Mozart - Symphonies (250th Anniversary Edition) - 8CD Set\CD 4\08 - Symphony No 29 A Major IV Allegro con spirito - Royal Concertgebouw Orchestra, Nikolaus Harnoncourt.wav
Peak level 97.7 %
Track quality 100.0 %
Copy CRC D1F331C0
Accurately ripped (confidence 4) [9485BD8F]
Copy OK
Track 9
Filename N:\MOZART, WOLFGANG AMADEUS\W.A.Mozart - Symphonies (250th Anniversary Edition) - 8CD Set\CD 4\09 - Symphony No 30 D Major I Molto allegro - Royal Concertgebouw Orchestra, Nikolaus Harnoncourt.wav
Pre-gap length 0:00:12.15
Peak level 96.5 %
Track quality 100.0 %
Copy CRC AB3B9E27
Accurately ripped (confidence 4) [D2BD52AC]
Copy OK
Track 10
Filename N:\MOZART, WOLFGANG AMADEUS\W.A.Mozart - Symphonies (250th Anniversary Edition) - 8CD Set\CD 4\10 - Symphony No 30 D Major II Andantino con moto - Royal Concertgebouw Orchestra, Nikolaus Harnoncourt.wav
Pre-gap length 0:00:00.17
Peak level 41.5 %
Track quality 100.0 %
Copy CRC 85CC62D5
Accurately ripped (confidence 4) [A67DD02B]
Copy OK
Track 11
Filename N:\MOZART, WOLFGANG AMADEUS\W.A.Mozart - Symphonies (250th Anniversary Edition) - 8CD Set\CD 4\11 - Symphony No 30 D Major III Menuetto - Royal Concertgebouw Orchestra, Nikolaus Harnoncourt.wav
Peak level 81.7 %
Track quality 100.0 %
Copy CRC 88E13EE3
Accurately ripped (confidence 4) [801305E0]
Copy OK
Track 12
Filename N:\MOZART, WOLFGANG AMADEUS\W.A.Mozart - Symphonies (250th Anniversary Edition) - 8CD Set\CD 4\12 - Symphony No 30 D Major IV Presto - Royal Concertgebouw Orchestra, Nikolaus Harnoncourt.wav
Peak level 94.3 %
Track quality 100.0 %
Copy CRC 9BB303D0
Accurately ripped (confidence 4) [F3A54297]
Copy OK
All tracks accurately ripped
No errors occurred
End of status report
Logs EAC CD 5-8:
скрытый текст
Exact Audio Copy V0.99 prebeta 4 from 23. January 2008
EAC extraction logfile from 29. August 2010, 22:51
Royal Concertgebouw Orchestra, Nikolaus Harnoncourt / W.A.Mozart - Symphonies CD5
Used drive : PIONEER DVD-RW DVR-112D Adapter: 0 ID: 0
Read mode : Secure
Utilize accurate stream : Yes
Defeat audio cache : Yes
Make use of C2 pointers : No
Read offset correction : 48
Overread into Lead-In and Lead-Out : No
Fill up missing offset samples with silence : Yes
Delete leading and trailing silent blocks : No
Null samples used in CRC calculations : Yes
Used interface : Native Win32 interface for Win NT & 2000
Gap handling : Appended to previous track
Used output format : User Defined Encoder
Selected bitrate : 768 kBit/s
Quality : High
Add ID3 tag : No
Command line compressor : C:\Program Files\Exact Audio Copy\FLAC\FLAC.EXE
Additional command line options : -6 -V -T "ARTIST=%a" -T "TITLE=%t" -T "ALBUM=%g" -T "DATE=%y" -T "TRACKNUMBER=%n" -T "GENRE=%m" -T "COMMENT=%e" %s -o %d
TOC of the extracted CD
Track | Start | Length | Start sector | End sector
---------------------------------------------------------
1 | 0:00.00 | 8:37.02 | 0 | 38776
2 | 8:37.02 | 6:01.38 | 38777 | 65889
3 | 14:38.40 | 4:05.66 | 65890 | 84330
4 | 18:44.31 | 4:34.51 | 84331 | 104931
5 | 23:19.07 | 7:45.26 | 104932 | 139832
6 | 31:04.33 | 5:42.53 | 139833 | 165535
7 | 36:47.11 | 3:08.71 | 165536 | 179706
8 | 39:56.07 | 9:42.20 | 179707 | 223376
9 | 49:38.27 | 7:44.61 | 223377 | 258237
10 | 57:23.13 | 6:51.73 | 258238 | 289135
11 | 64:15.11 | 7:55.64 | 289136 | 324824
Track 1
Filename N:\MOZART, WOLFGANG AMADEUS\W.A.Mozart - Symphonies (250th Anniversary Edition) - 8CD Set\CD 5\01 - Symphony No 31 D Major I Allegro assai - Royal Concertgebouw Orchestra, Nikolaus Harnoncourt.wav
Pre-gap length 0:00:02.00
Peak level 85.8 %
Track quality 99.9 %
Copy CRC 5A9CA01C
Accurately ripped (confidence 4) [A4359EEA]
Copy OK
Track 2
Filename N:\MOZART, WOLFGANG AMADEUS\W.A.Mozart - Symphonies (250th Anniversary Edition) - 8CD Set\CD 5\02 - Symphony No 31 D Major II Andante - Royal Concertgebouw Orchestra, Nikolaus Harnoncourt.wav
Pre-gap length 0:00:00.53
Peak level 37.1 %
Track quality 100.0 %
Copy CRC 2974B78B
Accurately ripped (confidence 4) [B612DABB]
Copy OK
Track 3
Filename N:\MOZART, WOLFGANG AMADEUS\W.A.Mozart - Symphonies (250th Anniversary Edition) - 8CD Set\CD 5\03 - Symphony No 31 D Major Allegro - Royal Concertgebouw Orchestra, Nikolaus Harnoncourt.wav
Peak level 95.4 %
Track quality 100.0 %
Copy CRC 32E0A2AE
Accurately ripped (confidence 4) [334DF9A0]
Copy OK
Track 4
Filename N:\MOZART, WOLFGANG AMADEUS\W.A.Mozart - Symphonies (250th Anniversary Edition) - 8CD Set\CD 5\04 - Symphony No 31 D Major Andante 2nd Version - Royal Concertgebouw Orchestra, Nikolaus Harnoncourt.wav
Pre-gap length 0:00:07.47
Peak level 48.8 %
Track quality 100.0 %
Copy CRC 78951E05
Accurately ripped (confidence 4) [E1BB3776]
Copy OK
Track 5
Filename N:\MOZART, WOLFGANG AMADEUS\W.A.Mozart - Symphonies (250th Anniversary Edition) - 8CD Set\CD 5\05 - Symphony No 33 B Flat Major I Allegro assai - Royal Concertgebouw Orchestra, Nikolaus Harnoncourt.wav
Pre-gap length 0:00:11.12
Peak level 73.0 %
Track quality 100.0 %
Copy CRC 642E985E
Accurately ripped (confidence 4) [F8A7590D]
Copy OK
Track 6
Filename N:\MOZART, WOLFGANG AMADEUS\W.A.Mozart - Symphonies (250th Anniversary Edition) - 8CD Set\CD 5\06 - Symphony No 33 B Flat Major II Andante moderato - Royal Concertgebouw Orchestra, Nikolaus Harnoncourt.wav
Pre-gap length 0:00:01.46
Peak level 50.2 %
Track quality 100.0 %
Copy CRC DE393B05
Accurately ripped (confidence 4) [6C29F2F0]
Copy OK
Track 7
Filename N:\MOZART, WOLFGANG AMADEUS\W.A.Mozart - Symphonies (250th Anniversary Edition) - 8CD Set\CD 5\07 - Symphony No 33 B Flat Major III Menuetto - Royal Concertgebouw Orchestra, Nikolaus Harnoncourt.wav
Peak level 56.9 %
Track quality 99.9 %
Copy CRC D28A06FD
Accurately ripped (confidence 4) [77026DFF]
Copy OK
Track 8
Filename N:\MOZART, WOLFGANG AMADEUS\W.A.Mozart - Symphonies (250th Anniversary Edition) - 8CD Set\CD 5\08 - Symphony No 33 B Flat Major IV Allegro assai - Royal Concertgebouw Orchestra, Nikolaus Harnoncourt.wav
Peak level 79.6 %
Track quality 100.0 %
Copy CRC 3633ABC2
Accurately ripped (confidence 4) [852B86DC]
Copy OK
Track 9
Filename N:\MOZART, WOLFGANG AMADEUS\W.A.Mozart - Symphonies (250th Anniversary Edition) - 8CD Set\CD 5\09 - Symphony No 34 C Major I Allegro vivace - Royal Concertgebouw Orchestra, Nikolaus Harnoncourt.wav
Pre-gap length 0:00:09.47
Peak level 87.7 %
Track quality 100.0 %
Copy CRC AFD59400
Accurately ripped (confidence 4) [350C4615]
Copy OK
Track 10
Filename N:\MOZART, WOLFGANG AMADEUS\W.A.Mozart - Symphonies (250th Anniversary Edition) - 8CD Set\CD 5\10 - Symphony No 34 C Major II Andante di molto - Royal Concertgebouw Orchestra, Nikolaus Harnoncourt.wav
Pre-gap length 0:00:01.27
Peak level 27.1 %
Track quality 100.0 %
Copy CRC 51B9156F
Accurately ripped (confidence 4) [A4B482AF]
Copy OK
Track 11
Filename N:\MOZART, WOLFGANG AMADEUS\W.A.Mozart - Symphonies (250th Anniversary Edition) - 8CD Set\CD 5\11 - Symphony No 34 C Major III Allegro - Royal Concertgebouw Orchestra, Nikolaus Harnoncourt.wav
Pre-gap length 0:00:01.45
Peak level 77.2 %
Track quality 99.9 %
Copy CRC 6AC85FF5
Accurately ripped (confidence 4) [84A48B0F]
Copy OK
All tracks accurately ripped
No errors occurred
End of status report
Exact Audio Copy V0.99 prebeta 4 from 23. January 2008
EAC extraction logfile from 29. August 2010, 23:42
Royal Concertgebouw Orchestra, Nikolaus Harnoncourt / W.A.Mozart - Symphonies CD6
Used drive : PIONEER DVD-RW DVR-112D Adapter: 0 ID: 0
Read mode : Secure
Utilize accurate stream : Yes
Defeat audio cache : Yes
Make use of C2 pointers : No
Read offset correction : 48
Overread into Lead-In and Lead-Out : No
Fill up missing offset samples with silence : Yes
Delete leading and trailing silent blocks : No
Null samples used in CRC calculations : Yes
Used interface : Native Win32 interface for Win NT & 2000
Gap handling : Appended to previous track
Used output format : User Defined Encoder
Selected bitrate : 768 kBit/s
Quality : High
Add ID3 tag : No
Command line compressor : C:\Program Files\Exact Audio Copy\FLAC\FLAC.EXE
Additional command line options : -6 -V -T "ARTIST=%a" -T "TITLE=%t" -T "ALBUM=%g" -T "DATE=%y" -T "TRACKNUMBER=%n" -T "GENRE=%m" -T "COMMENT=%e" %s -o %d
TOC of the extracted CD
Track | Start | Length | Start sector | End sector
---------------------------------------------------------
1 | 0:00.00 | 3:07.09 | 0 | 14033
2 | 3:07.09 | 3:23.04 | 14034 | 29262
3 | 6:30.13 | 2:08.37 | 29263 | 38899
4 | 8:38.50 | 5:57.57 | 38900 | 65731
5 | 14:36.32 | 9:11.11 | 65732 | 107067
6 | 23:47.43 | 3:20.27 | 107068 | 122094
7 | 27:07.70 | 4:13.13 | 122095 | 141082
8 | 31:21.08 | 11:02.44 | 141083 | 190776
9 | 42:23.52 | 14:18.28 | 190777 | 255154
10 | 56:42.05 | 3:15.03 | 255155 | 269782
11 | 59:57.08 | 11:00.67 | 269783 | 319349
Track 1
Filename N:\MOZART, WOLFGANG AMADEUS\W.A.Mozart - Symphonies (250th Anniversary Edition) - 8CD Set\CD 6\01 - Symphony No 32 G Major I Allegro spiritoso - Royal Concertgebouw Orchestra, Nikolaus Harnoncourt.wav
Pre-gap length 0:00:02.00
Peak level 99.9 %
Track quality 100.0 %
Copy CRC 83044567
Accurately ripped (confidence 4) [A3EF6B9E]
Copy OK
Track 2
Filename N:\MOZART, WOLFGANG AMADEUS\W.A.Mozart - Symphonies (250th Anniversary Edition) - 8CD Set\CD 6\02 - Symphony No 32 G Major II Andante - Royal Concertgebouw Orchestra, Nikolaus Harnoncourt.wav
Peak level 36.7 %
Track quality 99.8 %
Copy CRC 4EA57EE1
Accurately ripped (confidence 4) [DC325B4D]
Copy OK
Track 3
Filename N:\MOZART, WOLFGANG AMADEUS\W.A.Mozart - Symphonies (250th Anniversary Edition) - 8CD Set\CD 6\03 - Symphony No 32 G Major III Primo tempo - Royal Concertgebouw Orchestra, Nikolaus Harnoncourt.wav
Peak level 82.8 %
Track quality 99.9 %
Copy CRC 41D0D699
Accurately ripped (confidence 4) [4063772A]
Copy OK
Track 4
Filename N:\MOZART, WOLFGANG AMADEUS\W.A.Mozart - Symphonies (250th Anniversary Edition) - 8CD Set\CD 6\04 - Symphony No 35 D Major I Allegro con spirito - Royal Concertgebouw Orchestra, Nikolaus Harnoncourt.wav
Pre-gap length 0:00:06.63
Peak level 77.0 %
Track quality 100.0 %
Copy CRC 74E0CE9D
Accurately ripped (confidence 4) [D1B13295]
Copy OK
Track 5
Filename N:\MOZART, WOLFGANG AMADEUS\W.A.Mozart - Symphonies (250th Anniversary Edition) - 8CD Set\CD 6\05 - Symphony No 35 D Major II Andante - Royal Concertgebouw Orchestra, Nikolaus Harnoncourt.wav
Pre-gap length 0:00:04.12
Peak level 48.5 %
Track quality 99.8 %
Copy CRC 52E5CA10
Accurately ripped (confidence 4) [1F675B23]
Copy OK
Track 6
Filename N:\MOZART, WOLFGANG AMADEUS\W.A.Mozart - Symphonies (250th Anniversary Edition) - 8CD Set\CD 6\06 - Symphony No 35 D Major III Menuetto - Royal Concertgebouw Orchestra, Nikolaus Harnoncourt.wav
Pre-gap length 0:00:00.14
Peak level 75.1 %
Track quality 99.8 %
Copy CRC 265D4FAC
Accurately ripped (confidence 4) [3488E543]
Copy OK
Track 7
Filename N:\MOZART, WOLFGANG AMADEUS\W.A.Mozart - Symphonies (250th Anniversary Edition) - 8CD Set\CD 6\07 - Symphony No 35 D Major IV Presto - Royal Concertgebouw Orchestra, Nikolaus Harnoncourt.wav
Peak level 98.9 %
Track quality 99.7 %
Copy CRC CACE682D
Accurately ripped (confidence 4) [78BBFD5D]
Copy OK
Track 8
Filename N:\MOZART, WOLFGANG AMADEUS\W.A.Mozart - Symphonies (250th Anniversary Edition) - 8CD Set\CD 6\08 - Symphony No 36 C Major I Adagio - Allegro spiritoso - Royal Concertgebouw Orchestra, Nikolaus Harnoncourt.wav
Pre-gap length 0:00:11.01
Peak level 100.0 %
Track quality 99.9 %
Copy CRC 82EE7B53
Accurately ripped (confidence 4) [6A27AF60]
Copy OK
Track 9
Filename N:\MOZART, WOLFGANG AMADEUS\W.A.Mozart - Symphonies (250th Anniversary Edition) - 8CD Set\CD 6\09 - Symphony No 36 C Major II Andante - Royal Concertgebouw Orchestra, Nikolaus Harnoncourt.wav
Pre-gap length 0:00:02.61
Peak level 77.5 %
Track quality 99.9 %
Copy CRC 86C18DED
Accurately ripped (confidence 4) [A5F80D8E]
Copy OK
Track 10
Filename N:\MOZART, WOLFGANG AMADEUS\W.A.Mozart - Symphonies (250th Anniversary Edition) - 8CD Set\CD 6\10 - Symphony No 36 C Major III Menuetto - Royal Concertgebouw Orchestra, Nikolaus Harnoncourt.wav
Peak level 69.1 %
Track quality 100.0 %
Copy CRC BD1D6A78
Accurately ripped (confidence 4) [C248E1E7]
Copy OK
Track 11
Filename N:\MOZART, WOLFGANG AMADEUS\W.A.Mozart - Symphonies (250th Anniversary Edition) - 8CD Set\CD 6\11 - Symphony No 36 C Major IV Presto - Royal Concertgebouw Orchestra, Nikolaus Harnoncourt.wav
Peak level 99.2 %
Track quality 100.0 %
Copy CRC 47837979
Accurately ripped (confidence 4) [8AEAB746]
Copy OK
All tracks accurately ripped
No errors occurred
End of status report
Exact Audio Copy V0.99 prebeta 4 from 23. January 2008
EAC extraction logfile from 30. August 2010, 0:08
Royal Concertgebouw Orchestra, Nikolaus Harnoncourt / W.A.Mozart - Symphonies CD7
Used drive : PIONEER DVD-RW DVR-112D Adapter: 0 ID: 0
Read mode : Secure
Utilize accurate stream : Yes
Defeat audio cache : Yes
Make use of C2 pointers : No
Read offset correction : 48
Overread into Lead-In and Lead-Out : No
Fill up missing offset samples with silence : Yes
Delete leading and trailing silent blocks : No
Null samples used in CRC calculations : Yes
Used interface : Native Win32 interface for Win NT & 2000
Gap handling : Appended to previous track
Used output format : User Defined Encoder
Selected bitrate : 768 kBit/s
Quality : High
Add ID3 tag : No
Command line compressor : C:\Program Files\Exact Audio Copy\FLAC\FLAC.EXE
Additional command line options : -6 -V -T "ARTIST=%a" -T "TITLE=%t" -T "ALBUM=%g" -T "DATE=%y" -T "TRACKNUMBER=%n" -T "GENRE=%m" -T "COMMENT=%e" %s -o %d
TOC of the extracted CD
Track | Start | Length | Start sector | End sector
---------------------------------------------------------
1 | 0:00.00 | 19:28.08 | 0 | 87607
2 | 19:28.08 | 11:00.74 | 87608 | 137181
3 | 30:29.07 | 7:58.45 | 137182 | 173076
4 | 38:27.52 | 11:14.23 | 173077 | 223649
5 | 49:42.00 | 7:32.03 | 223650 | 257552
6 | 57:14.03 | 3:21.00 | 257553 | 272627
7 | 60:35.03 | 7:55.72 | 272628 | 308324
Track 1
Filename N:\MOZART, WOLFGANG AMADEUS\W.A.Mozart - Symphonies (250th Anniversary Edition) - 8CD Set\CD 7\01 - Symphony No 38 D Major I Adagio Allegro - Royal Concertgebouw Orchestra, Nikolaus Harnoncourt.wav
Pre-gap length 0:00:02.00
Peak level 94.9 %
Track quality 99.9 %
Copy CRC 4BE3A0CE
Accurately ripped (confidence 4) [D6489329]
Copy OK
Track 2
Filename N:\MOZART, WOLFGANG AMADEUS\W.A.Mozart - Symphonies (250th Anniversary Edition) - 8CD Set\CD 7\02 - Symphony No 38 D Major II Andante - Royal Concertgebouw Orchestra, Nikolaus Harnoncourt.wav
Pre-gap length 0:00:02.16
Peak level 64.7 %
Track quality 100.0 %
Copy CRC 71D17BA1
Accurately ripped (confidence 4) [D3E6BBC8]
Copy OK
Track 3
Filename N:\MOZART, WOLFGANG AMADEUS\W.A.Mozart - Symphonies (250th Anniversary Edition) - 8CD Set\CD 7\03 - Symphony No 38 D Major III Presto - Royal Concertgebouw Orchestra, Nikolaus Harnoncourt.wav
Peak level 98.6 %
Track quality 100.0 %
Copy CRC 6F2BAF4A
Accurately ripped (confidence 3) [A302503E]
Copy OK
Track 4
Filename N:\MOZART, WOLFGANG AMADEUS\W.A.Mozart - Symphonies (250th Anniversary Edition) - 8CD Set\CD 7\04 - Symphony No 39 E Flat Major I Adagio Allegro - Royal Concertgebouw Orchestra, Nikolaus Harnoncourt.wav
Pre-gap length 0:00:10.64
Peak level 80.6 %
Track quality 100.0 %
Copy CRC 39560EDF
Accurately ripped (confidence 4) [C7924B79]
Copy OK
Track 5
Filename N:\MOZART, WOLFGANG AMADEUS\W.A.Mozart - Symphonies (250th Anniversary Edition) - 8CD Set\CD 7\05 - Symphony No 39 E Flat Major II Andante con moto - Royal Concertgebouw Orchestra, Nikolaus Harnoncourt.wav
Pre-gap length 0:00:01.26
Peak level 68.1 %
Track quality 100.0 %
Copy CRC 956135A4
Accurately ripped (confidence 4) [08252795]
Copy OK
Track 6
Filename N:\MOZART, WOLFGANG AMADEUS\W.A.Mozart - Symphonies (250th Anniversary Edition) - 8CD Set\CD 7\06 - Symphony No 39 E Flat Major III Menuetto Allegretto - Royal Concertgebouw Orchestra, Nikolaus Harnoncourt.wav
Peak level 57.3 %
Track quality 100.0 %
Copy CRC CB5A23C1
Accurately ripped (confidence 4) [06C0F861]
Copy OK
Track 7
Filename N:\MOZART, WOLFGANG AMADEUS\W.A.Mozart - Symphonies (250th Anniversary Edition) - 8CD Set\CD 7\07 - Symphony No 39 E Flat Major IV Finale Allegro - Royal Concertgebouw Orchestra, Nikolaus Harnoncourt.wav
Peak level 78.0 %
Track quality 100.0 %
Copy CRC F5ECB267
Accurately ripped (confidence 4) [41561975]
Copy OK
All tracks accurately ripped
No errors occurred
End of status report
Exact Audio Copy V0.99 prebeta 4 from 23. January 2008
EAC extraction logfile from 29. August 2010, 2:56
Royal Concertgebouw Orchestra, Nikolaus Harnoncourt / W.A.Mozart - Symphonies CD8
Used drive : PIONEER DVD-RW DVR-112D Adapter: 0 ID: 0
Read mode : Secure
Utilize accurate stream : Yes
Defeat audio cache : Yes
Make use of C2 pointers : No
Read offset correction : 48
Overread into Lead-In and Lead-Out : No
Fill up missing offset samples with silence : Yes
Delete leading and trailing silent blocks : No
Null samples used in CRC calculations : Yes
Used interface : Native Win32 interface for Win NT & 2000
Gap handling : Appended to previous track
Used output format : User Defined Encoder
Selected bitrate : 768 kBit/s
Quality : High
Add ID3 tag : No
Command line compressor : C:\Program Files\Exact Audio Copy\FLAC\FLAC.EXE
Additional command line options : -6 -V -T "ARTIST=%a" -T "TITLE=%t" -T "ALBUM=%g" -T "DATE=%y" -T "TRACKNUMBER=%n" -T "GENRE=%m" -T "COMMENT=%e" %s -o %d
TOC of the extracted CD
Track | Start | Length | Start sector | End sector
---------------------------------------------------------
1 | 0:00.00 | 6:44.15 | 0 | 30314
2 | 6:44.15 | 12:25.42 | 30315 | 86231
3 | 19:09.57 | 3:48.43 | 86232 | 103374
4 | 22:58.25 | 10:06.17 | 103375 | 148841
5 | 33:04.42 | 13:23.43 | 148842 | 209109
6 | 46:28.10 | 11:36.65 | 209110 | 261374
7 | 58:05.00 | 5:18.50 | 261375 | 285274
8 | 63:23.50 | 11:15.25 | 285275 | 335924
Track 1
Filename N:\MOZART, WOLFGANG AMADEUS\W.A.Mozart - Symphonies (250th Anniversary Edition) - 8CD Set\CD 8\01 - Sinfonie Nr.40 g-moll KV 550 - Molto Allegro - Royal Concertgebouw Orchestra, Nikolaus Harnoncourt.wav
Pre-gap length 0:00:02.00
Peak level 77.8 %
Track quality 100.0 %
Copy CRC D4D739F0
Cannot be verified as accurate (confidence 4) [AEE994E2], AccurateRip returned [CDE6B4F6]
Copy OK
Track 2
Filename N:\MOZART, WOLFGANG AMADEUS\W.A.Mozart - Symphonies (250th Anniversary Edition) - 8CD Set\CD 8\02 - Sinfonie Nr.40 g-moll KV 550 - Andante - Royal Concertgebouw Orchestra, Nikolaus Harnoncourt.wav
Peak level 75.0 %
Track quality 99.9 %
Copy CRC CBD23FB9
Cannot be verified as accurate (confidence 4) [931B0A7B], AccurateRip returned [07A631FB]
Copy OK
Track 3
Filename N:\MOZART, WOLFGANG AMADEUS\W.A.Mozart - Symphonies (250th Anniversary Edition) - 8CD Set\CD 8\03 - Sinfonie Nr.40 g-moll KV 550 - Menuetto- Allegretto, Trio - Royal Concertgebouw Orchestra, Nikolaus Harnoncourt.wav
Peak level 58.8 %
Track quality 99.9 %
Copy CRC AA4FF330
Cannot be verified as accurate (confidence 4) [20416C3A], AccurateRip returned [D2D3682A]
Copy OK
Track 4
Filename N:\MOZART, WOLFGANG AMADEUS\W.A.Mozart - Symphonies (250th Anniversary Edition) - 8CD Set\CD 8\04 - Sinfonie Nr.40 g-moll KV 550 - Allegro assai - Royal Concertgebouw Orchestra, Nikolaus Harnoncourt.wav
Peak level 77.2 %
Track quality 99.9 %
Copy CRC 91D4FD62
Cannot be verified as accurate (confidence 4) [ACE44B1A], AccurateRip returned [BB35B8E6]
Copy OK
Track 5
Filename N:\MOZART, WOLFGANG AMADEUS\W.A.Mozart - Symphonies (250th Anniversary Edition) - 8CD Set\CD 8\05 - Sinfonie Nr.41 C-Dur KV 551 'Jupiter' - Allegro vivace - Royal Concertgebouw Orchestra, Nikolaus Harnoncourt.wav
Peak level 94.5 %
Track quality 99.9 %
Copy CRC 0C86B0AF
Cannot be verified as accurate (confidence 4) [4D6A354A], AccurateRip returned [568ADD7B]
Copy OK
Track 6
Filename N:\MOZART, WOLFGANG AMADEUS\W.A.Mozart - Symphonies (250th Anniversary Edition) - 8CD Set\CD 8\06 - Sinfonie Nr.41 C-Dur KV 551 'Jupiter' - Andante cantabile - Royal Concertgebouw Orchestra, Nikolaus Harnoncourt.wav
Peak level 41.3 %
Track quality 100.0 %
Copy CRC C274FAF3
Cannot be verified as accurate (confidence 4) [987C944A], AccurateRip returned [D4915211]
Copy OK
Track 7
Filename N:\MOZART, WOLFGANG AMADEUS\W.A.Mozart - Symphonies (250th Anniversary Edition) - 8CD Set\CD 8\07 - Sinfonie Nr.41 C-Dur KV 551 'Jupiter' - Menuetto- Allegretto - Royal Concertgebouw Orchestra, Nikolaus Harnoncourt.wav
Peak level 67.4 %
Track quality 100.0 %
Copy CRC 44C13188
Cannot be verified as accurate (confidence 4) [2E08617E], AccurateRip returned [3C4C827C]
Copy OK
Track 8
Filename N:\MOZART, WOLFGANG AMADEUS\W.A.Mozart - Symphonies (250th Anniversary Edition) - 8CD Set\CD 8\08 - Sinfonie Nr.41 C-Dur KV 551 'Jupiter' - Molto allegro - Royal Concertgebouw Orchestra, Nikolaus Harnoncourt.wav
Peak level 92.8 %
Track quality 100.0 %
Copy CRC C43E4765
Cannot be verified as accurate (confidence 4) [825404BC], AccurateRip returned [4C8B57EA]
Copy OK
No tracks could be verified as accurate
You may have a different pressing from the one(s) in the database
No errors occurred
End of status report
Cue-files CD 1-4:
скрытый текст
REM GENRE Classical
REM DATE 2006
REM DISCID C80E370F
REM COMMENT "ExactAudioCopy v0.99pb4"
PERFORMER "Amsterdan Baroque Orchestra, Ton Koopman"
TITLE "W.A.Mozart - Symphonies CD1"
FILE "01 - Symphony No.17 in G major, K129 - I Allegro - Amsterdan Baroque Orchestra, Ton Koopman.wav" WAVE
TRACK 01 AUDIO
TITLE "Symphony No.17 in G major, K129 - I Allegro"
PERFORMER "Amsterdan Baroque Orchestra, Ton Koopman"
INDEX 01 00:00:00
FILE "02 - Symphony No.17 in G major, K129 - II Andante - Amsterdan Baroque Orchestra, Ton Koopman.wav" WAVE
TRACK 02 AUDIO
TITLE "Symphony No.17 in G major, K129 - II Andante"
PERFORMER "Amsterdan Baroque Orchestra, Ton Koopman"
INDEX 01 00:00:00
FILE "03 - Symphony No.17 in G major, K129 - III Allegro - Amsterdan Baroque Orchestra, Ton Koopman.wav" WAVE
TRACK 03 AUDIO
TITLE "Symphony No.17 in G major, K129 - III Allegro"
PERFORMER "Amsterdan Baroque Orchestra, Ton Koopman"
INDEX 01 00:00:00
TRACK 04 AUDIO
TITLE "Symphony No18 in F major, K130 - I Allegro"
PERFORMER "Amsterdan Baroque Orchestra, Ton Koopman"
INDEX 00 02:58:02
FILE "04 - Symphony No18 in F major, K130 - I Allegro - Amsterdan Baroque Orchestra, Ton Koopman.wav" WAVE
INDEX 01 00:00:00
TRACK 05 AUDIO
TITLE "Symphony No18 in F major, K130 - II Andantino grazioso"
PERFORMER "Amsterdan Baroque Orchestra, Ton Koopman"
INDEX 00 05:31:66
FILE "05 - Symphony No18 in F major, K130 - II Andantino grazioso - Amsterdan Baroque Orchestra, Ton Koopman.wav" WAVE
INDEX 01 00:00:00
TRACK 06 AUDIO
TITLE "Symphony No18 in F major, K130 - III Menuetto"
PERFORMER "Amsterdan Baroque Orchestra, Ton Koopman"
INDEX 00 05:23:69
FILE "06 - Symphony No18 in F major, K130 - III Menuetto - Amsterdan Baroque Orchestra, Ton Koopman.wav" WAVE
INDEX 01 00:00:00
FILE "07 - Symphony No18 in F major, K130 - IV Molto allegro - Amsterdan Baroque Orchestra, Ton Koopman.wav" WAVE
TRACK 07 AUDIO
TITLE "Symphony No18 in F major, K130 - IV Molto allegro"
PERFORMER "Amsterdan Baroque Orchestra, Ton Koopman"
INDEX 01 00:00:00
TRACK 08 AUDIO
TITLE "Symphony No19 in F major, K132 - I Allegro"
PERFORMER "Amsterdan Baroque Orchestra, Ton Koopman"
INDEX 00 06:58:31
FILE "08 - Symphony No19 in F major, K132 - I Allegro - Amsterdan Baroque Orchestra, Ton Koopman.wav" WAVE
INDEX 01 00:00:00
TRACK 09 AUDIO
TITLE "Symphony No19 in F major, K132 - II Andante"
PERFORMER "Amsterdan Baroque Orchestra, Ton Koopman"
INDEX 00 04:13:67
FILE "09 - Symphony No19 in F major, K132 - II Andante - Amsterdan Baroque Orchestra, Ton Koopman.wav" WAVE
INDEX 01 00:00:00
TRACK 10 AUDIO
TITLE "Symphony No19 in F major, K132 - III Menuetto-trio"
PERFORMER "Amsterdan Baroque Orchestra, Ton Koopman"
INDEX 00 05:09:44
FILE "10 - Symphony No19 in F major, K132 - III Menuetto-trio - Amsterdan Baroque Orchestra, Ton Koopman.wav" WAVE
INDEX 01 00:00:00
FILE "11 - Symphony No19 in F major, K132 - IV Allegro (Rondeau) - Amsterdan Baroque Orchestra, Ton Koopman.wav" WAVE
TRACK 11 AUDIO
TITLE "Symphony No19 in F major, K132 - IV Allegro (Rondeau)"
PERFORMER "Amsterdan Baroque Orchestra, Ton Koopman"
INDEX 01 00:00:00
TRACK 12 AUDIO
TITLE "Symphony No19 in F major, K132 - V Adantino grazioso"
PERFORMER "Amsterdan Baroque Orchestra, Ton Koopman"
INDEX 00 03:42:72
FILE "12 - Symphony No19 in F major, K132 - V Adantino grazioso - Amsterdan Baroque Orchestra, Ton Koopman.wav" WAVE
INDEX 01 00:00:00
TRACK 13 AUDIO
TITLE "Symphony No 20 in C major, K162 - I Allegro"
PERFORMER "Amsterdan Baroque Orchestra, Ton Koopman"
INDEX 00 03:34:53
FILE "13 - Symphony No 20 in C major, K162 - I Allegro - Amsterdan Baroque Orchestra, Ton Koopman.wav" WAVE
INDEX 01 00:00:00
TRACK 14 AUDIO
TITLE "Symphony No 20 in C major, K 162 - II Andantino grazioso"
PERFORMER "Amsterdan Baroque Orchestra, Ton Koopman"
INDEX 00 03:42:69
FILE "14 - Symphony No 20 in C major, K 162 - II Andantino grazioso - Amsterdan Baroque Orchestra, Ton Koopman.wav" WAVE
INDEX 01 00:00:00
FILE "15 - Symphony No 20 in C major, K 162 - III Presto assai - Amsterdan Baroque Orchestra, Ton Koopman.wav" WAVE
TRACK 15 AUDIO
TITLE "Symphony No 20 in C major, K 162 - III Presto assai"
PERFORMER "Amsterdan Baroque Orchestra, Ton Koopman"
INDEX 01 00:00:00
REM GENRE Classical
REM DATE 2006
REM DISCID C00C7B0D
REM COMMENT "ExactAudioCopy v0.99pb4"
PERFORMER "Amsterdam Baroque Orchestra, Ton Koopman"
TITLE "W.A.Mozart - Symphonies CD2"
FILE "01 - Symphony No.21 A-Dur, K134 - I.Allegro - Amsterdam Baroque Orchestra, Ton Koopman.wav" WAVE
TRACK 01 AUDIO
TITLE "Symphony No.21 A-Dur, K134 - I.Allegro"
PERFORMER "Amsterdam Baroque Orchestra, Ton Koopman"
INDEX 01 00:00:00
TRACK 02 AUDIO
TITLE "Symphony No.21 A-Dur, K134 - II.Andante"
PERFORMER "Amsterdam Baroque Orchestra, Ton Koopman"
INDEX 00 05:23:18
FILE "02 - Symphony No.21 A-Dur, K134 - II.Andante - Amsterdam Baroque Orchestra, Ton Koopman.wav" WAVE
INDEX 01 00:00:00
TRACK 03 AUDIO
TITLE "Symphony No.21 A-Dur, K134 - III.Menuetto & Trio"
PERFORMER "Amsterdam Baroque Orchestra, Ton Koopman"
INDEX 00 06:16:20
FILE "03 - Symphony No.21 A-Dur, K134 - III.Menuetto & Trio - Amsterdam Baroque Orchestra, Ton Koopman.wav" WAVE
INDEX 01 00:00:00
TRACK 04 AUDIO
TITLE "Symphony No.21 A-Dur, K134 - IV.Allegro"
PERFORMER "Amsterdam Baroque Orchestra, Ton Koopman"
INDEX 00 03:11:22
FILE "04 - Symphony No.21 A-Dur, K134 - IV.Allegro - Amsterdam Baroque Orchestra, Ton Koopman.wav" WAVE
INDEX 01 00:00:00
TRACK 05 AUDIO
TITLE "Symphony No. 23 D-Dur, K181 - I.Allegro spiritoso"
PERFORMER "Amsterdam Baroque Orchestra, Ton Koopman"
INDEX 00 04:45:30
FILE "05 - Symphony No. 23 D-Dur, K181 - I.Allegro spiritoso - Amsterdam Baroque Orchestra, Ton Koopman.wav" WAVE
INDEX 01 00:00:00
FILE "06 - Symphony No.23 D-Dur, K181 - II.Andantino grazioso - Amsterdam Baroque Orchestra, Ton Koopman.wav" WAVE
TRACK 06 AUDIO
TITLE "Symphony No.23 D-Dur, K181 - II.Andantino grazioso"
PERFORMER "Amsterdam Baroque Orchestra, Ton Koopman"
INDEX 01 00:00:00
FILE "07 - Symphony No.23 D-Dur, K181 - III.Presto assai - Amsterdam Baroque Orchestra, Ton Koopman.wav" WAVE
TRACK 07 AUDIO
TITLE "Symphony No.23 D-Dur, K181 - III.Presto assai"
PERFORMER "Amsterdam Baroque Orchestra, Ton Koopman"
INDEX 01 00:00:00
TRACK 08 AUDIO
TITLE "Symphony No.24 B-Dur, K182 - I.Allegro spiritoso"
PERFORMER "Amsterdam Baroque Orchestra, Ton Koopman"
INDEX 00 01:59:34
FILE "08 - Symphony No.24 B-Dur, K182 - I.Allegro spiritoso - Amsterdam Baroque Orchestra, Ton Koopman.wav" WAVE
INDEX 01 00:00:00
TRACK 09 AUDIO
TITLE "Symphony No.24 B-Dur, K182 - II.Andantino grazioso"
PERFORMER "Amsterdam Baroque Orchestra, Ton Koopman"
INDEX 00 04:05:06
FILE "09 - Symphony No.24 B-Dur, K182 - II.Andantino grazioso - Amsterdam Baroque Orchestra, Ton Koopman.wav" WAVE
INDEX 01 00:00:00
TRACK 10 AUDIO
TITLE "Symphony No.24 B-Dur, K182 - III.Allegro"
PERFORMER "Amsterdam Baroque Orchestra, Ton Koopman"
INDEX 00 02:51:56
FILE "10 - Symphony No.24 B-Dur, K182 - III.Allegro - Amsterdam Baroque Orchestra, Ton Koopman.wav" WAVE
INDEX 01 00:00:00
TRACK 11 AUDIO
TITLE "Symphony No.27 G-Dur, K199 - I.Allegro"
PERFORMER "Amsterdam Baroque Orchestra, Ton Koopman"
INDEX 00 02:52:45
FILE "11 - Symphony No.27 G-Dur, K199 - I.Allegro - Amsterdam Baroque Orchestra, Ton Koopman.wav" WAVE
INDEX 01 00:00:00
FILE "12 - Symphony No.27 G-Dur, K199 - II.Andantino grazioso - Amsterdam Baroque Orchestra, Ton Koopman.wav" WAVE
TRACK 12 AUDIO
TITLE "Symphony No.27 G-Dur, K199 - II.Andantino grazioso"
PERFORMER "Amsterdam Baroque Orchestra, Ton Koopman"
INDEX 01 00:00:00
TRACK 13 AUDIO
TITLE "Symphony No.27 G-Dur, K199 - III.Presto"
PERFORMER "Amsterdam Baroque Orchestra, Ton Koopman"
INDEX 00 04:56:68
FILE "13 - Symphony No.27 G-Dur, K199 - III.Presto - Amsterdam Baroque Orchestra, Ton Koopman.wav" WAVE
INDEX 01 00:00:00
REM GENRE Classical
REM DATE 2006
REM DISCID 610F421A
REM COMMENT "ExactAudioCopy v0.99pb4"
PERFORMER "Leppard / Harnoncourt"
TITLE "W.A.Mozart - Symphonies CD3"
FILE "01 - Six German Dances No 1 D Major - Leppard , Harnoncourt.wav" WAVE
TRACK 01 AUDIO
TITLE "Six German Dances No 1 D Major"
PERFORMER "Leppard / Harnoncourt"
INDEX 01 00:00:00
FILE "02 - Six German Dances No 2 A Major - Leppard , Harnoncourt.wav" WAVE
TRACK 02 AUDIO
TITLE "Six German Dances No 2 A Major"
PERFORMER "Leppard / Harnoncourt"
INDEX 01 00:00:00
FILE "03 - Six German Dances No 3 C Major - Leppard , Harnoncourt.wav" WAVE
TRACK 03 AUDIO
TITLE "Six German Dances No 3 C Major"
PERFORMER "Leppard / Harnoncourt"
INDEX 01 00:00:00
FILE "04 - Six German Dances No 4 G Major - Leppard , Harnoncourt.wav" WAVE
TRACK 04 AUDIO
TITLE "Six German Dances No 4 G Major"
PERFORMER "Leppard / Harnoncourt"
INDEX 01 00:00:00
FILE "05 - Six German Dances No 5 B Flat Major - Leppard , Harnoncourt.wav" WAVE
TRACK 05 AUDIO
TITLE "Six German Dances No 5 B Flat Major"
PERFORMER "Leppard / Harnoncourt"
INDEX 01 00:00:00
FILE "06 - Six German Dances No 6 D Major - Leppard , Harnoncourt.wav" WAVE
TRACK 06 AUDIO
TITLE "Six German Dances No 6 D Major"
PERFORMER "Leppard / Harnoncourt"
INDEX 01 00:00:00
TRACK 07 AUDIO
TITLE "Les Petits Riens 01"
PERFORMER "Leppard / Harnoncourt"
INDEX 00 02:05:11
FILE "07 - Les Petits Riens 01 - Leppard , Harnoncourt.wav" WAVE
INDEX 01 00:00:00
FILE "08 - Les Petits Riens 02 - Leppard , Harnoncourt.wav" WAVE
TRACK 08 AUDIO
TITLE "Les Petits Riens 02"
PERFORMER "Leppard / Harnoncourt"
INDEX 01 00:00:00
FILE "09 - Les Petits Riens 03 - Leppard , Harnoncourt.wav" WAVE
TRACK 09 AUDIO
TITLE "Les Petits Riens 03"
PERFORMER "Leppard / Harnoncourt"
INDEX 01 00:00:00
FILE "10 - Les Petits Riens 04 - Leppard , Harnoncourt.wav" WAVE
TRACK 10 AUDIO
TITLE "Les Petits Riens 04"
PERFORMER "Leppard / Harnoncourt"
INDEX 01 00:00:00
FILE "11 - Les Petits Riens 05 - Leppard , Harnoncourt.wav" WAVE
TRACK 11 AUDIO
TITLE "Les Petits Riens 05"
PERFORMER "Leppard / Harnoncourt"
INDEX 01 00:00:00
FILE "12 - Les Petits Riens 06 - Leppard , Harnoncourt.wav" WAVE
TRACK 12 AUDIO
TITLE "Les Petits Riens 06"
PERFORMER "Leppard / Harnoncourt"
INDEX 01 00:00:00
FILE "13 - Les Petits Riens 07 - Leppard , Harnoncourt.wav" WAVE
TRACK 13 AUDIO
TITLE "Les Petits Riens 07"
PERFORMER "Leppard / Harnoncourt"
INDEX 01 00:00:00
FILE "14 - Les Petits Riens 08 - Leppard , Harnoncourt.wav" WAVE
TRACK 14 AUDIO
TITLE "Les Petits Riens 08"
PERFORMER "Leppard / Harnoncourt"
INDEX 01 00:00:00
FILE "15 - Les Petits Riens 09 - Leppard , Harnoncourt.wav" WAVE
TRACK 15 AUDIO
TITLE "Les Petits Riens 09"
PERFORMER "Leppard / Harnoncourt"
INDEX 01 00:00:00
FILE "16 - Les Petits Riens 10 - Leppard , Harnoncourt.wav" WAVE
TRACK 16 AUDIO
TITLE "Les Petits Riens 10"
PERFORMER "Leppard / Harnoncourt"
INDEX 01 00:00:00
FILE "17 - Les Petits Riens 11 - Leppard , Harnoncourt.wav" WAVE
TRACK 17 AUDIO
TITLE "Les Petits Riens 11"
PERFORMER "Leppard / Harnoncourt"
INDEX 01 00:00:00
FILE "18 - Les Petits Riens 12 - Leppard , Harnoncourt.wav" WAVE
TRACK 18 AUDIO
TITLE "Les Petits Riens 12"
PERFORMER "Leppard / Harnoncourt"
INDEX 01 00:00:00
FILE "19 - Les Petits Riens 13 - Leppard , Harnoncourt.wav" WAVE
TRACK 19 AUDIO
TITLE "Les Petits Riens 13"
PERFORMER "Leppard / Harnoncourt"
INDEX 01 00:00:00
TRACK 20 AUDIO
TITLE "Symphony No 25 G Minor I Allegro con brio"
PERFORMER "Leppard / Harnoncourt"
INDEX 00 03:28:56
FILE "20 - Symphony No 25 G Minor I Allegro con brio - Leppard , Harnoncourt.wav" WAVE
INDEX 01 00:00:00
TRACK 21 AUDIO
TITLE "Symphony No 25 G Minor II Andante"
PERFORMER "Leppard / Harnoncourt"
INDEX 00 10:34:61
FILE "21 - Symphony No 25 G Minor II Andante - Leppard , Harnoncourt.wav" WAVE
INDEX 01 00:00:00
FILE "22 - Symphony No 25 G Minor III Menuetto - Leppard , Harnoncourt.wav" WAVE
TRACK 22 AUDIO
TITLE "Symphony No 25 G Minor III Menuetto"
PERFORMER "Leppard / Harnoncourt"
INDEX 01 00:00:00
FILE "23 - Symphony No 25 G Minor IV Allegro - Leppard , Harnoncourt.wav" WAVE
TRACK 23 AUDIO
TITLE "Symphony No 25 G Minor IV Allegro"
PERFORMER "Leppard / Harnoncourt"
INDEX 01 00:00:00
TRACK 24 AUDIO
TITLE "Symphony No 26 E Flat Major I Molto presto"
PERFORMER "Leppard / Harnoncourt"
INDEX 00 07:12:18
FILE "24 - Symphony No 26 E Flat Major I Molto presto - Leppard , Harnoncourt.wav" WAVE
INDEX 01 00:00:00
TRACK 25 AUDIO
TITLE "Symphony No 26 E Flat Major II Andantino grazioso"
PERFORMER "Leppard / Harnoncourt"
INDEX 00 02:40:60
FILE "25 - Symphony No 26 E Flat Major II Andantino grazioso - Leppard , Harnoncourt.wav" WAVE
INDEX 01 00:00:00
FILE "26 - Symphony No 26 E Flat Major III - Leppard , Harnoncourt.wav" WAVE
TRACK 26 AUDIO
TITLE "Symphony No 26 E Flat Major III "
PERFORMER "Leppard / Harnoncourt"
INDEX 01 00:00:00
REM GENRE Classical
REM DATE 2006
REM DISCID A211760C
REM COMMENT "ExactAudioCopy v0.99pb4"
PERFORMER "Royal Concertgebouw Orchestra, Nikolaus Harnoncourt"
TITLE "W.A.Mozart - Symphonies CD4"
FILE "01 - Symphony No 28 C Major I Allegro spiritoso - Royal Concertgebouw Orchestra, Nikolaus Harnoncourt.wav" WAVE
TRACK 01 AUDIO
TITLE "Symphony No 28 C Major I Allegro spiritoso "
PERFORMER "Royal Concertgebouw Orchestra, Nikolaus Harnoncourt"
INDEX 01 00:00:00
TRACK 02 AUDIO
TITLE "Symphony No 28 C Major II Andante"
PERFORMER "Royal Concertgebouw Orchestra, Nikolaus Harnoncourt"
INDEX 00 07:11:27
FILE "02 - Symphony No 28 C Major II Andante - Royal Concertgebouw Orchestra, Nikolaus Harnoncourt.wav" WAVE
INDEX 01 00:00:00
FILE "03 - Symphony No 28 C Major III Menuetto Allegretto - Royal Concertgebouw Orchestra, Nikolaus Harnoncourt.wav" WAVE
TRACK 03 AUDIO
TITLE "Symphony No 28 C Major III Menuetto Allegretto"
PERFORMER "Royal Concertgebouw Orchestra, Nikolaus Harnoncourt"
INDEX 01 00:00:00
TRACK 04 AUDIO
TITLE "Symphony No 28 C Major IV Presto"
PERFORMER "Royal Concertgebouw Orchestra, Nikolaus Harnoncourt"
INDEX 00 02:56:18
FILE "04 - Symphony No 28 C Major IV Presto - Royal Concertgebouw Orchestra, Nikolaus Harnoncourt.wav" WAVE
INDEX 01 00:00:00
TRACK 05 AUDIO
TITLE "Symphony No 29 A Major I Allegro moderato"
PERFORMER "Royal Concertgebouw Orchestra, Nikolaus Harnoncourt"
INDEX 00 04:55:74
FILE "05 - Symphony No 29 A Major I Allegro moderato - Royal Concertgebouw Orchestra, Nikolaus Harnoncourt.wav" WAVE
INDEX 01 00:00:00
TRACK 06 AUDIO
TITLE "Symphony No 29 A Major II Andante"
PERFORMER "Royal Concertgebouw Orchestra, Nikolaus Harnoncourt"
INDEX 00 10:13:54
FILE "06 - Symphony No 29 A Major II Andante - Royal Concertgebouw Orchestra, Nikolaus Harnoncourt.wav" WAVE
INDEX 01 00:00:00
FILE "07 - Symphony No 29 A Major III Menuetto - Royal Concertgebouw Orchestra, Nikolaus Harnoncourt.wav" WAVE
TRACK 07 AUDIO
TITLE "Symphony No 29 A Major III Menuetto"
PERFORMER "Royal Concertgebouw Orchestra, Nikolaus Harnoncourt"
INDEX 01 00:00:00
FILE "08 - Symphony No 29 A Major IV Allegro con spirito - Royal Concertgebouw Orchestra, Nikolaus Harnoncourt.wav" WAVE
TRACK 08 AUDIO
TITLE "Symphony No 29 A Major IV Allegro con spirito"
PERFORMER "Royal Concertgebouw Orchestra, Nikolaus Harnoncourt"
INDEX 01 00:00:00
TRACK 09 AUDIO
TITLE "Symphony No 30 D Major I Molto allegro"
PERFORMER "Royal Concertgebouw Orchestra, Nikolaus Harnoncourt"
INDEX 00 06:10:73
FILE "09 - Symphony No 30 D Major I Molto allegro - Royal Concertgebouw Orchestra, Nikolaus Harnoncourt.wav" WAVE
INDEX 01 00:00:00
TRACK 10 AUDIO
TITLE "Symphony No 30 D Major II Andantino con moto"
PERFORMER "Royal Concertgebouw Orchestra, Nikolaus Harnoncourt"
INDEX 00 08:19:10
FILE "10 - Symphony No 30 D Major II Andantino con moto - Royal Concertgebouw Orchestra, Nikolaus Harnoncourt.wav" WAVE
INDEX 01 00:00:00
FILE "11 - Symphony No 30 D Major III Menuetto - Royal Concertgebouw Orchestra, Nikolaus Harnoncourt.wav" WAVE
TRACK 11 AUDIO
TITLE "Symphony No 30 D Major III Menuetto"
PERFORMER "Royal Concertgebouw Orchestra, Nikolaus Harnoncourt"
INDEX 01 00:00:00
FILE "12 - Symphony No 30 D Major IV Presto - Royal Concertgebouw Orchestra, Nikolaus Harnoncourt.wav" WAVE
TRACK 12 AUDIO
TITLE "Symphony No 30 D Major IV Presto"
PERFORMER "Royal Concertgebouw Orchestra, Nikolaus Harnoncourt"
INDEX 01 00:00:00
Cue-files CD 5-8:
скрытый текст
REM GENRE Classical
REM DISCID A310EB0B
REM COMMENT "ExactAudioCopy v0.99pb4"
PERFORMER "Royal Concertgebouw Orchestra, Nikolaus Harnoncourt"
TITLE "W.A.Mozart - Symphonies CD5"
FILE "01 - Symphony No 31 D Major I Allegro assai - Royal Concertgebouw Orchestra, Nikolaus Harnoncourt.wav" WAVE
TRACK 01 AUDIO
TITLE "Symphony No 31 D Major I Allegro assai"
PERFORMER "Royal Concertgebouw Orchestra, Nikolaus Harnoncourt"
INDEX 01 00:00:00
TRACK 02 AUDIO
TITLE "Symphony No 31 D Major II Andante"
PERFORMER "Royal Concertgebouw Orchestra, Nikolaus Harnoncourt"
INDEX 00 08:36:24
FILE "02 - Symphony No 31 D Major II Andante - Royal Concertgebouw Orchestra, Nikolaus Harnoncourt.wav" WAVE
INDEX 01 00:00:00
FILE "03 - Symphony No 31 D Major Allegro - Royal Concertgebouw Orchestra, Nikolaus Harnoncourt.wav" WAVE
TRACK 03 AUDIO
TITLE "Symphony No 31 D Major Allegro"
PERFORMER "Royal Concertgebouw Orchestra, Nikolaus Harnoncourt"
INDEX 01 00:00:00
TRACK 04 AUDIO
TITLE "Symphony No 31 D Major Andante 2nd Version"
PERFORMER "Royal Concertgebouw Orchestra, Nikolaus Harnoncourt"
INDEX 00 03:58:19
FILE "04 - Symphony No 31 D Major Andante 2nd Version - Royal Concertgebouw Orchestra, Nikolaus Harnoncourt.wav" WAVE
INDEX 01 00:00:00
TRACK 05 AUDIO
TITLE "Symphony No 33 B Flat Major I Allegro assai"
PERFORMER "Royal Concertgebouw Orchestra, Nikolaus Harnoncourt"
INDEX 00 04:23:39
FILE "05 - Symphony No 33 B Flat Major I Allegro assai - Royal Concertgebouw Orchestra, Nikolaus Harnoncourt.wav" WAVE
INDEX 01 00:00:00
TRACK 06 AUDIO
TITLE "Symphony No 33 B Flat Major II Andante moderato"
PERFORMER "Royal Concertgebouw Orchestra, Nikolaus Harnoncourt"
INDEX 00 07:43:55
FILE "06 - Symphony No 33 B Flat Major II Andante moderato - Royal Concertgebouw Orchestra, Nikolaus Harnoncourt.wav" WAVE
INDEX 01 00:00:00
FILE "07 - Symphony No 33 B Flat Major III Menuetto - Royal Concertgebouw Orchestra, Nikolaus Harnoncourt.wav" WAVE
TRACK 07 AUDIO
TITLE "Symphony No 33 B Flat Major III Menuetto"
PERFORMER "Royal Concertgebouw Orchestra, Nikolaus Harnoncourt"
INDEX 01 00:00:00
FILE "08 - Symphony No 33 B Flat Major IV Allegro assai - Royal Concertgebouw Orchestra, Nikolaus Harnoncourt.wav" WAVE
TRACK 08 AUDIO
TITLE "Symphony No 33 B Flat Major IV Allegro assai"
PERFORMER "Royal Concertgebouw Orchestra, Nikolaus Harnoncourt"
INDEX 01 00:00:00
TRACK 09 AUDIO
TITLE "Symphony No 34 C Major I Allegro vivace"
PERFORMER "Royal Concertgebouw Orchestra, Nikolaus Harnoncourt"
INDEX 00 09:32:48
FILE "09 - Symphony No 34 C Major I Allegro vivace - Royal Concertgebouw Orchestra, Nikolaus Harnoncourt.wav" WAVE
INDEX 01 00:00:00
TRACK 10 AUDIO
TITLE "Symphony No 34 C Major II Andante di molto"
PERFORMER "Royal Concertgebouw Orchestra, Nikolaus Harnoncourt"
INDEX 00 07:43:34
FILE "10 - Symphony No 34 C Major II Andante di molto - Royal Concertgebouw Orchestra, Nikolaus Harnoncourt.wav" WAVE
INDEX 01 00:00:00
TRACK 11 AUDIO
TITLE "Symphony No 34 C Major III Allegro"
PERFORMER "Royal Concertgebouw Orchestra, Nikolaus Harnoncourt"
INDEX 00 06:50:28
FILE "11 - Symphony No 34 C Major III Allegro - Royal Concertgebouw Orchestra, Nikolaus Harnoncourt.wav" WAVE
INDEX 01 00:00:00
REM GENRE Classical
REM DATE 2005
REM DISCID AB10A20B
REM COMMENT "ExactAudioCopy v0.99pb4"
PERFORMER "Royal Concertgebouw Orchestra, Nikolaus Harnoncourt"
TITLE "W.A.Mozart - Symphonies CD6"
FILE "01 - Symphony No 32 G Major I Allegro spiritoso - Royal Concertgebouw Orchestra, Nikolaus Harnoncourt.wav" WAVE
TRACK 01 AUDIO
TITLE "Symphony No 32 G Major I Allegro spiritoso"
PERFORMER "Royal Concertgebouw Orchestra, Nikolaus Harnoncourt"
INDEX 01 00:00:00
FILE "02 - Symphony No 32 G Major II Andante - Royal Concertgebouw Orchestra, Nikolaus Harnoncourt.wav" WAVE
TRACK 02 AUDIO
TITLE "Symphony No 32 G Major II Andante"
PERFORMER "Royal Concertgebouw Orchestra, Nikolaus Harnoncourt"
INDEX 01 00:00:00
FILE "03 - Symphony No 32 G Major III Primo tempo - Royal Concertgebouw Orchestra, Nikolaus Harnoncourt.wav" WAVE
TRACK 03 AUDIO
TITLE "Symphony No 32 G Major III Primo tempo"
PERFORMER "Royal Concertgebouw Orchestra, Nikolaus Harnoncourt"
INDEX 01 00:00:00
TRACK 04 AUDIO
TITLE "Symphony No 35 D Major I Allegro con spirito"
PERFORMER "Royal Concertgebouw Orchestra, Nikolaus Harnoncourt"
INDEX 00 02:01:49
FILE "04 - Symphony No 35 D Major I Allegro con spirito - Royal Concertgebouw Orchestra, Nikolaus Harnoncourt.wav" WAVE
INDEX 01 00:00:00
TRACK 05 AUDIO
TITLE "Symphony No 35 D Major II Andante"
PERFORMER "Royal Concertgebouw Orchestra, Nikolaus Harnoncourt"
INDEX 00 05:53:45
FILE "05 - Symphony No 35 D Major II Andante - Royal Concertgebouw Orchestra, Nikolaus Harnoncourt.wav" WAVE
INDEX 01 00:00:00
TRACK 06 AUDIO
TITLE "Symphony No 35 D Major III Menuetto"
PERFORMER "Royal Concertgebouw Orchestra, Nikolaus Harnoncourt"
INDEX 00 09:10:72
FILE "06 - Symphony No 35 D Major III Menuetto - Royal Concertgebouw Orchestra, Nikolaus Harnoncourt.wav" WAVE
INDEX 01 00:00:00
FILE "07 - Symphony No 35 D Major IV Presto - Royal Concertgebouw Orchestra, Nikolaus Harnoncourt.wav" WAVE
TRACK 07 AUDIO
TITLE "Symphony No 35 D Major IV Presto"
PERFORMER "Royal Concertgebouw Orchestra, Nikolaus Harnoncourt"
INDEX 01 00:00:00
TRACK 08 AUDIO
TITLE "Symphony No 36 C Major I Adagio - Allegro spiritoso"
PERFORMER "Royal Concertgebouw Orchestra, Nikolaus Harnoncourt"
INDEX 00 04:02:12
FILE "08 - Symphony No 36 C Major I Adagio - Allegro spiritoso - Royal Concertgebouw Orchestra, Nikolaus Harnoncourt.wav" WAVE
INDEX 01 00:00:00
TRACK 09 AUDIO
TITLE "Symphony No 36 C Major II Andante"
PERFORMER "Royal Concertgebouw Orchestra, Nikolaus Harnoncourt"
INDEX 00 10:59:58
FILE "09 - Symphony No 36 C Major II Andante - Royal Concertgebouw Orchestra, Nikolaus Harnoncourt.wav" WAVE
INDEX 01 00:00:00
FILE "10 - Symphony No 36 C Major III Menuetto - Royal Concertgebouw Orchestra, Nikolaus Harnoncourt.wav" WAVE
TRACK 10 AUDIO
TITLE "Symphony No 36 C Major III Menuetto"
PERFORMER "Royal Concertgebouw Orchestra, Nikolaus Harnoncourt"
INDEX 01 00:00:00
FILE "11 - Symphony No 36 C Major IV Presto - Royal Concertgebouw Orchestra, Nikolaus Harnoncourt.wav" WAVE
TRACK 11 AUDIO
TITLE "Symphony No 36 C Major IV Presto"
PERFORMER "Royal Concertgebouw Orchestra, Nikolaus Harnoncourt"
INDEX 01 00:00:00
REM GENRE Classical
REM DATE 1995
REM DISCID 60100F07
REM COMMENT "ExactAudioCopy v0.99pb4"
PERFORMER "Royal Concertgebouw Orchestra, Nikolaus Harnoncourt"
TITLE "W.A.Mozart - Symphonies CD7"
FILE "01 - Symphony No 38 D Major I Adagio Allegro - Royal Concertgebouw Orchestra, Nikolaus Harnoncourt.wav" WAVE
TRACK 01 AUDIO
TITLE "Symphony No 38 D Major I Adagio Allegro"
PERFORMER "Royal Concertgebouw Orchestra, Nikolaus Harnoncourt"
INDEX 01 00:00:00
TRACK 02 AUDIO
TITLE "Symphony No 38 D Major II Andante"
PERFORMER "Royal Concertgebouw Orchestra, Nikolaus Harnoncourt"
INDEX 00 19:25:67
FILE "02 - Symphony No 38 D Major II Andante - Royal Concertgebouw Orchestra, Nikolaus Harnoncourt.wav" WAVE
INDEX 01 00:00:00
FILE "03 - Symphony No 38 D Major III Presto - Royal Concertgebouw Orchestra, Nikolaus Harnoncourt.wav" WAVE
TRACK 03 AUDIO
TITLE "Symphony No 38 D Major III Presto"
PERFORMER "Royal Concertgebouw Orchestra, Nikolaus Harnoncourt"
INDEX 01 00:00:00
TRACK 04 AUDIO
TITLE "Symphony No 39 E Flat Major I Adagio Allegro"
PERFORMER "Royal Concertgebouw Orchestra, Nikolaus Harnoncourt"
INDEX 00 07:47:56
FILE "04 - Symphony No 39 E Flat Major I Adagio Allegro - Royal Concertgebouw Orchestra, Nikolaus Harnoncourt.wav" WAVE
INDEX 01 00:00:00
TRACK 05 AUDIO
TITLE "Symphony No 39 E Flat Major II Andante con moto"
PERFORMER "Royal Concertgebouw Orchestra, Nikolaus Harnoncourt"
INDEX 00 11:12:72
FILE "05 - Symphony No 39 E Flat Major II Andante con moto - Royal Concertgebouw Orchestra, Nikolaus Harnoncourt.wav" WAVE
INDEX 01 00:00:00
FILE "06 - Symphony No 39 E Flat Major III Menuetto Allegretto - Royal Concertgebouw Orchestra, Nikolaus Harnoncourt.wav" WAVE
TRACK 06 AUDIO
TITLE "Symphony No 39 E Flat Major III Menuetto Allegretto"
PERFORMER "Royal Concertgebouw Orchestra, Nikolaus Harnoncourt"
INDEX 01 00:00:00
FILE "07 - Symphony No 39 E Flat Major IV Finale Allegro - Royal Concertgebouw Orchestra, Nikolaus Harnoncourt.wav" WAVE
TRACK 07 AUDIO
TITLE "Symphony No 39 E Flat Major IV Finale Allegro"
PERFORMER "Royal Concertgebouw Orchestra, Nikolaus Harnoncourt"
INDEX 01 00:00:00
REM GENRE Classical
REM DATE 1989
REM DISCID 70117F08
REM COMMENT "ExactAudioCopy v0.99pb4"
PERFORMER "Royal Concertgebouw Orchestra, Nikolaus Harnoncourt"
TITLE "W.A.Mozart - Symphonies CD8"
FILE "01 - Sinfonie Nr.40 g-moll KV 550 - Molto Allegro - Royal Concertgebouw Orchestra, Nikolaus Harnoncourt.wav" WAVE
TRACK 01 AUDIO
TITLE "Sinfonie Nr.40 g-moll KV 550 - Molto Allegro"
PERFORMER "Royal Concertgebouw Orchestra, Nikolaus Harnoncourt"
INDEX 01 00:00:00
FILE "02 - Sinfonie Nr.40 g-moll KV 550 - Andante - Royal Concertgebouw Orchestra, Nikolaus Harnoncourt.wav" WAVE
TRACK 02 AUDIO
TITLE "Sinfonie Nr.40 g-moll KV 550 - Andante"
PERFORMER "Royal Concertgebouw Orchestra, Nikolaus Harnoncourt"
INDEX 01 00:00:00
FILE "03 - Sinfonie Nr.40 g-moll KV 550 - Menuetto- Allegretto, Trio - Royal Concertgebouw Orchestra, Nikolaus Harnoncourt.wav" WAVE
TRACK 03 AUDIO
TITLE "Sinfonie Nr.40 g-moll KV 550 - Menuetto: Allegretto, Trio"
PERFORMER "Royal Concertgebouw Orchestra, Nikolaus Harnoncourt"
INDEX 01 00:00:00
FILE "04 - Sinfonie Nr.40 g-moll KV 550 - Allegro assai - Royal Concertgebouw Orchestra, Nikolaus Harnoncourt.wav" WAVE
TRACK 04 AUDIO
TITLE "Sinfonie Nr.40 g-moll KV 550 - Allegro assai"
PERFORMER "Royal Concertgebouw Orchestra, Nikolaus Harnoncourt"
INDEX 01 00:00:00
FILE "05 - Sinfonie Nr.41 C-Dur KV 551 'Jupiter' - Allegro vivace - Royal Concertgebouw Orchestra, Nikolaus Harnoncourt.wav" WAVE
TRACK 05 AUDIO
TITLE "Sinfonie Nr.41 C-Dur KV 551 'Jupiter' - Allegro vivace"
PERFORMER "Royal Concertgebouw Orchestra, Nikolaus Harnoncourt"
INDEX 01 00:00:00
FILE "06 - Sinfonie Nr.41 C-Dur KV 551 'Jupiter' - Andante cantabile - Royal Concertgebouw Orchestra, Nikolaus Harnoncourt.wav" WAVE
TRACK 06 AUDIO
TITLE "Sinfonie Nr.41 C-Dur KV 551 'Jupiter' - Andante cantabile"
PERFORMER "Royal Concertgebouw Orchestra, Nikolaus Harnoncourt"
INDEX 01 00:00:00
FILE "07 - Sinfonie Nr.41 C-Dur KV 551 'Jupiter' - Menuetto- Allegretto - Royal Concertgebouw Orchestra, Nikolaus Harnoncourt.wav" WAVE
TRACK 07 AUDIO
TITLE "Sinfonie Nr.41 C-Dur KV 551 'Jupiter' - Menuetto: Allegretto"
PERFORMER "Royal Concertgebouw Orchestra, Nikolaus Harnoncourt"
INDEX 01 00:00:00
FILE "08 - Sinfonie Nr.41 C-Dur KV 551 'Jupiter' - Molto allegro - Royal Concertgebouw Orchestra, Nikolaus Harnoncourt.wav" WAVE
TRACK 08 AUDIO
TITLE "Sinfonie Nr.41 C-Dur KV 551 'Jupiter' - Molto allegro"
PERFORMER "Royal Concertgebouw Orchestra, Nikolaus Harnoncourt"
INDEX 01 00:00:00
Доп. информация:
“250th Anniversary Edition”
Symphonies 25, 26, 28-36, 38-41:
Royal Concertgebouw Orchestra
Nikolaus Harnoncourt

Symphonies 17-19, 21-24, 27:
Amsterdam Baroque Orchestra
Ton Koopman

Sechs Deutsche Tanze, K571
Les Petits Riens, K299b:

Scottish Chamber Orchestra
Raymond Leppard

Recorded in 1980-1991
Сканы буклета и обложек прилагаются
Download
Для скачивания .torrent файлов необходима регистрация
Сайт не распространяет и не хранит электронные версии произведений, а лишь предоставляет доступ к создаваемому пользователями каталогу ссылок на торрент-файлы, которые содержат только списки хеш-сумм
[Профиль]  [ЛС] 

troppo

Стаж: 11 лет 4 месяца

Сообщений: 1520

troppo · 31-Авг-10 20:48 (спустя 1 час 30 мин.)

[Цитировать] 

спасибо! (добавил себе несколько недостающих симфоний с Арнонкуром :-))
[Профиль]  [ЛС] 

omni-nominis

Top Seed 03* 160r

Стаж: 10 лет 5 месяцев

Сообщений: 247

omni-nominis · 31-Авг-10 21:06 (спустя 18 мин.)

[Цитировать] 

troppo писал(а):
спасибо! (добавил себе несколько недостающих симфоний с Арнонкуром :-))
Пожалуйста На днях выложу ещё 7-дисковый бокс "Early symphonies" (с Арнонкуром же) от DHM.
[Профиль]  [ЛС] 

troppo

Стаж: 11 лет 4 месяца

Сообщений: 1520

troppo · 31-Авг-10 22:06 (спустя 1 час)

[Цитировать] 

omni-nominis писал(а):
На днях выложу ещё 7-дисковый бокс "Early symphonies" (с Арнонкуром же) от DHM
любопытно... это с Vienna Concentus Musicus? старые записи или какие-то новые? не видел таких больших боксов...
[Профиль]  [ЛС] 

omni-nominis

Top Seed 03* 160r

Стаж: 10 лет 5 месяцев

Сообщений: 247

omni-nominis · 31-Авг-10 22:22 (спустя 16 мин., ред. 01-Сен-10 10:18)

[Цитировать] 

Цитата:
это с Vienna Concentus Musicus?
Именно. Записывалось с 1991 по 1999 г. в Вене, в Kasino Zogernitz.
[Профиль]  [ЛС] 

troppo

Стаж: 11 лет 4 месяца

Сообщений: 1520

troppo · 01-Сен-10 07:23 (спустя 9 часов)

[Цитировать] 

omni-nominis писал(а):
Именно. Записывалось с 1991 по 1999 г. в Вене, в Kasino Zogernitz.
о! это очень интересно! буду ждать
[Профиль]  [ЛС] 

uta170676

Стаж: 8 лет 1 месяц

Сообщений: 28

uta170676 · 18-Окт-10 18:11 (спустя 1 месяц 17 дней)

[Цитировать] 

Можете объяснить, почему такой низкий уровень записи? Это у всех выпусков Warrner Classics так?
Можно ли его какнибудь повысить, хотябы при записи на сиди?
[Профиль]  [ЛС] 

omni-nominis

Top Seed 03* 160r

Стаж: 10 лет 5 месяцев

Сообщений: 247

omni-nominis · 18-Окт-10 18:48 (спустя 36 мин.)

[Цитировать] 

Цитата:
почему такой низкий уровень записи?
Вы ошибаетесь. "Уровень записи" совершенно нормален (взгляните на амплитуду звуковой волны)

Вероятно, дело в настройках Вашего аудиожелеза/софта.
[Профиль]  [ЛС] 

uta170676

Стаж: 8 лет 1 месяц

Сообщений: 28

uta170676 · 19-Окт-10 10:03 (спустя 15 часов)

[Цитировать] 

Я прошу прощения, но на одном софте/железе (софт - AIMP) я слушаю музыку из разных источников. И могу сказать, что уровень низкий. Я попробовал воспроизвести на другом софте/железе - результат тот же.
Я ни в коем случае не критикую Вас. Просто я хочу узнать, как при записи на СиДи поднять уровень записи. хотябы на 10-15%.
Спасибо
[Профиль]  [ЛС] 

omni-nominis

Top Seed 03* 160r

Стаж: 10 лет 5 месяцев

Сообщений: 247

omni-nominis · 19-Окт-10 15:00 (спустя 4 часа, ред. 25-Окт-10 01:09)

[Цитировать] 

Цитата:
я хочу узнать, как при записи на СиДи поднять уровень записи. хотябы на 10-15%
Простейший способ: открыть все аудиофайлы в любом аудиоредакторе (Audition, SoundForge и т.п.) и увеличить амплитуду волны до желаемого уровня.
P.S. Вынужден повторить, что "уровень записи" (т.е. амплитуда входящего аудиосигнала) в данном издании идеален (см. скриншоты в предыдущем сообщении) - это величина объективная, и оспаривать это бессмысленно:). Искусственное увеличение амплитуды выше уровня 0db неизбежно приведет к искажениям (клиппированию)
[Профиль]  [ЛС] 

Finnegans

Стаж: 9 лет 8 месяцев

Сообщений: 154


Finnegans · 20-Окт-10 22:25 (спустя 1 день 7 часов)

[Цитировать] 

Уважаемый omni-nominis!
Ваши релизы - это всегда яркое событие в череде серых будней. Спасибо Вам огромное!
Что касается звука на этом издании - он идеален! Серьезно, я не все послушал, но то, что успел - невероятные впечатления... С технической стороны все также безупречно, с уровнями все безукоризненно (прослушано на студийных мониторах).
Уважаемый uta170676, Вы уверены, что хотите изменить уровень? omni-nominis уже упомянул выше, что это повлечет за собой серьезную деградацию звука....
С наилучшими пожеланиями,
Finnegans.
[Профиль]  [ЛС] 
 
Ответить
Loading...
Error