(Latino / Samba) Kaoma - Worldbeat - 1989, APE (image + .cue), lossless

Страницы:  1

Ответить
Автор
Сообщение

dimitri28

Top Seed 02* 80r

Стаж: 11 лет 3 месяца

Сообщений: 160

dimitri28 · 24-Фев-08 01:55 (10 лет 7 месяцев назад, ред. 20-Апр-16 14:31)

Kaoma - Worldbeat
Страна: Франция
Жанр: Latino / Samba
Год выпуска: 1989
Формат: APE (image + .cue)
Битрейт аудио: lossless
Продолжительность: 42:19
Трэклист:
1. Lambada 3:28
2. Lambareggae 3:53
3. Dancando Lambada 4:46
4. Lambamor 4:11
5. Lamba Caribe 4:08
6. Melodie d'Amour 4:14
7. Sindiang 4:01
8. Sopenala 4:31
9. Jambe Finete (Grille) 4:28
10. Salsa Nuestra 4:39
Лог EAC
Exact Audio Copy V0.99 prebeta 4 from 23. January 2008
EAC extraction logfile from 23. February 2008, 23:19
Kaoma / Worldbeat
Used drive : PLEXTOR CD-ROM PX-40TS Adapter: 2 ID: 3
Read mode : Secure
Utilize accurate stream : Yes
Defeat audio cache : Yes
Make use of C2 pointers : No
Read offset correction : 676
Overread into Lead-In and Lead-Out : No
Fill up missing offset samples with silence : Yes
Delete leading and trailing silent blocks : No
Null samples used in CRC calculations : Yes
Used interface : Installed external ASPI interface
Used output format : Internal WAV Routines
Sample format : 44.100 Hz; 16 Bit; Stereo
TOC of the extracted CD
Track | Start | Length | Start sector | End sector
---------------------------------------------------------
1 | 0:00.32 | 3:28.63 | 32 | 15694
2 | 3:29.20 | 3:53.65 | 15695 | 33234
3 | 7:23.10 | 4:46.02 | 33235 | 54686
4 | 12:09.12 | 4:11.00 | 54687 | 73511
5 | 16:20.12 | 4:08.58 | 73512 | 92169
6 | 20:28.70 | 4:14.65 | 92170 | 111284
7 | 24:43.60 | 4:01.22 | 111285 | 129381
8 | 28:45.07 | 4:31.10 | 129382 | 149716
9 | 33:16.17 | 4:28.33 | 149717 | 169849
10 | 37:44.50 | 4:38.40 | 169850 | 190739
Range status and errors
Selected range
Filename I:\Torrents\Kaoma - Worldbeat\Kaoma - Worldbeat.wav
Peak level 100.0 %
Range quality 100.0 %
Copy CRC 33D58BC4
Copy OK
No errors occurred
AccurateRip summary
Track 1 accurately ripped (confidence 3) [4C097653]
Track 2 accurately ripped (confidence 3) [1839F47C]
Track 3 accurately ripped (confidence 3) [F50EE3D3]
Track 4 accurately ripped (confidence 2) [2A130B9C]
Track 5 accurately ripped (confidence 2) [19B2E934]
Track 6 accurately ripped (confidence 2) [03703BA2]
Track 7 accurately ripped (confidence 2) [03D6A8FD]
Track 8 accurately ripped (confidence 2) [1558C9D4]
Track 9 accurately ripped (confidence 2) [A9A875D3]
Track 10 accurately ripped (confidence 2) [44CE1CBC]
All tracks accurately ripped
End of status report
Download
Для скачивания .torrent файлов необходима регистрация
Сайт не распространяет и не хранит электронные версии произведений, а лишь предоставляет доступ к создаваемому пользователями каталогу ссылок на торрент-файлы, которые содержат только списки хеш-сумм
[Профиль]  [ЛС] 

Navigator11

Стаж: 9 лет 11 месяцев

Сообщений: 353

Navigator11 · 10-Май-09 08:24 (спустя 1 год 2 месяца)

[Цитировать] 

Благодарю за прекрасный альбом, слушать приятно и интересно!!!!:up:
[Профиль]  [ЛС] 

devata

Стаж: 10 лет 2 месяца

Сообщений: 664

devata · 10-Апр-10 23:33 (спустя 11 месяцев)

[Цитировать] 

dimitri28
Спасибо большое за лосслесс!
[Профиль]  [ЛС] 
 
Ответить
Loading...
Error